osu file format v14

[General]
AudioFilename: CENSORED!!.mp3
AudioLeadIn: 0
PreviewTime: 89178
Countdown: 0
SampleSet: Normal
StackLeniency: 0.7
Mode: 0
LetterboxInBreaks: 0
WidescreenStoryboard: 1

[Editor]
Bookmarks: 15346
DistanceSpacing: 1
BeatDivisor: 4
GridSize: 16
TimelineZoom: 2.2

[Metadata]
Title:CENSORED!!
TitleUnicode:CENSORED!!
Artist:t+pazolite
ArtistUnicode:t+pazolite
Creator:Zyl
Version:XXX!!
Source:SOUND VOLTEX III GRAVITY WARS
Tags:chireiden 東方地霊殿 Subterranean Animism th11 ハルトマンの妖怪少女 Hartmann's Youkai Girl 古明地 こめいじ こいし 上海アリス幻樂団 Touhou Trent83 alice's emotion Koishi Komeiji sdvx museca ZUN Team Shanghai Alice Blossom Extra stage boss Touhou 11 Subterranean Animism Hartmann's youkai girl reitaisai 13 Electronic Instrumental
BeatmapID:1529410
BeatmapSetID:489566

[Difficulty]
HPDrainRate:7
CircleSize:4
OverallDifficulty:9
ApproachRate:9.6
SliderMultiplier:1.8
SliderTickRate:1

[Events]
//Background and Video events
0,0,"MORE CENSORED THAN EVER!!.png",0,0
//Break Periods
//Storyboard Layer 0 (Background)
//Storyboard Layer 1 (Fail)
//Storyboard Layer 2 (Pass)
//Storyboard Layer 3 (Foreground)
//Storyboard Layer 4 (Overlay)
//Storyboard Sound Samples

[TimingPoints]
577,307.692307692308,4,1,1,40,1,0
577,-133.333333333333,4,1,1,40,0,0
4884,-133.333333333333,4,2,1,40,0,0
5500,-100,4,2,1,40,0,0
10423,-100,4,2,1,70,0,1
10730,-100,4,2,1,70,0,0
19192,-83.3333333333333,4,3,1,70,0,0
19346,-71.4285714285714,4,3,1,70,0,0
19500,-62.5,4,3,1,70,0,0
19653,-55.5555555555556,4,3,1,70,0,0
19961,-100,4,1,1,70,0,0
20269,-71.4285714285714,4,1,1,70,0,1
20577,-125,4,3,1,70,0,1
20884,-71.4285714285714,4,3,1,70,0,1
21192,-125,4,3,1,70,0,1
21500,-71.4285714285714,4,3,1,70,0,1
21807,-125,4,3,1,70,0,1
22115,-71.4285714285714,4,3,1,70,0,1
22423,-125,4,1,1,70,0,1
22577,-125,4,3,1,70,0,1
22730,-71.4285714285714,4,1,1,70,0,1
23038,-125,4,3,1,70,0,1
23346,-71.4285714285714,4,3,1,70,0,1
23653,-125,4,3,1,70,0,1
23961,-166.666666666667,4,3,1,70,0,1
24115,-62.5,4,3,1,70,0,1
24346,-83.3333333333333,4,3,1,70,0,1
24577,-100,4,3,1,70,0,1
24807,-125,4,3,1,70,0,1
24884,-125,4,1,1,70,0,1
25038,-166.666666666667,4,3,1,70,0,1
25115,-166.666666666667,4,1,1,70,0,1
25192,-71.4285714285715,4,1,1,70,0,1
25500,-125,4,3,1,70,0,1
25807,-71.4285714285714,4,3,1,70,0,1
26115,-125,4,3,1,70,0,1
26423,-71.4285714285714,4,3,1,70,0,1
26730,-125,4,3,1,70,0,1
27038,-71.4285714285714,4,3,1,70,0,1
27346,-62.5,4,1,1,70,0,1
27807,-100,4,3,1,70,0,1
28038,-83.3333333333333,4,3,1,70,0,1
28269,-71.4285714285714,4,3,1,70,0,1
28500,-62.5,4,3,1,70,0,1
28730,-55.5555555555556,4,3,1,70,0,1
28884,-50,4,2,1,70,0,0
29038,-83.3333333333333,4,3,1,70,0,0
29500,-125,4,1,1,70,0,0
29807,-200,4,1,1,70,0,0
30115,-83.3333333333333,4,2,1,70,0,0
34730,-200,4,2,1,70,0,0
35038,-83.3333333333333,4,2,1,70,0,0
36730,-100,4,2,1,70,0,0
37038,-76.9230769230769,4,2,1,70,0,0
37500,-200,4,2,1,70,0,0
38269,-200,4,3,1,70,0,0
38730,-100,4,3,1,70,0,0
39961,-100,4,2,1,60,0,1
40269,-100,4,3,1,70,0,0
40884,-166.666666666667,4,3,1,70,0,0
41192,-100,4,3,1,70,0,0
42115,-166.666666666667,4,3,1,70,0,0
42423,-166.666666666667,4,2,1,70,0,0
42577,-166.666666666667,4,3,1,70,0,0
43653,-100,4,3,1,70,0,0
44269,-90.9090909090909,4,3,1,70,0,0
44423,-83.3333333333333,4,3,1,70,0,0
44730,-100,4,3,1,70,0,0
44884,-71.4285714285714,4,3,1,70,0,1
45192,-71.4285714285714,4,3,1,70,0,0
45807,-100,4,3,1,70,0,0
46115,-71.4285714285714,4,3,1,70,0,0
49807,-100,4,2,1,70,0,0
52269,-100,4,3,1,70,0,0
53500,-100,4,2,1,70,0,0
54577,-100,4,3,1,40,0,0
57192,-100,4,3,1,50,0,0
57500,-100,4,3,1,60,0,0
57807,-100,4,3,1,70,0,0
58115,-100,4,3,1,80,0,0
58423,-62.5,4,2,1,70,0,0
58730,-71.4285714285714,4,2,1,70,0,0
59038,-83.3333333333333,4,2,1,70,0,0
59346,-55.5555555555556,4,1,1,70,0,0
59653,-71.4285714285714,4,2,1,70,0,1
60038,-71.4285714285714,4,3,1,70,0,1
60269,-71.4285714285714,4,2,1,70,0,1
60423,-71.4285714285714,4,3,1,70,0,1
60884,-71.4285714285714,4,2,1,70,0,1
61192,-71.4285714285714,4,3,1,70,0,1
61500,-71.4285714285714,4,2,1,70,0,1
61807,-100,4,2,1,70,0,1
61961,-166.666666666667,4,3,1,70,0,1
62115,-71.4285714285714,4,1,2,70,0,1
64269,-62.5,4,1,2,70,0,1
64577,-71.4285714285714,4,2,1,70,0,1
64653,-71.4285714285714,4,3,1,70,0,1
64884,-71.4285714285714,4,2,1,70,0,1
64961,-71.4285714285714,4,3,1,70,0,1
65192,-71.4285714285714,4,2,1,70,0,1
65269,-71.4285714285714,4,3,1,70,0,1
65807,-71.4285714285714,4,2,1,70,0,1
65884,-71.4285714285714,4,3,1,70,0,1
66115,-71.4285714285714,4,2,1,70,0,1
66192,-71.4285714285714,4,3,1,70,0,1
66423,-71.4285714285714,4,2,1,70,0,1
66500,-71.4285714285714,4,3,1,70,0,1
66730,-62.5,4,2,1,70,0,1
66884,-166.666666666667,4,2,1,70,0,1
67192,-83.3333333333333,4,1,2,70,0,1
67500,-71.4285714285714,4,1,2,70,0,1
67961,-62.5,4,1,2,70,0,1
68269,-100,4,1,2,70,0,0
69500,-100,4,2,1,70,0,1
70730,-100,4,3,1,80,0,1
71038,-100,4,3,1,90,0,1
71346,-100,4,3,1,100,0,1
71653,-333,4,3,1,100,0,1
71961,-71.4285714285714,4,2,1,70,0,1
72115,-71.4285714285714,4,1,2,70,0,1
72269,-71.4285714285714,4,2,1,70,0,1
72423,-71.4285714285714,4,1,2,70,0,1
72577,-71.4285714285714,4,2,1,70,0,1
72730,-71.4285714285714,4,1,2,70,0,1
72884,-71.4285714285714,4,3,1,70,0,1
73038,-71.4285714285714,4,1,2,70,0,1
73115,-71.4285714285714,4,2,1,70,0,1
73346,-71.4285714285714,4,1,2,70,0,1
73500,-71.4285714285714,4,2,1,70,0,1
73653,-71.4285714285714,4,1,2,70,0,1
73807,-125,4,2,1,70,0,1
73961,-125,4,1,2,70,0,1
74269,-125,4,3,1,70,0,1
74423,-71.4285714285714,4,3,1,70,0,1
75961,-83.3333333333333,4,3,1,70,0,1
76269,-125,4,3,1,70,0,1
76577,-166.666666666667,4,2,1,70,0,1
76884,-250,4,3,1,70,0,1
78115,-100,4,2,1,70,0,0
79038,-83.3333333333333,4,2,1,70,0,0
79346,-100,4,1,1,70,0,1
79653,-100,4,2,1,70,0,0
80577,-55.5555555555556,4,2,1,70,0,0
80807,-62.5,4,2,1,70,0,0
81192,-71.4285714285714,4,2,1,70,0,0
81500,-83.3333333333333,4,2,1,70,0,0
81653,-100,4,2,1,70,0,0
81807,-100,4,1,1,70,0,1
82038,-100,4,2,1,70,0,1
82115,-100,4,2,1,70,0,0
83038,-55.5555555555556,4,2,1,70,0,0
83269,-62.5,4,2,1,70,0,0
83500,-71.4285714285714,4,2,1,70,0,0
83653,-62.5,4,2,1,70,0,0
83807,-55.5555555555556,4,2,1,70,0,0
83961,-50,4,2,1,70,0,0
84115,-62.5,4,2,1,70,0,0
84269,-100,4,1,1,70,0,1
84500,-100,4,2,1,70,0,1
84577,-100,4,2,1,70,0,0
88115,-83.3333333333333,4,3,1,70,0,0
88269,-71.4285714285714,4,3,1,70,0,0
88423,-62.5,4,3,1,70,0,0
88577,-55.5555555555556,4,3,1,70,0,0
88884,-100,4,1,1,70,0,0
89192,-71.4285714285714,4,1,1,70,0,1
89500,-100,4,3,1,70,0,1
89807,-62.5,4,3,1,70,0,1
90115,-100,4,3,1,70,0,1
90423,-62.5,4,3,1,70,0,1
90730,-100,4,3,1,70,0,1
91038,-62.5,4,3,1,70,0,1
91346,-100,4,1,1,70,0,1
91653,-62.5,4,1,1,70,0,1
91961,-100,4,3,1,70,0,1
92269,-62.5,4,3,1,70,0,1
92577,-100,4,3,1,70,0,1
93038,-62.5,4,3,1,70,0,1
93269,-71.4285714285714,4,3,1,70,0,1
93500,-83.3333333333333,4,3,1,70,0,1
93730,-100,4,3,1,70,0,1
93807,-100,4,1,1,70,0,1
93961,-100,4,3,1,70,0,1
94115,-62.5,4,1,1,70,0,1
94423,-100,4,3,1,70,0,1
94730,-62.5,4,3,1,70,0,1
95038,-100,4,3,1,70,0,1
95346,-62.5,4,3,1,70,0,1
95653,-100,4,3,1,70,0,1
95961,-62.5,4,3,1,70,0,1
96269,-100,4,1,1,70,0,1
96346,-100,4,3,1,70,0,1
96577,-62.5,4,1,1,70,0,1
96884,-100,4,3,1,70,0,1
97192,-62.5,4,3,1,70,0,1
97500,-83.3333333333333,4,3,1,70,0,1
98115,-71.4285714285714,4,3,1,70,0,1
98423,-62.5,4,3,1,70,0,1
98730,-300,4,1,1,70,0,0
99038,-62.5,4,1,1,70,0,1
99346,-62.5,4,3,1,70,0,1
100115,-62.5,4,2,1,70,0,1
100269,-62.5,4,3,1,70,0,1
101192,-62.5,4,1,1,70,0,1
101269,-62.5,4,3,1,70,0,1
101500,-62.5,4,1,1,70,0,1
101577,-62.5,4,3,1,70,0,1
102884,-71.4285714285714,4,3,1,70,0,1
103115,-62.5,4,3,1,70,0,1
103346,-55.5555555555556,4,3,1,70,0,1
103653,-50,4,1,1,70,0,1
103961,-62.5,4,1,1,70,0,1
104269,-62.5,4,3,1,70,0,1
105269,-62.5,4,3,1,70,0,1
106115,-100,4,1,1,70,0,1
106423,-83.3333333333333,4,1,1,70,0,1
106500,-83.3333333333333,4,3,1,70,0,1
106730,-71.4285714285714,4,3,1,80,0,1
107038,-62.5,4,3,1,90,0,1
107346,-62.5,4,3,1,100,0,1
107653,-100,4,2,1,70,0,0
107730,-100,4,3,1,70,0,0
108115,-71.4285714285714,4,2,1,70,0,0
108192,-71.4285714285714,4,3,1,70,0,0
108269,-76.9230769230769,4,3,1,70,0,0
108346,-83.3333333333333,4,3,1,70,0,0
108423,-90.9090909090909,4,1,1,70,0,0
108500,-100,4,1,1,70,0,0
108577,-83.3333333333333,4,3,1,70,0,0
108730,-71.4285714285714,4,3,1,70,0,0
108884,-83.3333333333333,4,2,1,70,0,0
111577,-71.4285714285714,4,2,1,70,0,0
111807,-62.5,4,2,1,70,0,0
112038,-55.5555555555556,4,2,1,70,0,0
112269,-52.6315789473684,4,2,1,70,0,0
112577,-50,4,2,1,70,0,0
113038,-62.5,4,2,1,70,0,0
113192,-71.4285714285714,4,2,1,70,0,0

[Colours]
Combo1 : 255,43,149
Combo2 : 255,45,45
Combo3 : 202,0,202
Combo0 : 202,0,101
SliderBorder : 255,43,149
SliderTrackOverride : 0,0,0

[HitObjects]
246,322,577,6,0,P|256:290|239:242,1,67.5000025749207,0|0,0:0|0:0,0:0:0:0:
166,219,884,2,0,P|156:251|169:300,1,67.5000025749207,0|0,0:0|0:0,0:0:0:0:
257,336,1192,2,0,L|338:341,1,67.5000025749207,0|0,0:0|0:0,0:0:0:0:
425,238,1500,2,0,L|357:233,1,67.5000025749207,0|0,0:0|0:0,0:0:0:0:
345,218,1730,1,0,0:0:0:0:
345,218,1807,5,0,0:0:0:0:
484,15,2115,2,0,L|471:160,1,135.000005149841,0|0,0:0|0:0,0:0:0:0:
343,355,2730,2,0,P|318:308|343:244,1,101.250003862381,0|0,0:0|0:0,0:0:0:0:
352,243,3038,6,0,P|388:249|423:240,1,67.5000025749207,0|0,0:0|0:0,0:0:0:0:
314,141,3346,2,0,P|278:135|243:144,1,67.5000025749207,0|0,0:0|0:0,0:0:0:0:
368,266,3653,2,0,P|408:273|447:263,1,67.5000025749208
313,113,3961,2,0,P|273:107|235:117,1,67.5000025749208
58,241,4269,6,0,P|119:266|200:234,1,135.000005149842,0|0,0:0|0:0,0:0:0:0:
216,14,4884,2,0,B|212:42|226:63|226:63|216:96|216:96|231:125|226:170,1,135.000005149842,2|0,0:0|0:0,0:0:0:0:
42,35,5346,1,0,0:0:0:0:
42,35,5423,1,0,0:0:0:0:
42,35,5500,6,0,L|134:24,1,90,4|0,0:0|0:0,0:0:0:0:
300,162,5807,2,0,L|208:151,1,90,4|0,0:0|0:0,0:0:0:0:
347,43,6115,2,0,L|439:32,1,90,8|0,0:0|0:0,0:0:0:0:
310,247,6423,2,0,P|294:205|310:140,1,90,4|0,0:0|0:0,0:0:0:0:
299,161,6653,1,0,0:0:0:0:
299,161,6730,6,0,L|406:175,1,90,4|0,0:0|0:0,0:0:0:0:
487,302,7038,2,0,L|397:313,1,90,4|0,0:0|0:0,0:0:0:0:
219,187,7346,2,4,P|223:120|291:70,1,135,8|0,0:0|0:0,0:0:0:0:
299,161,7653,2,4,L|306:197,6,22.5,4|4|4|4|4|4|4,0:0|0:0|0:0|0:0|0:0|0:0|0:0,0:0:0:0:
360,228,7961,6,0,L|345:327,1,90,4|0,0:0|0:0,0:0:0:0:
421,160,8269,2,0,L|406:61,1,90,4|0,0:0|0:0,0:0:0:0:
216,166,8577,2,0,P|232:207|267:236,1,90,8|0,0:0|0:0,0:0:0:0:
266,82,8884,2,0,P|250:40|215:12,1,90,4|0,0:0|0:0,0:0:0:0:
215,12,9115,1,0,0:0:0:0:
215,12,9192,6,0,L|110:26,1,90,4|0,0:0|0:0,0:0:0:0:
33,222,9500,2,0,L|122:233,1,90,0|0,0:0|0:0,0:0:0:0:
192,69,9807,2,0,B|148:80|110:61|110:61|68:38|6:54,1,180,8|2,0:0|0:0,0:0:0:0:
287,52,10423,5,4,0:0:0:0:
188,220,10653,1,0,0:0:0:0:
116,26,10884,5,0,0:0:0:0:
314,146,11115,1,0,0:0:0:0:
113,213,11346,5,0,0:0:0:0:
127,81,11500,1,0,0:0:0:0:
378,155,11653,5,4,0:0:0:0:
237,300,11884,1,0,0:0:0:0:
173,94,12115,5,0,0:0:0:0:
360,271,12346,1,0,0:0:0:0:
102,193,12577,5,0,0:0:0:0:
173,94,12730,1,0,0:0:0:0:
354,283,12884,5,4,0:0:0:0:
176,171,13115,1,0,0:0:0:0:
351,72,13346,5,0,0:0:0:0:
214,280,13577,1,0,0:0:0:0:
241,102,13807,5,0,0:0:0:0:
347,178,13961,1,0,0:0:0:0:
174,340,14115,5,4,0:0:0:0:
231,69,14346,1,0,0:0:0:0:
339,242,14577,5,0,0:0:0:0:
141,153,14807,1,0,0:0:0:0:
361,116,15038,5,0,0:0:0:0:
322,254,15192,1,0,0:0:0:0:
146,89,15346,5,4,0:0:0:0:
396,201,15577,1,0,0:0:0:0:
214,264,15807,5,4,0:0:0:0:
441,64,16038,1,0,0:0:0:0:
419,374,16269,5,4,0:0:0:0:
263,331,16423,1,4,0:0:0:0:
367,40,16577,5,4,0:0:0:0:
433,277,16807,1,0,0:0:0:0:
195,188,17038,5,4,0:0:0:0:
440,62,17269,1,0,0:0:0:0:
352,336,17500,5,4,0:0:0:0:
224,256,17653,1,4,0:0:0:0:
402,39,17807,5,4,0:0:0:0:
273,315,18038,1,0,0:0:0:0:
288,51,18269,5,4,0:0:0:0:
419,318,18500,1,0,0:0:0:0:
212,163,18730,5,4,0:0:0:0:
361,89,18884,1,4,0:0:0:0:
286,295,19038,5,2,0:0:0:0:
225,193,19192,6,4,L|222:273,1,53.9999983520508,4|0,0:0|0:0,0:0:0:0:
289,105,19346,6,4,L|300:187,1,62.9999980773926,4|0,0:0|0:0,0:0:0:0:
204,34,19500,6,4,L|201:128,1,72,4|0,0:0|0:0,0:0:0:0:
275,30,19653,6,4,P|368:73|281:99,1,242.999992584229,4|0,0:0|0:0,0:0:0:0:
257,172,19961,6,0,P|322:186|387:169,1,135,4|0,0:0|0:0,0:0:0:0:
288,104,20269,6,0,B|295:170|295:170|280:205|280:205|301:243|301:243|309:302,1,188.999994232178,10|0,0:0|0:0,0:0:0:0:
446,330,20577,6,4,P|412:341|386:365,1,72,4|0,0:0|0:0,0:0:0:0:
459,105,20884,6,4,B|413:105|413:105|395:86|395:86|370:102|370:102|314:141|244:68,1,188.999994232178,4|0,0:0|0:0,0:0:0:0:
142,54,21192,6,4,P|178:58|210:75,1,72
34,283,21500,6,4,B|74:282|74:282|102:263|102:263|144:284|144:284|175:267|175:267|219:265,1,188.999994232178,4|0,0:0|0:0,0:0:0:0:
314,162,21807,6,4,P|296:193|294:229,1,72,4|0,0:0|0:0,0:0:0:0:
498,91,22115,6,4,P|405:106|338:29,1,188.999994232178,4|0,0:0|0:0,0:0:0:0:
317,22,22423,1,4,0:0:0:0:
281,26,22499,1,0,0:0:0:0:
251,45,22576,1,0,0:0:0:0:
230,75,22653,1,0,0:0:0:0:
229,106,22730,6,0,B|236:172|236:172|221:207|221:207|242:245|242:245|250:304,1,188.999994232178,10|0,0:0|0:0,0:0:0:0:
404,255,23038,6,4,P|356:249|322:266,1,72,4|0,0:0|0:0,0:0:0:0:
50,325,23346,6,4,B|43:254|43:254|67:206|67:206|66:138,1,188.999994232178,4|0,0:0|0:0,0:0:0:0:
186,72,23653,6,4,P|151:112|144:147,1,72,4|4,0:0|0:0,0:0:0:0:
318,183,23961,5,4,0:0:0:0:
318,183,24038,1,4,0:0:0:0:
302,263,24115,6,4,P|370:242|397:165,1,144,4|0,0:0|0:0,0:0:0:0:
227,140,24346,6,4,L|243:262,1,107.999996704102,4|0,0:0|0:0,0:0:0:0:
377,111,24577,6,4,P|332:89|268:105,1,90,4|0,0:0|0:0,0:0:0:0:
398,254,24807,6,4,L|392:321,1,36,4|4,0:0|0:0,0:0:0:0:
350,6,25038,2,0,L|355:43,1,26.9999991760254,4|0,0:0|0:0,0:0:0:0:
324,51,25192,6,0,B|331:117|331:117|316:152|316:152|337:190|337:190|345:249,1,188.999994232178,10|0,0:0|0:0,0:0:0:0:
263,349,25500,6,0,P|301:320|350:316,1,72,4|0,0:0|0:0,0:0:0:0:
402,26,25807,6,0,B|313:36|313:36|262:17|262:17|196:26,1,188.999994232178,4|0,0:0|0:0,0:0:0:0:
223,157,26115,6,4,P|255:109|258:73,1,72,4|4,0:0|0:0,0:0:0:0:
35,287,26423,6,0,B|87:296|115:276|115:276|162:309|215:274,1,188.999994232178,4|0,0:0|0:0,0:0:0:0:
314,167,26730,6,0,P|294:219|297:254,1,72,4|0,0:0|0:0,0:0:0:0:
471,100,27038,6,0,B|431:99|431:99|403:80|403:80|361:101|361:101|330:84|330:84|286:82,1,188.999994232178,4|0,0:0|0:0,0:0:0:0:
228,19,27346,6,0,P|247:80|124:98,1,216,12|0,0:0|0:0,0:0:0:0:
131,109,27653,5,2,0:0:0:0:
131,109,27730,1,0,0:0:0:0:
131,109,27807,6,4,L|71:99,2,45
228,19,28038,6,4,P|203:12|166:13,2,53.9999983520508,4|0|4,0:0|0:0|0:0,0:0:0:0:
238,126,28269,6,4,P|298:142|364:117,1,125.999996154785,4|0,0:0|0:0,0:0:0:0:
419,51,28500,6,4,P|481:24|503:25,2,72,4|0|4,0:0|0:0|0:0,0:0:0:0:
490,107,28730,1,4,0:0:0:0:
324,225,28884,6,0,L|219:215,1,90,8|0,0:0|0:0,0:0:0:0:
177,117,29038,1,4,0:0:0:0:
177,117,29115,1,4,0:0:0:0:
177,117,29192,2,4,P|188:58|244:20,1,107.999996704102,4|4,0:0|0:0,0:0:0:0:
358,58,29500,6,0,L|364:115,1,36,0|0,0:0|0:0,0:0:0:0:
249,201,29653,2,0,L|255:144,1,36,0|0,0:0|0:0,0:0:0:0:
223,28,29807,6,0,L|301:20,1,67.5,4|0,0:0|0:0,0:0:0:0:
291,21,30115,5,12,0:0:0:0:
477,57,30269,1,0,0:0:0:0:
330,240,30423,2,0,L|343:103,1,107.999996704102,4|0,0:0|0:0,0:0:0:0:
240,289,30730,2,0,P|268:294|294:306,1,53.9999983520508,4|0,0:0|0:0,0:0:0:0:
240,289,30884,1,0,0:0:0:0:
240,289,30961,1,0,0:0:0:0:
240,289,31038,2,0,P|191:307|124:285,1,107.999996704102,4|0,0:0|0:0,0:0:0:0:
219,50,31346,5,4,0:0:0:0:
219,50,31423,2,0,L|214:108,1,53.9999983520508,0|0,0:0|0:0,0:0:0:0:
215,104,31577,1,0,0:0:0:0:
215,104,31653,2,0,P|139:115|81:37,1,161.999995056152,4|0,0:0|0:0,0:0:0:0:
165,36,31961,2,0,L|182:158,1,107.999996704102,4|0,0:0|0:0,0:0:0:0:
39,352,32269,2,0,L|56:230,1,107.999996704102,4|0,0:0|0:0,0:0:0:0:
36,216,32577,5,4,0:0:0:0:
316,317,32730,1,0,0:0:0:0:
235,102,32884,2,0,L|217:231,1,107.999996704102,4|0,0:0|0:0,0:0:0:0:
58,41,33192,2,0,P|104:65|188:31,1,107.999996704102,4|0,0:0|0:0,0:0:0:0:
54,59,33423,2,0,L|66:126,1,53.9999983520508,0|4,0:0|0:0,0:0:0:0:
30,275,33653,2,0,P|68:257|112:262,1,53.9999983520508,0|0,0:0|0:0,0:0:0:0:
15,291,33807,5,4,0:0:0:0:
362,258,33961,2,0,P|296:257|275:267,1,53.9999983520508,0|0,0:0|0:0,0:0:0:0:
362,258,34115,2,0,P|411:271|481:244,1,107.999996704102,4|0,0:0|0:0,0:0:0:0:
464,255,34346,1,0,0:0:0:0:
464,255,34423,2,4,L|452:335,1,53.9999983520508,4|0,0:0|0:0,0:0:0:0:
352,180,34577,2,0,L|343:126,1,53.9999983520508
314,297,34730,6,0,B|306:301|306:301|299:309|299:309|290:309|290:309|281:316|281:316|272:315|272:315|264:322|264:322|248:320,1,67.5,4|0,0:0|0:0,0:0:0:0:
219,318,35038,5,4,0:0:0:0:
219,318,35115,2,0,L|130:310,1,53.9999983520508,0|0,0:0|0:0,0:0:0:0:
58,211,35269,1,0,0:0:0:0:
58,211,35346,2,0,P|37:160|44:106,1,107.999996704102,4|0,0:0|0:0,0:0:0:0:
76,67,35577,1,0,0:0:0:0:
120,36,35653,2,0,L|135:156,1,107.999996704102,4|0,0:0|0:0,0:0:0:0:
148,262,35961,2,0,P|219:233|296:280,1,161.999995056152,4|0,0:0|0:0,0:0:0:0:
299,295,36269,5,4,0:0:0:0:
97,365,36423,2,0,L|86:279,1,53.9999983520508
16,179,36577,2,0,L|5:265,1,53.9999983520508,4|0,0:0|0:0,0:0:0:0:
117,144,36730,6,0,P|163:130|214:136,1,90,0|4,0:0|0:0,0:0:0:0:
245,336,37038,6,0,P|194:355|114:334,1,116.999994644165,0|4,0:0|0:0,0:0:0:0:
275,217,37346,1,0,0:0:0:0:
439,335,37500,6,0,B|390:344|359:327|359:327|343:337|343:337|307:318|245:330,1,180,2|4,0:0|0:0,0:0:0:0:
157,173,38269,1,8,0:0:0:0:
265,326,38423,5,8,0:0:0:0:
382,124,38577,1,8,0:0:0:0:
166,277,38730,5,8,0:0:0:0:
278,63,38884,1,0,0:0:0:0:
318,258,39038,5,8,0:0:0:0:
140,38,39192,1,0,0:0:0:0:
166,277,39346,5,8,0:0:0:0:
382,124,39500,1,8,0:0:0:0:
140,38,39653,5,4,0:0:0:0:
140,38,39730,1,4,0:0:0:0:
140,38,39807,1,4,0:0:0:0:
140,38,39884,1,4,0:0:0:0:
140,38,39961,6,8,L|153:152,1,90,4|0,0:0|0:0,0:0:0:0:
256,309,40269,2,8,L|269:195,1,90,8|0,0:0|0:0,0:0:0:0:
175,354,40577,1,12,0:0:0:0:
372,284,40730,1,0,0:0:0:0:
150,127,40884,6,4,B|146:145|157:165|157:165|154:177|154:177|165:189|167:213,1,80.9999975280763,12|0,0:0|0:0,0:0:0:0:
177,281,41192,5,4,0:0:0:0:
196,26,41346,1,0,0:0:0:0:
76,207,41500,5,4,0:0:0:0:
327,144,41653,1,0,0:0:0:0:
79,40,41807,5,12,0:0:0:0:
177,281,41961,1,0,0:0:0:0:
319,68,42115,6,4,B|294:74|271:63|271:63|254:81|227:84,1,94.4999971160889,12|0,0:0|0:0,0:0:0:0:
226,104,42423,5,4,0:0:0:0:
375,227,42577,2,4,B|357:219|345:226|345:226|333:216|315:219,1,53.9999983520508,6|8,0:0|0:0,0:0:0:0:
325,219,42807,1,0,0:0:0:0:
325,219,42884,1,8,0:0:0:0:
325,219,42961,1,0,0:0:0:0:
212,264,43038,2,4,B|229:264|229:264|254:273|254:273|275:273,1,53.9999983520508,12|8,0:0|0:0,0:0:0:0:
188,190,43269,2,8,B|172:199|172:199|161:214,1,26.9999991760254,12|8,0:0|0:0,0:0:0:0:
284,353,43500,1,12,0:0:0:0:
284,353,43577,1,12,0:0:0:0:
284,353,43653,6,4,P|297:294|289:260,1,90,4|8,0:0|0:0,0:0:0:0:
48,136,43961,2,4,L|156:119,1,90,4|8,0:0|0:0,0:0:0:0:
319,252,44269,6,8,L|312:187,1,49.5000015106202
155,306,44423,6,8,L|161:364,1,53.9999983520508,8|8,0:0|0:0,0:0:0:0:
285,318,44577,2,8,L|291:260,1,53.9999983520508
127,293,44730,6,4,B|126:281|126:281|121:272|121:272|123:253,2,22.5,4|4|2,0:0|0:0|0:0,0:0:0:0:
155,306,44884,5,4,0:0:0:0:
281,23,45115,1,4,0:0:0:0:
427,227,45346,5,4,0:0:0:0:
131,153,45577,1,4,0:0:0:0:
309,17,45807,5,4,0:0:0:0:
288,187,45961,1,4,0:0:0:0:
216,42,46115,5,4,0:0:0:0:
503,29,46346,1,4,0:0:0:0:
341,281,46577,5,4,0:0:0:0:
311,60,46807,1,4,0:0:0:0:
352,64,46884,1,4,0:0:0:0:
392,68,46961,1,4,0:0:0:0:
439,72,47038,2,4,B|411:87|383:72|383:72|371:80|371:80|343:66|313:80,1,125.999996154785,4|4,0:0|0:0,0:0:0:0:
170,253,47346,6,4,L|160:117,1,125.999996154785,4|4,0:0|0:0,0:0:0:0:
253,315,47653,1,4,0:0:0:0:
253,315,47730,1,4,0:0:0:0:
253,315,47807,1,4,0:0:0:0:
253,315,47884,1,4,0:0:0:0:
253,315,47961,2,4,L|245:386,1,62.9999980773926,4|4,0:0|0:0,0:0:0:0:
337,269,48115,2,4,L|329:198,1,62.9999980773926,4|4,0:0|0:0,0:0:0:0:
253,315,48269,2,0,B|296:302|332:323|332:323|351:313|351:313|376:332|444:321,1,188.999994232178,0|0,0:0|0:0,0:0:0:0:
256,192,48577,12,0,49653,0:0:0:0:
111,316,49807,5,4,0:0:0:0:
32,121,49961,1,0,0:0:0:0:
187,284,50115,5,4,0:0:0:0:
151,43,50269,1,0,0:0:0:0:
265,276,50423,5,4,0:0:0:0:
272,30,50577,1,0,0:0:0:0:
339,295,50731,5,4,0:0:0:0:
382,89,50885,1,0,0:0:0:0:
382,89,50961,1,4,0:0:0:0:
382,89,51038,6,0,P|432:75|481:85,1,90,4|0,0:0|0:0,0:0:0:0:
324,202,51346,2,0,P|279:206|236:193,1,90,4|0,0:0|0:0,0:0:0:0:
123,36,51653,2,0,P|66:27|17:39,1,90,4|0,0:0|0:0,0:0:0:0:
138,227,51961,2,0,P|147:170|135:121,1,90,4|0,0:0|0:0,0:0:0:0:
169,332,52269,5,8,0:0:0:0:
78,57,52423,1,0,0:0:0:0:
41,270,52576,5,8,0:0:0:0:
254,129,52730,1,0,0:0:0:0:
19,116,52884,5,8,0:0:0:0:
206,231,53038,1,0,0:0:0:0:
41,270,53192,5,8,0:0:0:0:
206,231,53346,1,0,0:0:0:0:
206,231,53500,6,8,P|268:253|326:214,1,135,4|0,0:0|0:0,0:0:0:0:
150,157,53807,2,0,B|148:198|157:219|157:219|150:239|150:239|160:265|147:310,1,135,4|0,0:0|0:0,0:0:0:0:
218,325,54115,2,0,B|167:325|141:341|141:341|110:337|110:337|87:353|43:352,1,180,4|0,0:0|0:0,0:0:0:0:
312,268,54577,5,12,0:0:0:0:
312,268,54653,1,12,0:0:0:0:
312,268,54730,6,0,L|307:364,1,90,12|4,0:0|0:0,0:0:0:0:
198,122,55038,2,0,L|193:32,1,90,4|4,0:0|0:0,0:0:0:0:
423,186,55346,2,0,P|376:181|334:199,1,90,12|4,0:0|0:0,0:0:0:0:
68,293,55653,2,0,P|115:298|157:280,1,90,12|4,0:0|0:0,0:0:0:0:
154,283,55884,1,4,0:0:0:0:
154,283,55961,6,0,L|132:175,1,90,12|4,0:0|0:0,0:0:0:0:
230,13,56269,2,0,L|247:101,1,90,12|4,0:0|0:0,0:0:0:0:
248,102,56577,2,0,P|181:78|118:109,1,135,12|4,0:0|0:0,0:0:0:0:
128,115,56884,1,12,0:0:0:0:
129,122,56961,1,4,0:0:0:0:
132,130,57038,1,4,0:0:0:0:
136,139,57115,1,4,0:0:0:0:
143,151,57192,5,12,0:0:0:0:
174,154,57269,1,4,0:0:0:0:
208,154,57346,1,4,0:0:0:0:
239,140,57423,1,4,0:0:0:0:
279,127,57500,5,12,0:0:0:0:
250,166,57577,1,4,0:0:0:0:
248,215,57653,1,4,0:0:0:0:
270,260,57730,1,4,0:0:0:0:
295,290,57807,5,8,0:0:0:0:
236,264,57884,1,8,0:0:0:0:
172,266,57961,1,8,0:0:0:0:
115,297,58038,1,8,0:0:0:0:
66,333,58115,5,8,0:0:0:0:
97,268,58192,1,8,0:0:0:0:
93,195,58269,1,8,0:0:0:0:
57,134,58346,1,8,0:0:0:0:
12,88,58423,6,0,P|128:106|177:18,1,216,2|0,0:0|0:0,0:0:0:0:
81,20,58730,6,0,B|98:71|78:114|78:114|56:154|90:214,1,188.999994232178,4|0,0:0|0:0,0:0:0:0:
14,275,59038,6,0,B|53:258|85:272|85:272|99:264|99:264|142:275|196:259,1,161.999995056153,8|0,0:0|0:0,0:0:0:0:
289,219,59346,6,0,P|228:223|308:269,1,242.999992584229
219,188,59653,6,0,P|181:136|206:63,1,125.999996154785,2|0,0:0|0:0,0:0:0:0:
413,230,59961,1,2,0:0:0:0:
413,230,60038,1,4,0:0:0:0:
413,230,60115,2,0,B|381:219|357:227|357:227|334:222|334:222|304:235|255:217,1,125.999996154785,4|2,0:0|0:0,0:0:0:0:
475,37,60423,1,4,0:0:0:0:
475,37,60500,1,4,0:0:0:0:
475,37,60577,2,8,L|465:119,1,62.9999980773926,8|4,0:0|0:0,0:0:0:0:
413,230,60730,2,8,L|423:312,1,62.9999980773926,8|0,0:0|0:0,0:0:0:0:
310,184,60884,6,0,P|382:187|430:141,1,125.999996154785,2|0,0:0|0:0,0:0:0:0:
207,24,61192,1,4,0:0:0:0:
207,24,61269,1,4,0:0:0:0:
207,24,61346,2,0,L|220:112,1,62.9999980773926,4|0,0:0|0:0,0:0:0:0:
120,207,61500,2,0,L|133:119,1,62.9999980773926,2|0,0:0|0:0,0:0:0:0:
186,296,61653,2,0,L|195:358,1,62.9999980773926,2|0,0:0|0:0,0:0:0:0:
300,266,61807,6,4,P|258:252|226:253,1,45,8|0,0:0|0:0,0:0:0:0:
84,290,61961,6,0,P|96:285|108:279,1,26.9999991760254,2|0,0:0|0:0,0:0:0:0:
201,184,62115,6,0,L|213:42,1,125.999996154785,0|8,0:0|0:0,0:0:0:0:
22,248,62423,2,0,P|16:320|79:365,1,125.999996154785,0|8,0:0|0:0,0:0:0:0:
129,57,62730,2,0,P|66:17|-14:39,1,125.999996154785,0|8,0:0|0:0,0:0:0:0:
216,198,63038,1,0,0:0:0:0:
216,198,63115,1,0,0:0:0:0:
216,198,63192,2,0,L|224:123,1,62.9999980773926,8|0,0:0|0:0,0:0:0:0:
129,239,63346,6,0,L|141:371,1,125.999996154785,0|8,0:0|0:0,0:0:0:0:
309,70,63653,2,0,B|270:59|248:70|248:70|239:67|239:67|208:78|171:66,1,125.999996154785,0|8,0:0|0:0,0:0:0:0:
384,273,63961,2,0,P|402:206|364:141,1,125.999996154785,0|8,0:0|0:0,0:0:0:0:
140,345,64269,6,8,B|176:357|199:345|199:345|210:349|210:349|234:342|283:349,1,144,8|0,0:0|0:0,0:0:0:0:
57,61,64577,5,2,0:0:0:0:
55,96,64653,1,4,0:0:0:0:
54,132,64730,1,4,0:0:0:0:
52,168,64807,1,4,0:0:0:0:
51,199,64884,2,0,B|46:234|57:257|57:257|56:264|56:264|71:295|60:345,1,125.999996154785,2|4,0:0|0:0,0:0:0:0:
161,138,65192,2,0,B|165:102|154:79|154:79|156:73|156:73|140:41|152:-8,1,125.999996154785,2|4,0:0|0:0,0:0:0:0:
371,248,65500,1,12,0:0:0:0:
333,266,65577,1,4,0:0:0:0:
290,266,65653,1,4,0:0:0:0:
253,247,65730,1,4,0:0:0:0:
224,208,65807,6,0,L|234:348,1,125.999996154785,2|12,0:0|0:0,0:0:0:0:
27,95,66115,2,0,P|82:66|179:97,1,125.999996154785,2|4,0:0|0:0,0:0:0:0:
143,72,66346,1,4,0:0:0:0:
142,72,66423,2,0,B|159:122|159:122|152:201,1,125.999996154785,2|12,0:0|0:0,0:0:0:0:
34,302,66730,6,0,P|40:334|32:377,1,72,4|0,0:0|0:0,0:0:0:0:
77,226,66884,6,0,B|76:205|76:205|70:191,1,26.9999991760254,2|0,0:0|0:0,0:0:0:0:
83,240,67038,5,0,0:0:0:0:
267,365,67192,6,0,B|267:337|279:320|279:320|271:305|271:305|289:286|294:230,1,107.999996704102,8|0,0:0|0:0,0:0:0:0:
453,161,67500,6,0,B|452:194|464:220|464:220|457:236|457:236|475:268|467:287,1,125.999996154785,8|0,0:0|0:0,0:0:0:0:
301,25,67807,1,8,0:0:0:0:
301,25,67884,1,8,0:0:0:0:
301,25,67961,6,0,L|312:113,1,72
239,188,68115,2,0,L|228:276,1,72,8|0,0:0|0:0,0:0:0:0:
256,192,68269,12,0,69346,0:0:0:0:
442,143,69500,5,4,0:0:0:0:
424,289,69653,1,0,0:0:0:0:
313,81,69807,5,4,0:0:0:0:
342,288,69961,1,0,0:0:0:0:
172,65,70115,5,4,0:0:0:0:
260,303,70269,1,0,0:0:0:0:
19,101,70423,5,4,0:0:0:0:
186,336,70577,1,0,0:0:0:0:
254,14,70730,5,4,0:0:0:0:
320,357,70884,1,8,0:0:0:0:
67,48,71038,5,4,0:0:0:0:
476,137,71192,1,8,0:0:0:0:
170,346,71346,5,4,0:0:0:0:
372,268,71653,6,0,B|354:265|354:265|342:269|342:269|329:265,1,40.5405405405405,2|0,0:0|0:0,0:0:0:0:
307,251,71961,6,0,B|368:251|368:251|379:255|379:255|455:255,1,125.999996154785,8|8,0:0|0:0,0:0:0:0:
162,118,72269,2,0,L|30:130,1,125.999996154785,4|8,0:0|0:0,0:0:0:0:
331,16,72577,2,0,P|351:77|320:155,1,125.999996154785,4|8,0:0|0:0,0:0:0:0:
176,326,72884,1,4,0:0:0:0:
160,294,72961,1,4,0:0:0:0:
160,258,73038,1,8,0:0:0:0:
177,227,73115,1,4,0:0:0:0:
205,204,73192,6,0,P|262:233|333:194,1,125.999996154785,8|8,0:0|0:0,0:0:0:0:
98,20,73500,2,0,L|113:161,1,125.999996154785,4|8,0:0|0:0,0:0:0:0:
427,118,73807,6,0,B|425:40,1,72,4|8,0:0|0:0,0:0:0:0:
496,191,74115,1,8,0:0:0:0:
299,293,74269,1,4,0:0:0:0:
299,293,74346,1,4,0:0:0:0:
299,293,74423,6,4,L|450:309,1,125.999996154785,4|4,0:0|0:0,0:0:0:0:
236,80,74730,2,4,L|110:93,1,125.999996154785
297,325,75038,1,4,0:0:0:0:
299,293,75115,1,4,0:0:0:0:
301,262,75192,1,4,0:0:0:0:
303,230,75269,1,4,0:0:0:0:
307,198,75346,2,4,L|312:112,1,62.9999980773926,4|4,0:0|0:0,0:0:0:0:
141,263,75500,2,4,L|146:349,1,62.9999980773926
124,241,75653,6,4,L|269:236,1,125.999996154785,4|0,0:0|0:0,0:0:0:0:
483,344,75961,6,4,L|358:346,1,107.999996704102,4|4,0:0|0:0,0:0:0:0:
305,77,76269,6,4,L|310:161,1,72
484,319,76577,6,4,L|490:264,1,53.9999983520508,2|0,0:0|0:0,0:0:0:0:
427,123,76884,5,4,0:0:0:0:
423,78,76961,1,4,0:0:0:0:
419,33,77038,1,4,0:0:0:0:
397,60,77115,5,4,0:0:0:0:
367,84,77192,1,4,0:0:0:0:
330,94,77269,1,4,0:0:0:0:
292,83,77346,1,4,0:0:0:0:
248,50,77423,5,8,0:0:0:0:
281,101,77499,1,8,0:0:0:0:
286,164,77576,1,8,0:0:0:0:
261,222,77653,1,8,0:0:0:0:
279,280,77730,5,8,0:0:0:0:
228,234,77807,1,8,0:0:0:0:
161,229,77884,1,8,0:0:0:0:
103,262,77961,1,8,0:0:0:0:
77,321,78038,1,8,0:0:0:0:
77,321,78115,6,4,B|75:298|68:279|68:279|77:263|77:263|64:243|66:199,1,90,2|4,0:0|0:0,0:0:0:0:
133,80,78423,1,4,0:0:0:0:
133,80,78500,1,4,0:0:0:0:
133,80,78577,2,4,L|138:150,1,45,4|0,0:0|0:0,0:0:0:0:
155,154,78730,2,0,L|163:35,1,90,2|0,0:0|0:0,0:0:0:0:
408,182,79038,6,0,B|413:256|413:256|406:275|406:275|411:355,1,161.999995056152,8|0,0:0|0:0,0:0:0:0:
416,362,79346,5,8,0:0:0:0:
371,144,79577,1,0,0:0:0:0:
251,333,79807,5,4,0:0:0:0:
503,245,80038,1,0,0:0:0:0:
269,280,80269,6,4,L|278:332,1,45,4|4,0:0|0:0,0:0:0:0:
354,348,80423,2,4,L|346:303,1,45,4|4,0:0|0:0,0:0:0:0:
424,354,80577,6,4,B|433:287|433:287|428:270|428:270|439:194,1,161.999995056152,4|0,0:0|0:0,0:0:0:0:
366,87,80807,6,4,B|358:149|358:149|363:166|363:166|352:242,1,144,4|0,0:0|0:0,0:0:0:0:
334,249,81038,6,4,L|254:238,1,72,4|0,0:0|0:0,0:0:0:0:
134,153,81192,6,4,L|198:139,1,62.9999980773926,4|0,0:0|0:0,0:0:0:0:
106,274,81346,1,4,0:0:0:0:
106,274,81423,1,4,0:0:0:0:
106,274,81500,6,4,L|100:195,1,53.9999983520508,4|0,0:0|0:0,0:0:0:0:
260,255,81653,6,4,L|257:309,1,45,4|0,0:0|0:0,0:0:0:0:
259,230,81807,5,8,0:0:0:0:
438,120,82038,1,0,0:0:0:0:
338,364,82269,5,4,0:0:0:0:
300,87,82500,1,0,0:0:0:0:
404,301,82730,6,4,L|411:345,1,45,4|4,0:0|0:0,0:0:0:0:
334,321,82884,2,4,L|328:276,1,45,4|4,0:0|0:0,0:0:0:0:
260,336,83038,6,4,B|251:269|251:269|256:252|256:252|245:176,1,161.999995056152,4|0,0:0|0:0,0:0:0:0:
156,74,83269,6,4,B|164:136|164:136|159:153|159:153|170:229,1,144,4|0,0:0|0:0,0:0:0:0:
164,239,83500,6,4,L|152:151,1,62.9999980773926,4|0,0:0|0:0,0:0:0:0:
57,60,83653,6,4,L|52:152,1,72,4|0,0:0|0:0,0:0:0:0:
223,50,83807,6,4,L|128:55,1,80.9999975280762,4|0,0:0|0:0,0:0:0:0:
230,132,83961,6,4,L|323:140,1,90,4|0,0:0|0:0,0:0:0:0:
385,48,84115,6,4,L|313:49,1,72,4|0,0:0|0:0,0:0:0:0:
408,62,84269,5,8,0:0:0:0:
155,176,84500,1,4,0:0:0:0:
327,331,84730,5,4,0:0:0:0:
259,42,84961,1,4,0:0:0:0:
213,344,85192,5,4,0:0:0:0:
361,257,85346,1,4,0:0:0:0:
156,70,85500,5,4,0:0:0:0:
108,361,85730,1,4,0:0:0:0:
327,331,85961,5,4,0:0:0:0:
54,162,86192,1,4,0:0:0:0:
174,340,86423,5,4,0:0:0:0:
299,239,86577,1,4,0:0:0:0:
141,48,86730,5,4,0:0:0:0:
251,338,86961,1,4,0:0:0:0:
373,127,87192,5,4,0:0:0:0:
92,211,87423,1,4,0:0:0:0:
357,316,87653,5,4,0:0:0:0:
381,153,87807,1,4,0:0:0:0:
317,65,87961,5,2,0:0:0:0:
317,65,88115,6,4,L|314:-15,1,53.9999983520508,4|0,0:0|0:0,0:0:0:0:
381,153,88269,6,4,L|392:71,1,62.9999980773926,4|0,0:0|0:0,0:0:0:0:
296,224,88423,6,4,L|293:130,1,72,4|0,0:0|0:0,0:0:0:0:
367,228,88577,6,4,P|460:185|373:159,1,242.999992584229,4|0,0:0|0:0,0:0:0:0:
349,86,88884,6,0,P|414:72|479:89,1,135,4|0,0:0|0:0,0:0:0:0:
386,4,89192,6,0,B|399:66|399:66|397:82|397:82|423:205,1,188.999994232178,10|0,0:0|0:0,0:0:0:0:
251,148,89500,6,0,P|292:120|343:118,1,90,4|0,0:0|0:0,0:0:0:0:
228,280,89807,6,0,B|180:269|180:269|148:281|148:281|78:248|14:291,1,216,4|0,0:0|0:0,0:0:0:0:
64,97,90115,6,4,L|80:208,1,90,4|4,0:0|0:0,0:0:0:0:
252,310,90423,6,0,B|303:317|331:298|331:298|358:310|358:310|378:295|378:295|407:281|470:286,1,216,4|0,0:0|0:0,0:0:0:0:
406,125,90730,6,0,P|408:163|446:217,1,90,4|0,0:0|0:0,0:0:0:0:
248,29,91038,6,0,B|176:37|176:37|139:20|139:20|97:43|97:43|26:48,1,216,4|0,0:0|0:0,0:0:0:0:
24,68,91346,1,4,0:0:0:0:
9,110,91422,1,0,0:0:0:0:
12,155,91499,1,0,0:0:0:0:
30,195,91576,1,0,0:0:0:0:
63,223,91653,6,0,B|151:210|151:210|173:217|173:217|282:201,1,216,10|0,0:0|0:0,0:0:0:0:
367,71,91961,6,0,P|364:115|339:152,1,90,4|0,0:0|0:0,0:0:0:0:
21,81,92269,6,0,B|81:66|81:66|126:79|126:79|166:38|244:55,1,216,4|0,0:0|0:0,0:0:0:0:
275,201,92577,6,4,L|284:101,1,90,4|4,0:0|0:0,0:0:0:0:
405,341,92884,5,4,0:0:0:0:
405,341,92961,1,4,0:0:0:0:
405,341,93038,6,4,B|347:328|347:328|339:333|339:333|244:310,1,144,4|0,0:0|0:0,0:0:0:0:
395,195,93269,6,4,L|400:329,1,125.999996154785,4|0,0:0|0:0,0:0:0:0:
273,195,93500,6,4,P|323:169|403:184,1,107.999996704102,4|0,0:0|0:0,0:0:0:0:
276,342,93730,6,4,L|270:298,1,45,4|4,0:0|0:0,0:0:0:0:
395,195,93961,2,4,L|388:239,1,45,4|0,0:0|0:0,0:0:0:0:
284,265,94115,6,0,B|275:184|275:184|295:140|295:140|282:42,1,216,10|0,0:0|0:0,0:0:0:0:
130,160,94423,6,0,P|203:141|228:111,1,90,4|0,0:0|0:0,0:0:0:0:
24,20,94730,6,0,B|39:74|39:74|25:124|25:124|58:166|45:242,1,216,4|0,0:0|0:0,0:0:0:0:
220,242,95038,6,4,P|173:266|116:265,1,90,4|4,0:0|0:0,0:0:0:0:
294,61,95346,6,0,L|524:67,1,216,4|0,0:0|0:0,0:0:0:0:
360,192,95653,6,0,P|414:151|470:152,1,90,4|0,0:0|0:0,0:0:0:0:
290,355,95961,6,0,B|201:343|201:343|186:349|186:349|67:325,1,216,4|0,0:0|0:0,0:0:0:0:
53,304,96269,1,4,0:0:0:0:
34,263,96345,1,0,0:0:0:0:
34,219,96422,1,4,0:0:0:0:
55,179,96499,1,0,0:0:0:0:
83,150,96577,6,0,B|189:174|189:174|315:134,1,216,10|0,0:0|0:0,0:0:0:0:
478,169,96884,6,0,L|360:179,1,90,4|0,0:0|0:0,0:0:0:0:
296,320,97192,6,0,B|228:307|228:307|185:327|185:327|133:306|91:340,1,216,4|0,0:0|0:0,0:0:0:0:
38,162,97500,6,0,P|19:212|34:263,1,107.999996704102,4|4,0:0|0:0,0:0:0:0:
342,99,97807,6,4,L|269:106,1,53.9999983520508,4|0,0:0|0:0,0:0:0:0:
376,23,97961,1,4,0:0:0:0:
376,23,98038,1,4,0:0:0:0:
376,23,98115,6,4,L|228:39,1,125.999996154785,4|4,0:0|0:0,0:0:0:0:
140,176,98423,6,4,L|316:184,1,144,4|4,0:0|0:0,0:0:0:0:
283,182,98653,1,8,0:0:0:0:
181,272,98730,6,0,L|188:325,1,45,4|0,0:0|0:0,0:0:0:0:
44,298,99038,6,0,L|214:320,1,144,10|0,0:0|0:0,0:0:0:0:
120,158,99346,5,4,0:0:0:0:
72,365,99500,1,8,0:0:0:0:
308,253,99653,2,0,P|240:233|155:254,1,144,4|0,0:0|0:0,0:0:0:0:
156,273,99884,1,0,0:0:0:0:
151,309,99961,2,4,L|134:157,1,144
244,29,100270,5,0,0:0:0:0:
285,32,100346,1,0,0:0:0:0:
326,35,100423,1,0,0:0:0:0:
368,38,100500,1,0,0:0:0:0:
419,46,100577,2,0,B|444:89|407:131|407:131|435:160|435:160|399:229|458:256,1,216,4|0,0:0|0:0,0:0:0:0:
289,256,100884,2,4,L|460:234,1,144,4|8,0:0|0:0,0:0:0:0:
202,304,101192,1,4,0:0:0:0:
151,309,101268,1,0,0:0:0:0:
101,315,101345,1,0,0:0:0:0:
50,321,101422,1,0,0:0:0:0:
1,328,101500,6,0,L|161:340,1,144,10|8,0:0|0:0,0:0:0:0:
267,221,101807,2,0,P|273:145|226:83,1,144,4|0,0:0|0:0,0:0:0:0:
70,184,102115,2,0,P|64:260|111:322,1,144,4|8,0:0|0:0,0:0:0:0:
151,309,102346,1,4,0:0:0:0:
202,304,102423,2,0,B|237:295|268:309|268:309|308:331|350:320,1,144,0|4,0:0|0:0,0:0:0:0:
461,183,102730,6,0,L|471:266,1,72,4|4,0:0|0:0,0:0:0:0:
510,111,102884,6,4,P|445:99|378:143,1,125.999996154785,4|0,0:0|0:0,0:0:0:0:
340,208,103115,6,4,L|350:42,1,144,4|0,0:0|0:0,0:0:0:0:
230,35,103346,6,4,L|252:134,1,80.9999975280763,4|0,0:0|0:0,0:0:0:0:
178,175,103500,2,0,L|156:76,1,80.9999975280763,0|4,0:0|0:0,0:0:0:0:
270,227,103653,6,4,B|204:190|147:232|147:232|72:284|16:233,1,270,4|0,0:0|0:0,0:0:0:0:
15,191,103961,5,10,0:0:0:0:
19,236,104037,1,0,0:0:0:0:
23,281,104114,1,0,0:0:0:0:
28,326,104191,1,0,0:0:0:0:
33,367,104269,6,0,L|206:352,1,144,4|0,0:0|0:0,0:0:0:0:
267,251,104500,2,0,P|230:264|169:267,1,72,0|4,0:0|0:0,0:0:0:0:
181,140,104730,1,0,0:0:0:0:
266,351,104884,1,4,0:0:0:0:
380,149,105038,1,0,0:0:0:0:
197,268,105192,5,4,0:0:0:0:
443,357,105346,2,0,L|451:275,1,72,0|0,0:0|0:0,0:0:0:0:
457,244,105500,1,4,0:0:0:0:
464,194,105576,1,0,0:0:0:0:
450,144,105653,1,0,0:0:0:0:
459,95,105730,1,0,0:0:0:0:
478,58,105807,2,0,B|425:77|390:60|390:60|373:71|373:71|323:55|247:79,1,216,4|0,0:0|0:0,0:0:0:0:
211,22,106115,6,0,P|239:79|199:158,1,135,4|0,0:0|0:0,0:0:0:0:
187,165,106423,5,10,0:0:0:0:
173,199,106500,1,4,0:0:0:0:
176,237,106577,1,4,0:0:0:0:
197,268,106653,1,4,0:0:0:0:
236,317,106730,5,4,0:0:0:0:
187,295,106807,1,4,0:0:0:0:
134,304,106884,1,4,0:0:0:0:
95,342,106961,1,4,0:0:0:0:
50,372,107038,5,4,0:0:0:0:
49,311,107115,1,4,0:0:0:0:
48,250,107192,1,4,0:0:0:0:
48,189,107269,1,4,0:0:0:0:
36,120,107346,5,4,0:0:0:0:
96,153,107423,1,4,0:0:0:0:
164,145,107500,1,4,0:0:0:0:
216,100,107577,1,4,0:0:0:0:
257,48,107653,6,8,L|246:119,1,45,4|0,0:0|0:0,0:0:0:0:
299,31,107807,5,8,0:0:0:0:
342,21,107883,1,8,0:0:0:0:
385,33,107960,1,8,0:0:0:0:
468,192,108115,6,8,L|457:274,1,62.9999980773926,4|0,0:0|0:0,0:0:0:0:
446,297,108269,5,8,0:0:0:0:
418,330,108345,5,0,0:0:0:0:
391,343,108422,5,8,0:0:0:0:
369,340,108499,5,0,0:0:0:0:
329,340,108577,6,0,L|257:355,1,53.9999983520508,6|4,0:0|0:0,0:0:0:0:
202,227,108730,2,4,L|278:246,1,62.9999980773926,4|4,0:0|0:0,0:0:0:0:
202,227,108884,5,12,0:0:0:0:
454,158,109115,1,4,0:0:0:0:
276,351,109346,5,4,0:0:0:0:
283,66,109577,1,4,0:0:0:0:
482,286,109807,5,4,0:0:0:0:
303,234,109961,1,4,0:0:0:0:
456,21,110115,5,4,0:0:0:0:
488,305,110346,1,4,0:0:0:0:
220,151,110577,5,4,0:0:0:0:
477,36,110807,2,4,L|471:114,1,53.9999983520508,4|4,0:0|0:0,0:0:0:0:
397,220,110961,2,4,L|392:166,1,53.9999983520508,4|0,0:0|0:0,0:0:0:0:
307,49,111192,1,4,0:0:0:0:
307,49,111346,6,0,L|323:171,1,107.999996704102,14|0,0:0|0:0,0:0:0:0:
397,220,111577,6,0,P|322:203|256:238,1,125.999996154785,4|0,0:0|0:0,0:0:0:0:
254,307,111807,6,0,L|231:145,1,144,12|0,0:0|0:0,0:0:0:0:
124,137,112038,6,0,P|210:139|261:81,1,161.999995056153,4|0,0:0|0:0,0:0:0:0:
124,137,112269,6,0,L|137:226,1,85.4999977169037,12|0,0:0|0:0,0:0:0:0:
44,72,112423,2,0,L|30:163,1,85.4999977169037,4|0,0:0|0:0,0:0:0:0:
43,243,112577,6,0,B|119:201|201:240|201:240|312:289|392:212,1,360,12|0,0:0|0:0,0:0:0:0:
368,229,113038,5,0,0:0:0:0:
373,300,113114,1,0,0:0:0:0:
387,202,113192,2,0,P|323:218|412:169,1,440.999986541748,10|0,0:0|0:0,0:0:0:0:
417,143,113807,5,0,0:0:0:0:
