osu file format v9

[General]
AudioFilename: t_pazolite - .mp3
AudioLeadIn: 3000
PreviewTime: 20807
Countdown: 0
SampleSet: Normal
StackLeniency: 0.7
Mode: 0
LetterboxInBreaks: 0

[Editor]
Bookmarks: 217186,219618,222213
DistanceSpacing: 0.95
BeatDivisor: 4
GridSize: 4

[Metadata]
Title:Against Gilgamesh
Artist:t+pazolite
Creator:Louis Cyphre
Version:Ultimate Illusion
Source:Final Fantasy
Tags:SquareSoft Square Enix Soft Enkidu Nobuo Uematsu Hitoshi Sakimoto Hironobu Sakaguchi Ancient Black Mages Man Mystery speedcore core Akihiko Yoshida Playstation PS2 Montblanc FFI FFIV After Years FFV FFVI FFVIII FFIX FFXI FFXII Revenant Wings FFXIII Dissidia Clash Big Bridge Biggu Burijji shito Girugamesshu OnosakiHito

[Difficulty]
HPDrainRate:6
CircleSize:4
OverallDifficulty:8
ApproachRate:9
SliderMultiplier:1.8
SliderTickRate:2

[Events]
//Background and Video events
0,0,"BGGilgamesh.png"
//Break Periods
2,114250,117505
2,119439,122694
//Storyboard Layer 0 (Background)
//Storyboard Layer 1 (Fail)
//Storyboard Layer 2 (Pass)
//Storyboard Layer 3 (Foreground)
//Storyboard Sound Samples
//Background Colour Transformations
3,100,163,162,255

[TimingPoints]
51,324.324324324324,4,1,1,40,1,0
11078,-100,4,1,2,40,0,0
11402,-100,4,1,1,40,0,0
11726,-100,4,1,2,40,0,0
12050,-100,4,1,1,40,0,0
12375,-100,4,1,2,40,0,0
12699,-100,4,1,1,40,0,0
13023,-100,4,1,2,40,0,0
13348,-100,4,1,1,40,0,0
13672,-100,4,1,2,40,0,0
13834,-100,4,1,1,40,0,0
14321,-100,4,1,2,40,0,0
14483,-100,4,1,1,40,0,0
14969,-100,4,1,2,40,0,0
15132,-100,4,1,1,40,0,0
15618,-100,4,1,2,40,0,0
15780,-100,4,1,1,40,0,0
15942,-100,4,1,1,40,0,0
16267,-100,4,1,2,40,0,0
16429,-100,4,1,1,40,0,0
16591,-100,4,1,1,40,0,0
16915,-100,4,1,2,40,0,0
17078,-100,4,1,1,40,0,0
17240,-100,4,1,1,40,0,0
17564,-100,4,1,2,40,0,0
17726,-100,4,1,1,40,0,0
17888,-100,4,1,1,40,0,0
18213,-100,4,1,2,40,0,0
18375,-100,4,1,1,40,0,0
18537,-100,4,1,1,40,0,0
18861,-100,4,1,2,40,0,0
19023,-100,4,1,1,40,0,0
19186,-100,4,1,1,40,0,0
19510,-100,4,1,2,40,0,0
19672,-100,4,1,1,40,0,0
20807,-100,4,2,1,70,0,0
31186,-100,4,1,1,40,0,0
32807,-100,4,2,0,100,0,0
33132,-200,4,2,0,100,0,0
33942,-200,4,2,0,40,0,0
36375,-200,4,2,0,100,0,0
45294,-200,4,2,0,40,0,0
46753,-200,4,2,0,100,0,0
50969,-100,4,2,0,100,0,0
52267,-66.6666666666667,4,2,0,100,0,0
53321,-66.6666666666667,4,2,0,100,0,0
54213,-66.6666666666667,4,2,0,100,0,0
54618,-66.6666666666667,4,2,0,100,0,0
57132,-100,4,1,1,75,0,0
62321,-100,4,1,2,75,0,0
67510,-100,4,1,1,75,0,0
71402,-100,4,1,1,75,0,1
72050,-100,4,1,2,75,0,1
72375,-100,4,1,1,75,0,1
72699,-100,4,1,2,75,0,1
73023,-100,4,1,1,75,0,1
73348,-100,4,1,2,75,0,1
73672,-100,4,1,1,75,0,1
73996,-100,4,1,2,75,0,1
74321,-100,4,1,1,75,0,1
74645,-100,4,1,2,75,0,1
74969,-100,4,2,2,75,0,1
75010,-100,4,1,1,75,0,1
75294,-100,4,1,2,75,0,1
75618,-100,4,1,1,75,0,1
75942,-100,4,1,2,75,0,1
76267,-100,4,1,1,75,0,1
76591,-100,4,1,2,75,0,1
76915,-100,4,1,1,75,0,1
77240,-100,4,1,2,75,0,1
77564,-100,4,1,1,75,0,1
77888,-100,4,1,2,75,0,1
78213,-100,4,1,1,75,0,1
78537,-100,4,1,2,75,0,1
78861,-100,4,1,1,75,0,1
79186,-100,4,1,2,75,0,1
79510,-100,4,1,1,75,0,1
79834,-100,4,1,2,75,0,1
80159,-100,4,1,1,75,0,1
80483,-100,4,1,2,75,0,1
80807,-100,4,1,1,75,0,1
81132,-100,4,1,2,75,0,1
81456,-100,4,1,1,75,0,1
81780,-100,4,1,2,75,0,1
82105,-100,4,1,1,75,0,1
82429,-100,4,1,2,75,0,1
82753,-100,4,1,1,75,0,1
83079,-100,4,1,2,75,0,1
83402,-100,4,1,1,75,0,1
83726,-100,4,1,2,75,0,1
84050,-100,4,1,1,75,0,1
84375,-100,4,1,2,75,0,1
84699,-100,4,1,1,75,0,1
85023,-100,4,1,2,75,0,1
85348,-100,4,1,1,75,0,1
85672,-100,4,1,2,75,0,1
85996,-100,4,1,1,75,0,1
86321,-100,4,1,2,75,0,1
86645,-100,4,1,1,75,0,1
86969,-100,4,1,2,75,0,1
87294,-100,4,1,1,75,0,1
87618,-100,4,1,2,75,0,1
87942,-100,4,1,1,75,0,1
88267,-100,4,1,2,75,0,1
88591,-100,4,1,1,75,0,1
88915,-100,4,1,2,75,0,1
89240,-100,4,1,1,75,0,1
89564,-100,4,1,2,75,0,1
89888,-100,4,1,1,75,0,1
90213,-100,4,1,2,75,0,1
90537,-100,4,1,1,75,0,1
90861,-100,4,1,2,75,0,1
91186,-100,4,1,1,75,0,1
91510,-100,4,1,2,75,0,1
91834,-100,4,1,1,75,0,1
92159,-100,4,1,1,75,0,0
92807,-100,4,1,2,75,0,0
93132,-100,4,1,1,75,0,0
93456,-100,4,1,2,75,0,0
93780,-100,4,1,1,75,0,0
94105,-100,4,1,2,75,0,0
94429,-100,4,1,1,75,0,0
94753,-100,4,1,2,75,0,0
97348,-200,4,2,0,100,0,0
111618,-100,4,1,0,60,0,0
112915,-100,4,2,0,100,0,0
132699,-100,4,1,2,75,0,0
132740,-100,4,2,0,75,0,0
133348,-100,4,1,2,75,0,0
133388,-100,4,2,0,75,0,0
134969,-100,4,1,2,60,0,0
135294,-100,4,2,0,75,0,0
135618,-100,4,1,2,60,0,0
135942,-100,4,2,0,75,0,0
137564,-100,4,1,2,75,0,0
137605,-100,4,2,0,60,0,0
138213,-100,4,1,2,60,0,0
138253,-100,4,2,0,75,0,0
140159,-100,4,1,2,75,0,0
140240,-100,4,2,0,75,0,0
140807,-100,4,1,2,75,0,0
140888,-100,4,2,0,75,0,0
142753,-100,4,1,2,75,0,0
142834,-100,4,2,0,75,0,0
143402,-100,4,1,2,75,0,0
143483,-100,4,2,0,75,0,0
145348,-100,4,1,2,75,0,0
145429,-100,4,2,0,75,0,0
145996,-100,4,1,2,75,0,0
146078,-100,4,2,0,75,0,0
147942,-100,4,1,2,75,0,0
148023,-100,4,2,0,75,0,0
148591,-100,4,1,2,75,0,0
148672,-100,4,2,0,75,0,0
150537,-100,4,1,2,75,0,0
150618,-100,4,2,0,75,0,0
151186,-100,4,1,2,75,0,0
151267,-100,4,2,0,75,0,0
153132,-100,4,1,1,60,0,0
154429,-100,4,2,0,100,0,0
169348,-100,4,1,2,60,0,0
169996,-100,4,1,0,100,0,0
170078,-100,4,1,0,60,0,0
173888,-100,4,1,0,100,0,0
175186,-100,4,1,1,75,0,1
175510,-100,4,1,1,75,0,1
175834,-100,4,1,2,75,0,1
176159,-100,4,1,1,75,0,1
176483,-100,4,1,2,75,0,1
176807,-100,4,1,1,75,0,1
177132,-100,4,1,2,75,0,1
177456,-100,4,1,1,75,0,1
177780,-100,4,1,2,75,0,1
178105,-100,4,1,1,75,0,1
178429,-100,4,1,2,75,0,1
178753,-100,4,1,1,75,0,1
179078,-100,4,1,2,75,0,1
179402,-100,4,1,1,75,0,1
179726,-100,4,1,2,75,0,1
180050,-100,4,1,1,75,0,1
180375,-100,4,1,2,75,0,1
180699,-100,4,1,1,75,0,1
181023,-100,4,1,2,75,0,1
181348,-100,4,1,1,75,0,1
181672,-100,4,1,2,75,0,1
181996,-100,4,1,1,75,0,1
182321,-100,4,1,2,75,0,1
182645,-100,4,1,1,75,0,1
182969,-100,4,1,2,75,0,1
183294,-100,4,1,1,75,0,1
183618,-100,4,1,2,75,0,1
183942,-100,4,1,1,75,0,1
184267,-100,4,1,2,75,0,1
184591,-100,4,1,1,75,0,1
184915,-100,4,1,2,75,0,1
185240,-100,4,1,1,75,0,1
185564,-100,4,1,2,75,0,1
185888,-100,4,1,1,75,0,1
186213,-100,4,1,2,75,0,1
186537,-100,4,1,1,75,0,1
186861,-100,4,1,2,75,0,1
187186,-100,4,1,1,75,0,1
187510,-100,4,1,2,75,0,1
187834,-100,4,1,1,75,0,1
188159,-100,4,1,2,75,0,1
188483,-100,4,1,1,75,0,1
188807,-100,4,1,2,75,0,1
189132,-100,4,1,1,75,0,1
189456,-100,4,1,2,75,0,1
189780,-100,4,1,1,75,0,1
190105,-100,4,1,2,75,0,1
190429,-100,4,1,1,75,0,1
190753,-100,4,1,2,75,0,1
191078,-100,4,1,1,75,0,1
191402,-100,4,1,2,75,0,1
191726,-100,4,1,1,75,0,1
192050,-100,4,1,2,75,0,1
192375,-100,4,1,1,75,0,1
192699,-100,4,1,2,75,0,1
193023,-100,4,1,1,75,0,1
193348,-100,4,1,2,75,0,1
193672,-100,4,1,1,75,0,1
193996,-100,4,1,2,75,0,1
194321,-100,4,1,1,75,0,1
194645,-100,4,1,2,100,0,1
194969,-100,4,1,1,100,0,1
195294,-100,4,1,2,100,0,1
195618,-100,4,1,1,100,0,1
195780,-100,4,1,2,100,0,1
195942,-100,4,1,2,100,0,0
196105,-100,4,1,2,40,0,0
197564,-100,4,2,0,100,0,0
197888,-200,4,2,0,100,0,0
215564,-100,4,2,0,100,0,0
216699,-66.6666666666667,4,2,0,60,0,0
217023,-66.6666666666667,4,2,0,100,0,0
221888,-100,4,1,1,75,0,0
227078,-100,4,1,2,75,0,0
238753,-100,4,2,0,5,0,0

[Colours]
Combo1 : 146,101,65
Combo2 : 254,52,1
Combo3 : 102,146,95
Combo4 : 253,126,0

[HitObjects]
80,172,51,2,0,B|168:144,1,90,4|0
244,184,375,1,8
248,192,456,1,0
252,200,537,1,2
336,204,699,2,0,B|356:248,2,45,0|0|2
416,168,1023,2,0,B|440:216,2,45,8|0|2
384,88,1348,6,0,B|356:56|304:56,1,90,0|2
216,60,1672,2,0,B|164:68,2,45,8|0|2
88,108,1996,6,0,B|32:136,1,45,0|0
104,180,2159,2,0,B|76:224,1,45,2|2
168,216,2321,2,0,B|160:316,1,90,0|2
308,300,2645,6,0,B|316:200,1,90,0|0
396,232,2969,2,0,B|400:180,2,45,8|0|2
480,104,3294,2,0,B|424:136,2,45,0|0|2
332,92,3618,2,0,B|367:119,2,45,8|0|2
240,72,3942,6,0,B|196:52|152:72,1,90,0|2
36,263,4267,2,0,B|80:283|124:264,1,90,8|2
264,152,4591,1,0
84,180,4753,1,2
92,172,4834,1,2
100,164,4915,1,2
252,336,5240,6,0,B|292:248,1,90,0|2
436,136,5564,2,0,B|412:184,2,45,8|0|2
184,308,5888,2,0,B|224:220,1,90,0|2
368,108,6212,2,0,B|344:156,2,45,8|0|2
136,48,6537,6,0,B|228:84,1,90,0|2
84,192,6861,2,0,B|32:172,2,45,8|0|2
228,168,7186,2,0,B|264:192,1,45
180,248,7348,2,0,B|240:256,1,45,2|2
212,332,7510,2,0,B|260:336|300:308,1,90,2|2
308,136,7834,6,0,B|348:112|396:120,1,90,0|2
484,284,8159,2,0,B|448:312|400:300,1,90,8|2
408,200,8483,1,0
392,204,8564,1,0
376,208,8645,1,2
256,296,8807,1,8
272,300,8888,1,0
288,304,8969,1,2
168,276,9132,6,0,B|112:284,2,45,8|0|2
32,204,9456,2,0,B|128:192,1,90,8|2
56,68,9780,2,0,B|152:60,1,90,0|2
200,108,10023,2,0,B|256:80,1,45,2|8
292,140,10186,2,0,B|316:92,1,45,0|8
40,312,10429,6,0,B|220:312,1,180,4|8
480,192,11078,2,0,B|300:192,1,180,2|8
40,72,11726,2,0,B|220:72,1,180,2|8
456,148,12375,6,0,B|467:102|441:54|393:29|348:40,1,180,2|8
56,236,13023,2,0,B|44:281|70:329|118:354|163:343,1,180,2|8
456,236,13672,6,0,B|467:282|441:330|393:355|348:344,1,180,2|8
56,148,14320,2,0,B|44:103|70:55|118:30|163:41,1,180,2|8
256,276,14969,5,2
256,192,15132,1,0
256,192,15213,1,0
256,192,15294,1,0
256,20,15618,6,0,B|256:110,1,90,2|2
256,364,15943,2,0,B|256:274,1,90,8|2
340,268,16267,6,0,B|376:304,2,45,2|0|2
172,268,16591,2,0,B|136:304,2,45,8|0|2
172,116,16915,2,0,B|136:80,2,45,2|0|2
340,116,17239,2,0,B|376:80,2,45,8|0|2
284,192,17564,6,0,B|328:192,2,45,0|0|2
264,192,17807,1,2
248,192,17888,2,0,B|204:192,2,45,8|0|2
176,280,18213,5,2
160,284,18294,2,0,B|108:296,1,45,0|2
336,280,18537,1,8
352,284,18618,2,0,B|404:296,1,45,0|2
176,104,18861,1,2
160,100,18942,2,0,B|108:88,1,45,0|2
336,104,19185,1,8
352,100,19266,2,0,B|404:88,1,45,0|2
256,52,19510,5,2
256,68,19591,1,0
256,84,19672,1,2
256,100,19753,1,0
256,116,19834,1,8
256,132,19915,1,0
256,148,19996,1,2
256,168,20078,1,0
256,196,20159,6,0,B|256:228,7,22.5
256,244,20483,2,0,B|256:280,8,22.5,0|0|0|0|0|0|0|0|4
180,280,20969,5,0
96,256,21132,1,2
60,176,21294,1,0
100,100,21456,1,2
184,76,21618,1,2
356,84,21942,5,0
368,96,22105,1,2
464,144,22267,5,0
452,156,22430,1,2
368,192,22591,1,0
456,264,22753,5,2
440,256,22915,1,2
264,292,23240,1,2
184,324,23402,6,0,B|136:308|128:248,1,90,6|0
52,88,23726,2,0,B|99:103|105:153,1,90,2|0
172,192,24050,1,2
64,220,24213,1,2
312,84,24537,5,0
388,124,24699,1,6
420,204,24861,1,0
296,208,25023,5,2
272,292,25186,1,2
160,268,25348,5,6
76,252,25510,1,0
32,180,25672,1,2
48,96,25834,1,0
164,120,25996,5,6
236,72,26159,1,0
320,56,26321,1,2
404,76,26483,1,0
468,136,26645,5,2
476,152,26807,1,2
356,304,27132,5,0
336,316,27294,1,2
180,276,27456,5,0
248,224,27618,1,2
320,176,27780,1,0
176,132,27942,5,2
156,124,28105,1,2
308,48,28429,1,0
392,48,28591,5,6
404,60,28753,1,0
480,100,28915,5,2
468,112,29077,1,0
388,144,29240,5,2
396,160,29402,1,2
328,316,29726,1,0
244,300,29888,6,0,B|152:308,1,90,6|2
112,232,30213,1,0
36,196,30375,1,0
28,44,30537,5,6
144,56,30699,1,2
248,120,30861,1,0
424,236,31023,5,2
484,44,31186,1,4
256,192,31348,12,0,32807
388,280,33132,6,0,B|300:296,2,90,0|2|2
256,192,33942,12,2,36375
364,120,36861,5,0
432,228,37348,2,0,B|416:276|364:280,1,90,2|2
256,212,38159,1,0
146,279,38645,6,0,B|96:276|80:228,1,90,2|2
88,100,39456,1,0
212,76,39942,6,0,B|256:60|300:76,1,90,2|2
388,168,40753,1,2
428,292,41240,2,0,B|336:308,1,90,2|4
260,280,41888,1,2
252,264,42050,1,2
148,204,42375,1,2
160,188,42537,2,0,B|208:108|316:112,1,180,2|0
400,112,43510,5,2
428,192,43834,1,2
408,276,44159,2,0,B|320:292,1,90,2|2
240,232,44645,2,0,B|336:212,1,90,2|2
352,208,45132,1,2
256,192,45294,12,2,46753
396,92,47078,6,0,B|432:128,1,45,2|0
356,168,47402,2,0,B|384:208,1,45,2|0
280,212,47726,1,2
292,232,47888,1,2
148,200,48213,1,2
100,72,48537,5,0
116,64,48699,1,2
200,72,49023,2,0,B|244:88|292:72,1,90,2|2
256,192,49510,12,0,50645
40,56,50807,5,2
40,56,50969,1,2
120,88,51132,1,2
172,156,51294,1,2
192,240,51456,1,0
256,296,51618,1,2
340,300,51780,1,2
416,260,51942,6,0,B|432:244,7,22.5
440,236,52267,2,0,B|392:136|300:216|216:96,1,269.999991953373,4|0
208,88,52632,2,0,B|188:60,6,33.7499989941716
180,48,52915,2,0,B|56:112|52:276,1,269.999991953373,4|4
56,300,53321,6,0,B|64:368,2,67.4999979883433
132,268,53564,2,0,B|144:336,3,67.4999979883433,4|0|0|0
204,236,53888,2,0,B|220:304,3,67.4999979883433,4|0|0|0
220,164,54213,2,0,B|180:140|184:52|256:40|328:52|332:140|292:164,1,269.999991953373,4|4
308,236,54618,6,0,B|292:304,2,67.4999979883433
380,268,54861,2,0,B|364:332,3,67.4999979883433
456,300,55186,2,0,B|436:368,3,67.4999979883433,4|0|0|0
460,288,55510,1,0
464,276,55591,1,0
468,264,55672,1,0
472,252,55753,1,0
480,224,55834,6,0,B|496:192|496:156,1,67.4999979883433,4|0
492,136,55996,2,0,B|472:104|444:88,1,67.4999979883433
424,72,56159,2,0,B|356:60,3,67.4999979883433
336,60,56483,5,4
316,64,56564,1,0
296,72,56645,1,0
280,80,56726,1,0
264,92,56807,2,0,B|192:96,1,67.4999979883433
248,164,56969,2,0,B|176:164,1,67.4999979883433
184,172,57132,6,0,B|228:256|188:348,1,180,4|8
124,288,57618,1,0
92,368,57780,2,0,B|44:352|36:300,1,90
64,220,58105,1,8
28,144,58267,6,0,B|88:76,1,90
168,100,58591,1,0
236,228,58753,6,0,B|328:196,1,90,8|0
496,264,59078,2,0,B|400:300,1,90,8|0
268,176,59402,2,0,B|360:148,1,90,8|0
488,320,59726,6,0,B|312:368,1,180,4|0
64,284,60213,2,0,B|244:224,1,180,4|0
376,24,60699,2,0,B|200:84,1,180,4|0
36,84,61348,6,0,B|56:172|44:268,2,180,6|2|2
140,220,62321,2,0,B|180:196|228:208,1,90,6|0
392,284,62645,2,0,B|352:308|304:296,1,90,2|0
140,220,62969,2,0,B|143:173|180:141,1,90,2|0
392,284,63294,2,0,B|388:330|351:362,1,90,2|0
200,336,63618,6,0,B|208:288|256:264,1,90,6|0
392,96,63942,2,0,B|384:143|340:165,1,90,2|0
200,336,64267,2,0,B|160:364|112:352,1,90,2|0
392,96,64591,2,0,B|432:68|480:80,1,90,2|0
476,164,64915,6,0,B|452:252,1,90,6|0
328,312,65240,2,0,B|360:208,1,90,2|0
264,152,65564,2,0,B|232:256,1,90,2|0
116,300,65888,2,0,B|140:212,1,90,2|0
15,98,66213,6,0,B|41:194,1,90,6|0
212,296,66537,2,0,B|182:200,1,90,2|0
298,82,66862,2,0,B|327:177,1,90,2|0
496,279,67186,2,0,B|469:182,1,90,2|0
208,80,67510,6,0,B|276:144|272:244,1,180,4|0
348,284,67996,2,0,B|364:328|404:352,2,90,0|4|4
164,100,68645,6,0,B|148:56|100:44,1,90,0|4
84,128,68969,1,0
240,136,69132,6,0,B|260:88|232:48,1,90,4|0
336,196,69456,2,0,B|380:176|392:128,1,90,4|0
336,312,69780,2,0,B|384:324|424:312,1,90,4|0
176,312,70105,6,0,B|128:324|88:312,1,90,4|0
176,196,70429,2,0,B|132:176|119:128,1,90
256,92,70753,1,0
256,104,70834,1,0
256,116,70915,1,0
256,128,70996,1,0
256,140,71078,6,0,B|256:172,8,22.5,0|0|0|0|0|0|0|0|4
324,192,71564,1,0
348,276,71726,2,0,B|384:308|432:304,1,90,8|0
256,308,72050,6,0,B|220:280|172:280,1,90,2|0
124,352,72375,2,0,B|184:284|168:184,1,180,8|2
256,192,72861,1,0
388,32,73023,6,0,B|328:100|344:200,1,180,8|2
424,228,73510,1,0
356,284,73672,2,0,B|284:344|188:328,1,180,8|2
112,288,74159,1,0
124,204,74321,6,0,B|148:160|196:156,1,90,8|0
204,240,74645,1,2
48,176,74807,2,0,B|95:88|191:80,1,180
268,116,75294,6,0,B|356:136,1,90,2|0
496,212,75618,2,0,B|384:228,1,90,8|0
260,292,75942,2,0,B|352:308,1,90,2|0
200,204,76267,2,0,B|104:192,1,90,8|0
44,44,76591,5,4
120,80,76753,1,0
204,84,76915,1,8
288,64,77078,1,0
372,60,77240,1,2
456,84,77402,2,0,B|476:128|484:168,1,90,0|8
444,244,77726,1,0
424,328,77888,6,0,B|380:344|336:340,1,90,2|0
171,307,78213,2,0,B|215:291|260:296,1,90,8|0
76,232,78537,2,0,B|100:192|148:176,1,90,2|0
0,204,78861,2,0,B|46:126|139:95,1,180,8|2
216,132,79348,1,0
296,164,79510,6,0,B|388:156,1,90,8|0
456,280,79834,2,0,B|344:288,1,90,2|0
480,72,80159,2,0,B|300:88,1,180,8|2
220,56,80645,1,0
84,104,80807,5,8
56,184,80969,1,0
164,312,81132,5,2
248,296,81294,1,0
408,336,81456,5,8
432,252,81618,1,0
484,72,81780,5,4
400,88,81942,1,0
328,132,82105,1,8
248,160,82267,1,0
164,160,82429,1,2
84,132,82591,2,0,B|52:164|56:216,2,90,0|8|0
248,160,83078,6,0,B|252:212|268:248,1,90,2|0
430,171,83402,2,0,B|428:128|400:88,1,90,8|0
164,160,83726,2,0,B|164:216|180:248,1,90,2|0
351,218,84050,2,0,B|348:176|328:132,1,90,8|0
84,132,84375,6,0,B|64:220,1,90,2|0
164,344,84699,2,0,B|180:248,1,90,8|0
252,212,85023,1,2
304,280,85186,2,0,B|340:308|388:296,2,90,0|8|0
360,216,85672,6,0,B|400:132,1,90,2|0
456,72,85996,1,8
376,40,86159,1,0
292,48,86321,1,2
212,76,86483,1,0
128,96,86645,1,8
44,88,86807,1,0
80,164,86969,6,0,B|72:268,1,90,4|0
188,152,87294,2,0,B|200:248,1,90,8|0
288,128,87618,2,0,B|324:212,1,90,2|0
372,84,87942,2,0,B|448:140|476:228,1,180,8|2
140,300,88591,6,0,B|64:244|36:156,1,180,8|2
68,76,89078,2,0,B|160:92,1,90,0|8
444,308,89564,6,0,B|352:292,1,90,2|0
284,340,89888,2,0,B|364:300|372:192,1,180,8|2
456,176,90375,1,0
400,112,90537,2,0,B|372:76|324:64,1,90,8|0
272,144,90861,5,2
240,240,91023,1,0
323,197,91186,5,8
188,186,91348,1,0
313,275,91510,5,2
198,108,91672,1,0
369,116,91834,5,8
142,267,91996,1,0
392,36,92159,6,0,B|444:56|456:112|440:148|440:148|440:196,1,180,4|8
167,332,92807,2,0,B|256:300|344:332,1,180,2|8
120,36,93456,2,0,B|68:56|56:112|72:148|72:148|72:196,1,180,2|8
108,272,93942,1,0
44,332,94105,2,0,B|108:264|204:260,2,180,2|8|2
256,192,94915,12,2,97348
380,188,97834,5,0
300,288,98321,2,0,B|212:288,1,90,2|2
132,188,99132,1,0
108,64,99618,2,0,B|196:100,1,90,2|2
320,88,100429,2,0,B|380:120|404:192,1,135,2|0
224,292,101240,6,0,B|164:260|140:188,2,135,2|0|2
448,316,102537,1,4
452,48,102861,1,2
436,60,103023,1,2
60,48,103348,1,2
76,60,103510,1,2
256,192,103672,12,2,104807
256,192,105132,5,4
440,312,105456,2,0,B|428:268,1,45,2|2
72,72,105942,2,0,B|84:116,1,45,2|2
256,192,106267,12,2,107726
68,348,108050,6,0,B|124:328,1,45,2|0
212,284,108375,2,0,B|164:264,1,45,2|0
60,236,108699,2,0,B|112:212,1,45,2|2
252,180,109186,1,2
364,276,109510,1,2
380,264,109672,2,8,B|460:212,2,90,2|2|4
448,148,110645,5,2
384,104,110807,1,0
456,72,110969,2,0,B|476:28,1,45,2|2
272,88,111456,5,2
192,92,111618,1,0
176,104,111699,1,0
160,120,111780,1,0
148,140,111861,1,0
140,160,111942,1,0
132,180,112023,1,0
132,200,112105,1,0
132,220,112186,1,0
140,240,112267,2,0,B|152:264,16,22.5,0|0|0|0|0|0|0|0|0|0|0|0|0|0|0|0|4
196,300,113078,5,0
280,308,113240,1,2
360,280,113402,1,0
420,220,113564,1,2
432,136,113726,1,2
260,128,114050,1,0
432,84,118105,5,2
356,124,118267,1,0
272,140,118429,1,2
188,128,118591,1,0
104,120,118753,1,2
32,164,118915,2,0,B|104:228|104:328,1,180,2|2
476,328,123294,5,4
396,296,123456,1,0
348,224,123618,1,2
292,160,123780,1,0
208,144,123942,2,0,B|120:164,1,90,2|2
188,320,124429,1,2
480,80,125888,5,2
396,88,126050,1,0
312,104,126213,1,2
228,124,126375,1,0
144,128,126537,1,2
60,108,126699,1,2
36,272,127023,1,2
380,328,128483,5,2
444,272,128645,1,0
472,192,128807,1,2
444,112,128969,1,0
380,56,129131,1,2
296,36,129294,2,0,B|252:56|228:100|232:152|256:192,1,180,2|0
132,56,129780,5,2
68,112,129942,1,0
40,192,130104,1,2
68,272,130266,1,0
132,328,130428,1,2
216,348,130591,2,0,B|260:328|284:284|280:232|256:192,1,180,2|0
320,352,131078,5,2
356,276,131240,1,0
344,192,131402,1,2
292,124,131564,1,0
208,108,131726,1,2
124,124,131888,1,2
344,192,132213,1,0
428,176,132375,6,0,B|444:84,1,90,2|0
84,208,132699,2,0,B|68:300,1,90,2|0
400,152,133023,2,0,B|416:60,1,90,2|0
112,232,133348,2,0,B|96:324,1,90,2|0
360,304,133672,6,0,B|272:292,1,90,4|0
112,232,133996,2,0,B|200:220,1,90,2|0
284,204,134321,1,2
304,120,134483,1,2
220,136,134645,2,0,B|36:156,1,180,2|2
292,248,135294,2,0,B|476:228,2,180,2|2|2
440,124,136267,5,2
352,32,136429,1,0
312,148,136591,1,2
456,140,136753,1,0
368,48,136915,1,2
328,164,137077,1,2
256,208,137240,6,0,B|168:224,1,90,2|0
84,200,137564,2,0,B|100:152|144:140,1,90,2|0
336,220,137888,2,0,B|320:268|276:280,1,90
8,192,138213,2,0,B|40:94|129:70,1,180,2|0
300,84,138861,5,2
380,56,139023,1,0
464,76,139186,1,2
304,116,139348,1,0
396,132,139510,1,2
460,200,139672,1,2
476,296,139834,6,0,B|452:336|400:340,1,90,2|0
400,252,140159,2,0,B|336:188,1,90,2|0
168,112,140483,2,0,B|236:180,1,90,0|0
272,348,140807,2,0,B|144:220,1,180,2|0
84,60,141456,5,2
168,36,141618,1,0
248,64,141780,1,2
304,128,141942,1,0
384,164,142105,1,2
468,152,142267,2,0,B|488:64,2,90,2|2|0
436,232,142753,6,0,B|424:280|444:320,1,90,2|0
312,192,143078,2,0,B|280:220|268:268,1,90
248,64,143402,2,0,B|152:84|128:184,1,180,2|0
52,336,144050,5,2
132,304,144213,1,0
216,304,144375,1,2
300,312,144537,1,0
380,284,144699,1,2
440,220,144861,1,2
460,136,145023,2,0,B|456:40,1,90,2|0
360,208,145348,6,0,B|356:120,1,90,2|0
196,138,145672,2,0,B|200:228,1,90
44,264,145996,2,0,B|36:72,1,180,2|0
208,64,146645,5,2
288,32,146807,1,0
320,112,146969,1,2
240,148,147132,1,0
228,64,147294,1,2
308,36,147456,1,2
336,116,147618,1,2
260,152,147780,1,0
328,204,147942,6,0,B|368:292,1,90,2|0
216,216,148267,2,0,B|196:304,1,90
116,332,148591,1,2
448,280,148915,1,0
256,56,149240,5,2
172,76,149402,1,0
112,140,149564,1,2
96,224,149726,1,0
232,144,149888,5,2
212,228,150050,1,2
240,308,150213,1,2
320,340,150375,1,0
404,328,150537,6,0,B|448:244,1,90,2|0
368,212,150861,2,0,B|424:140,1,90
352,92,151186,2,0,B|432:44,1,90,2|0
292,144,151510,2,0,B|272:244|332:312,1,180,0|2
252,336,151996,5,0
168,340,152159,2,0,B|128:356|80:344,1,90,2|0
120,268,152483,2,0,B|80:244|76:192,1,90,2|2
160,192,152807,2,0,B|180:148|228:136,1,90,2|0
236,220,153132,5,0
256,224,153213,1,0
276,228,153294,1,0
296,232,153375,1,0
320,236,153456,1,0
340,240,153537,1,0
360,244,153618,1,0
380,248,153699,1,0
400,252,153780,6,0,B|436:260,8,22.5
440,260,154145,2,0,B|476:268,7,22.5,0|0|0|0|0|0|0|4
452,184,154591,1,0
420,104,154753,1,2
344,68,154915,1,0
260,92,155078,1,2
232,96,155240,1,2
108,212,155564,5,0
92,232,155726,1,2
96,316,155888,1,0
168,272,156050,1,2
184,252,156212,1,0
260,292,156375,1,2
248,312,156537,1,2
420,328,156861,5,0
444,248,157023,2,0,B|476:164,1,90,6|0
392,180,157348,2,0,B|424:92,1,90,2|0
340,112,157672,2,0,B|372:24,1,90,2|2
216,100,158159,1,0
72,112,158321,5,6
72,196,158483,1,0
116,268,158645,1,2
196,296,158807,1,0
408,352,158969,5,6
408,268,159131,1,0
364,196,159293,1,2
284,168,159455,1,0
476,52,159618,5,4
392,52,159780,1,0
308,72,159942,1,2
228,104,160105,1,0
144,116,160267,1,2
60,100,160429,1,2
68,272,160753,5,0
152,288,160915,5,2
172,308,161078,1,0
360,288,161240,5,2
340,308,161403,1,0
256,160,161564,5,2
256,184,161726,1,2
256,272,162050,5,0
328,224,162213,2,0,B|392:160,1,90,4|0
256,160,162537,2,0,B|256:68,1,90,2|0
184,224,162861,2,0,B|120:160,1,90,2|2
40,312,163348,5,0
236,352,163510,5,4
320,348,163672,1,0
400,316,163834,1,2
448,244,163996,1,0
304,308,164159,5,4
384,276,164321,1,0
432,204,164483,1,2
480,132,164645,1,0
436,52,164807,5,4
352,60,164969,1,0
276,100,165132,1,2
192,112,165294,1,0
112,80,165456,1,2
28,88,165618,1,2
40,260,165942,5,0
80,336,166105,2,0,B|128:312|128:252,1,90,2|0
244,296,166429,2,0,B|260:245|218:202,1,90,2|0
348,160,166753,2,0,B|324:112|264:112,1,90,2|2
108,84,167240,1,0
276,112,167402,6,0,B|324:112|348:160,1,90,6|0
227,211,167726,2,0,B|260:245|244:296,1,90,2|0
127,264,168050,2,0,B|128:312|80:336,1,90,2|2
252,336,168537,5,0
336,324,168699,2,0,B|432:308,1,90,4|0
497,215,169023,2,0,B|408:224,1,90
354,54,169348,2,0,B|444:46,1,90,2|0
372,140,169672,2,0,B|283:154,1,90
132,76,169996,5,4
48,56,170159,1,0
28,140,170321,1,0
112,160,170483,1,0
156,232,170645,2,0,B|204:312,1,90,2|0
460,324,171294,5,2
52,324,171618,1,2
484,188,171942,1,2
464,192,172105,1,0
52,60,172591,5,2
460,60,172915,1,2
28,196,173240,1,2
48,192,173402,1,0
330,134,173888,5,4
319,267,174050,1,0
180,255,174213,1,0
192,122,174375,1,0
398,108,174537,5,4
350,336,174699,1,0
111,286,174862,1,0
159,58,175024,1,0
272,104,175186,6,0,B|280:60|320:32,1,90,4|0
344,208,175510,2,0,B|388:216|416:256,1,90,8|0
240,280,175834,2,0,B|232:324|192:352,1,90,2|0
168,175,176158,2,0,B|124:168|96:128,1,90,8|0
172,88,176483,6,0,B|76:252,1,180,2|8
256,192,176969,1,0
336,292,177132,2,0,B|432:128,1,180,2|8
153,37,177780,6,0,B|43:192,1,180,2|8
256,192,178267,1,0
358,346,178429,2,0,B|468:191,1,180,2|8
368,56,179078,6,0,B|324:76|308:120,1,90,2|0
144,328,179402,2,0,B|188:308|204:264,1,90,8|0
352,44,179726,2,0,B|308:64|292:108,1,90,2|0
128,316,180050,2,0,B|172:296|188:252,1,90,8|0
108,220,180375,5,2
56,152,180537,1,0
104,80,180699,1,8
184,104,180861,1,0
192,188,181023,2,0,B|276:220,1,90,2|0
292,304,181348,2,0,B|276:264|280:208|332:180|380:184,1,180,8|2
368,268,181834,5,0
360,352,181996,2,0,B|407:355|459:327|463:271|447:231,1,180,8|2
256,192,182483,1,0
152,32,182645,2,0,B|104:28|52:56|48:112|64:152,1,180,8|2
256,192,183132,5,0
40,336,183294,2,0,B|80:316|128:320|128:320|144:276|192:260,1,180,8|2
256,192,183780,1,0
472,336,183942,2,0,B|432:316|384:320|384:320|368:276|320:260,1,180,8|2
364,188,184429,5,0
212,80,184591,2,0,B|256:64|300:80,1,90,8|0
191,260,184915,1,2
148,188,185078,1,0
364,188,185240,1,8
320,260,185402,1,0
256,320,185564,6,0,B|288:352|340:340,1,90,4|0
468,124,185888,1,8
452,208,186050,1,0
296,72,186213,2,0,B|328:156|284:252,1,180,2|8
128,180,186861,6,0,B|116:92,1,90,2|0
24,188,187186,2,0,B|40:288,1,90,8|0
228,168,187510,2,0,B|220:68|304:16,1,180,2|8
468,60,188159,6,0,B|432:144,1,90,2|0
288,312,188483,2,0,B|324:284|372:292,1,90,8|0
228,252,188807,2,0,B|300:195|397:211,1,180,2|8
292,76,189456,5,2
212,104,189618,1,0
108,52,189780,5,8
92,136,189942,1,0
124,252,190105,5,2
44,284,190267,1,0
244,224,190429,5,8
320,264,190591,1,0
212,104,190753,5,2
92,136,190915,1,0
124,252,191078,1,8
244,224,191240,1,0
220,92,191402,2,0,B|304:60|412:92,1,180,2|8
436,256,192050,6,0,B|424:304|436:348,1,90,2|0
348,192,192375,2,0,B|304:212|296:260,1,90,8|0
340,88,192699,2,0,B|240:68|176:136,1,180,2|8
48,332,193348,6,0,B|88:248,1,90,2|0
259,221,193672,2,0,B|224:304,1,90,8|0
392,280,193996,2,0,B|456:112,1,180,2|8
304,40,194645,5,2
208,40,194807,1,0
332,124,194969,1,8
180,124,195132,1,0
364,216,195294,5,2
148,216,195456,1,0
368,224,195618,1,8
144,224,195780,1,2
256,180,195942,1,6
256,192,196105,12,0,197564
136,256,197888,6,0,B|228:240,2,90,2|0|2
256,192,198699,12,2,201132
412,192,201618,5,0
332,292,202105,2,0,B|284:288|244:316,1,90,2|2
120,288,202915,1,0
208,192,203402,2,0,B|252:172|272:132,1,90,2|2
368,216,204213,1,0
388,88,204699,1,2
408,100,205023,1,2
284,68,205510,6,0,B|148:92,1,135,0|2
64,276,206321,2,0,B|93:190,1,90,2|0
224,228,206807,2,0,B|204:324,1,90,2|2
352,328,207294,2,0,B|360:228,2,90,2|0|0
480,316,208267,1,2
488,56,208591,2,0,B|472:144,2,90,2|2|0
328,152,209402,6,0,B|352:48,1,90,2|2
196,56,209888,2,0,B|180:148,2,90,2|0|0
112,52,210861,1,2
96,136,211186,1,0
36,276,211510,6,0,B|96:344,1,90,2|2
160,300,211996,1,0
240,300,212159,1,2
320,328,212321,1,0
404,324,212483,2,0,B|456:304,1,45,2|2
444,168,212969,6,0,B|392:156,2,45,0|2|0
388,60,213456,2,0,B|352:96,1,45,2|0
264,32,213780,2,0,B|260:84,1,45,2|0
136,40,214105,2,0,B|100:132|144:216,2,180,2|0|0
52,36,215564,5,0
216,76,215726,1,2
24,128,215888,1,0
224,164,216050,1,2
32,236,216213,1,0
288,228,216375,1,2
80,340,216537,1,2
376,248,216699,6,0,B|412:224,7,33.7499989941716
408,216,217023,2,0,B|388:148|356:88|280:60|212:60,1,269.999991953373,4|0
192,60,217388,2,0,B|164:80,6,33.7499989941716
148,96,217672,2,0,B|76:168|88:284|144:344,1,269.999991953373,4|4
176,328,218078,6,0,B|240:344,2,67.4999979883433
240,264,218321,2,0,B|308:252,3,67.4999979883433,4|0|0|0
252,180,218645,2,0,B|320:156,3,67.4999979883433,4|0|0|0
196,120,218969,2,0,B|452:32,1,269.999991953373,4|4
476,100,219375,6,0,B|412:124,2,67.4999979883433
480,176,219618,2,0,B|416:200,3,67.4999979883433,4|0|0|0
488,256,219942,2,0,B|420:284,3,67.4999979883433,4|0|0|0
500,340,220267,2,0,B|436:364,3,67.4999979883433,4|0|0|0
368,344,220591,5,4
344,340,220672,1,0
320,336,220753,1,0
296,332,220834,1,0
272,320,220915,6,0,B|316:260,3,67.4999979883433,4|0|0|0
244,240,221240,2,0,B|288:176,3,67.4999979883433,4|0|0|0
312,176,221564,5,4
316,164,221645,1,0
320,152,221726,1,0
324,140,221807,1,0
332,112,221888,6,0,B|232:120|152:80,1,180,0|8
72,64,222375,1,0
96,148,222537,2,0,B|124:188|120:236,1,90,0|0
76,304,222861,1,8
160,312,223023,6,0,B|252:324,1,90,0|0
332,284,223348,1,0
404,240,223510,5,8
448,112,223672,1,0
316,68,223834,1,0
272,196,223996,1,0
140,160,224159,1,8
96,288,224321,1,0
228,332,224483,6,0,B|320:340|416:320,1,180,4|0
256,256,224969,2,0,B|160:268|76:256,1,180,4|0
232,180,225456,2,0,B|324:192|416:176,1,180,4|0
292,56,226105,5,2
176,80,226429,1,2
88,152,226753,1,2
172,224,227078,6,0,B|236:288,1,90,4|0
340,256,227402,2,0,B|276:192,1,90,2|0
133,238,227726,6,0,B|196:302,1,90,2|0
378,285,228050,2,0,B|315:222,1,90,2|0
327,47,228375,6,0,B|344:92|328:136,1,90,4|0
184,140,228699,2,0,B|168:96|184:52,1,90,2|0
392,0,229023,6,0,B|417:43|402:95,1,90,2|0
120,188,229347,2,0,B|99:142|109:92,1,90,2|0
136,268,229672,6,0,B|184:260|228:268,1,90,6|0
376,116,229996,2,0,B|328:124|284:116,1,90,2|0
136,268,230321,6,0,B|96:348,1,90,2|0
376,116,230645,2,0,B|416:36,1,90,2|0
308,32,230969,5,4
292,44,231050,1,0
280,56,231132,1,0
272,72,231213,1,0
264,88,231294,1,0
260,104,231375,1,0
260,120,231456,1,0
264,136,231537,1,0
272,152,231618,1,0
280,168,231699,1,0
292,184,231780,1,0
304,196,231861,1,0
316,208,231942,2,0,B|340:228,8,22.5
300,348,232753,5,0
212,348,232915,1,4
256,272,233078,1,0
256,28,233402,5,0
284,108,233564,2,0,B|380:108,1,90,4|0
204,160,233888,2,0,B|112:160,1,90,4|0
304,220,234213,2,0,B|392:220,1,90,4|0
176,280,234537,2,0,B|80:280,2,90,4|0|4
256,192,235023,12,4,236159
256,192,236321,12,0,238753
