osu file format v9

[General]
AudioFilename: Bird Sprite -Awakening of Light-.mp3
AudioLeadIn: 1500
PreviewTime: 66073
Countdown: 0
SampleSet: Normal
StackLeniency: 0.6
Mode: 1
LetterboxInBreaks: 1

[Editor]
DistanceSpacing: 1
BeatDivisor: 4
GridSize: 4

[Metadata]
Title:Bird Sprite -Awakening of Light-
Artist:syatten remixed celas
Creator:Reiji-RJ
Version:lepidon! - Taiko Oni
Source:BMS
Tags:BOF2011 Creation Records reku IceBeam lepidopodus lepidon

[Difficulty]
HPDrainRate:6
CircleSize:5
OverallDifficulty:6
ApproachRate:5
SliderMultiplier:1.4
SliderTickRate:1

[Events]
//Background and Video events
0,0,"812723.jpg"
//Break Periods
//Storyboard Layer 0 (Background)
//Storyboard Layer 1 (Fail)
//Storyboard Layer 2 (Pass)
//Storyboard Layer 3 (Foreground)
//Storyboard Sound Samples
//Background Colour Transformations
3,100,163,162,255

[TimingPoints]
139,329.67032967033,4,1,0,30,1,0
2693,-100,4,1,0,40,0,0
23380,-100,4,1,0,50,0,0
46292,-100,4,1,0,40,0,0
47611,-100,4,1,0,50,0,0
48930,-100,4,1,0,40,0,0
50248,-100,4,1,0,50,0,0
51567,-100,4,1,0,40,0,0
52886,-100,4,1,0,50,0,0
54204,-100,4,1,0,40,0,0
76622,-100,4,1,0,50,0,0
87171,-100,4,1,0,60,0,1
108269,-100,4,1,0,60,0,0
108270,-100,4,1,0,60,0,1
118819,-100,4,1,0,60,0,0
118820,-100,4,1,0,60,0,1
124095,-100,4,1,0,60,0,0

[Colours]
Combo1 : 27,137,90
Combo2 : 14,231,204
Combo3 : 18,101,184
Combo4 : 5,228,129

[HitObjects]
256,192,468,12,0,2611
264,148,2776,5,0
332,152,2941,1,8
488,188,3106,1,0
424,160,3270,1,8
480,204,3435,1,0
424,160,3600,1,8
400,188,3682,1,8
480,204,3765,1,0
432,152,3930,1,8
496,180,4095,1,0
472,204,4177,1,0
424,160,4259,1,8
484,196,4424,1,0
424,160,4589,1,8
484,192,4754,1,0
440,136,4919,1,8
460,164,5001,1,8
432,184,5084,1,0
364,188,5248,1,8
432,152,5413,1,0
484,196,5578,1,8
484,196,5743,1,0
412,196,5908,1,8
432,184,6073,1,0
500,168,6237,1,8
468,180,6320,1,8
432,192,6402,1,0
412,196,6567,1,8
432,152,6732,1,0
396,152,6814,1,0
488,196,6897,1,8
428,160,7062,1,0
456,180,7226,1,8
456,180,7391,1,0
488,196,7556,1,8
420,204,7721,1,0
456,200,7803,1,0
432,192,7886,1,8
416,220,7968,1,0
380,220,8051,5,0
404,156,8215,1,8
472,152,8380,1,0
428,160,8545,1,8
456,180,8710,1,0
480,168,8875,1,8
480,168,8957,1,8
456,180,9040,1,0
432,192,9204,1,8
480,168,9369,1,0
472,152,9452,1,0
456,180,9534,1,8
424,116,9699,1,0
432,192,9864,1,8
364,176,10029,1,0
400,184,10111,1,0
456,180,10193,1,8
496,236,10358,1,0
476,208,10441,1,0
480,168,10523,1,8
480,168,10606,1,0
472,204,10688,1,0
420,156,10853,1,8
492,160,11018,1,0
456,180,11182,1,8
388,172,11347,1,0
456,176,11512,1,8
420,176,11595,1,8
456,180,11677,1,0
456,180,11842,1,8
416,120,12007,1,0
440,124,12062,1,0
440,124,12117,1,0
456,180,12171,1,8
388,188,12336,1,0
352,192,12419,1,0
284,204,12584,1,0
256,224,12666,1,0
312,276,12831,1,0
336,212,12996,1,12
404,220,13160,1,0
336,200,13325,5,0
368,136,13490,1,8
300,148,13655,1,0
264,152,13737,1,0
300,148,13902,1,8
368,160,13985,1,0
436,168,14149,1,8
488,212,14314,1,0
468,184,14397,1,8
400,196,14562,1,8
432,188,14644,1,0
376,144,14809,1,8
468,184,14974,1,0
436,196,15056,1,0
468,184,15221,1,8
432,188,15303,1,0
432,188,15468,1,8
396,192,15551,1,0
432,188,15633,1,0
432,188,15715,1,8
432,188,15880,1,8
408,216,15963,1,0
360,164,16128,1,8
428,144,16292,1,0
408,216,16375,1,8
460,168,16540,1,8
436,196,16622,1,0
436,196,16787,1,8
484,244,16952,1,8
456,220,17034,1,8
460,168,17199,1,8
424,164,17281,1,0
380,112,17446,1,8
432,160,17611,1,0
456,184,17693,1,8
436,196,17858,1,8
408,216,17941,1,0
424,164,18106,1,8
484,244,18188,1,0
460,168,18270,1,8
436,196,18353,1,8
436,196,18518,1,8
400,196,18600,5,0
332,172,18765,1,8
352,240,18930,1,8
360,272,19012,1,8
420,232,19177,1,8
420,232,19259,1,0
388,172,19424,1,0
412,144,19507,1,0
436,168,19589,1,8
460,192,19671,1,8
436,196,19836,1,8
448,228,19919,1,0
436,196,20084,1,8
368,212,20248,1,8
404,204,20331,1,8
404,204,20496,1,8
400,240,20578,1,0
388,308,20743,1,0
396,272,20825,1,0
376,244,20908,1,8
364,212,20990,1,8
404,204,21073,1,0
404,204,21155,1,8
416,172,21237,1,0
356,136,21402,1,8
416,176,21567,1,0
452,180,21649,1,8
392,216,21814,1,8
428,224,21897,1,0
416,172,22062,1,8
452,180,22226,1,8
452,180,22309,1,8
432,208,22391,1,0
452,180,22474,1,8
468,212,22556,1,0
328,196,22886,1,12
384,324,23215,1,12
308,204,23545,1,8
340,216,23628,1,8
340,216,23710,1,8
340,216,23792,1,8
368,192,23875,5,0
436,172,24040,1,8
436,172,24122,1,8
436,208,24204,1,0
452,276,24369,1,8
388,248,24534,1,0
308,204,24699,1,0
308,204,24781,1,0
344,200,24864,1,8
412,192,25029,1,8
436,172,25193,1,0
400,176,25276,1,0
504,160,25358,1,8
440,192,25523,1,0
508,176,25688,1,8
476,184,25770,1,8
508,176,25853,1,0
480,192,26018,1,8
424,236,26182,1,0
436,172,26347,1,8
400,168,26430,1,0
412,192,26512,1,8
344,184,26677,1,0
404,148,26842,1,8
436,132,26924,1,8
464,152,27007,1,0
476,184,27089,1,8
496,212,27171,1,0
412,192,27336,1,0
368,244,27501,1,8
400,260,27584,1,0
428,280,27666,1,0
416,248,27748,1,8
388,224,27831,1,0
400,168,27996,1,8
464,152,28078,1,8
400,260,28160,1,0
440,204,28325,1,8
468,208,28490,1,0
400,216,28655,1,8
388,224,28737,1,0
392,148,28820,1,0
344,200,28985,1,0
284,164,29149,5,0
352,152,29314,1,8
388,148,29397,1,8
420,160,29479,1,0
476,204,29644,1,8
412,176,29809,1,8
468,208,29974,1,0
468,208,30056,1,0
436,188,30139,1,8
436,256,30303,1,0
452,188,30468,1,8
460,152,30551,1,8
476,204,30633,1,0
420,160,30798,1,8
436,256,30963,1,0
436,184,31128,1,8
436,148,31210,1,8
464,168,31292,1,0
464,168,31375,1,0
468,208,31457,1,8
400,232,31622,1,0
340,196,31787,1,0
348,128,31952,1,0
476,204,32034,1,0
464,168,32117,1,8
428,228,32281,1,0
464,168,32364,1,8
448,200,32446,1,0
396,248,32611,1,0
448,200,32776,1,8
380,208,32941,1,0
416,204,33023,1,0
416,204,33106,1,8
440,176,33188,1,8
412,196,33270,1,0
416,204,33353,1,0
464,168,33435,1,8
448,200,33600,1,8
444,272,33765,1,0
416,252,33847,1,0
444,276,33930,1,0
412,216,34095,1,12
380,208,34259,1,0
368,192,34424,5,0
436,172,34589,1,8
436,172,34671,1,8
436,208,34753,1,0
452,276,34918,1,8
388,248,35083,1,0
308,204,35248,1,0
308,204,35330,1,0
344,200,35413,1,8
412,192,35578,1,8
436,172,35742,1,0
400,176,35825,1,0
504,160,35907,1,8
440,192,36072,1,0
508,176,36237,1,8
476,184,36319,1,8
508,176,36402,1,0
88,212,36485,1,0
480,192,36567,1,8
424,236,36731,1,0
436,172,36896,1,8
400,168,36979,1,0
412,192,37061,1,8
344,184,37226,1,0
404,148,37391,1,8
436,132,37473,1,8
464,152,37556,1,0
476,184,37638,1,8
496,212,37720,1,0
412,192,37885,1,0
368,244,38050,1,8
400,260,38133,1,0
428,280,38215,1,0
416,248,38297,1,8
388,224,38380,1,0
400,168,38545,1,8
464,152,38627,1,8
400,260,38709,1,0
440,204,38874,1,8
468,208,39039,1,0
400,196,39204,1,0
420,168,39287,1,8
420,168,39369,1,8
400,168,39452,1,0
400,260,39534,1,0
284,164,39699,5,0
352,152,39864,1,8
388,148,39947,1,8
420,160,40029,1,0
476,204,40194,1,8
412,176,40359,1,8
468,208,40524,1,0
468,208,40606,1,0
436,188,40689,1,8
436,256,40853,1,0
452,188,41018,1,8
460,152,41101,1,8
476,204,41183,1,0
440,208,41265,1,0
420,160,41348,1,8
436,256,41513,1,0
404,244,41595,1,0
404,208,41677,1,8
412,176,41759,1,0
392,204,41842,1,0
364,224,41924,1,0
360,188,42007,1,8
300,224,42171,1,0
248,176,42336,1,0
248,104,42501,1,0
276,124,42584,1,0
308,132,42666,1,8
376,148,42831,1,0
408,156,42913,1,8
440,168,42996,1,8
484,224,43160,1,0
376,148,43325,1,8
400,176,43408,1,8
428,200,43490,1,0
396,136,43655,1,8
388,100,43737,1,8
440,168,43820,1,0
440,168,43902,1,0
424,200,43985,1,8
452,180,44067,1,0
452,180,44149,1,8
452,180,44232,1,0
428,200,44314,1,8
400,176,44479,1,8
464,204,44644,1,0
428,200,44809,1,8
368,240,44974,5,4
304,156,45221,1,0
452,180,45303,1,8
456,248,45468,1,0
428,200,45633,1,0
460,192,45715,1,8
488,188,45880,1,0
488,188,45963,1,8
444,240,46128,1,0
380,216,46292,1,0
320,180,46457,1,0
388,172,46622,1,8
352,176,46704,1,0
388,276,46869,1,0
400,244,46952,1,8
408,212,47034,1,8
440,200,47117,1,0
440,200,47199,1,0
408,184,47281,1,8
444,188,47364,1,8
444,240,47446,1,0
376,224,47611,1,8
272,236,47858,1,8
236,240,47941,1,8
296,204,48106,1,8
364,184,48270,1,0
400,176,48353,1,0
468,160,48518,1,0
444,188,48600,1,8
432,256,48765,1,0
368,228,48930,1,0
348,200,49012,1,0
380,184,49095,1,8
408,164,49177,1,8
444,168,49259,1,0
416,192,49342,1,0
416,192,49424,1,8
368,228,49589,1,0
348,200,49671,1,0
380,184,49754,1,8
408,164,49836,1,8
444,168,49918,1,0
416,192,50001,1,8
416,192,50083,1,8
444,128,50248,5,12
380,212,50496,1,8
416,192,50578,1,8
416,192,50743,1,8
472,232,50908,1,0
436,240,50990,1,8
444,168,51155,1,0
444,204,51237,1,8
392,252,51402,1,8
444,168,51567,1,8
444,168,51649,1,8
420,192,51732,1,0
420,168,51897,1,8
408,200,51979,1,0
340,208,52144,1,0
340,208,52226,1,8
444,168,52309,1,8
436,200,52391,1,0
436,200,52474,1,0
468,188,52556,1,8
500,176,52639,1,8
472,200,52721,1,0
404,180,52886,1,8
340,208,53133,1,8
340,208,53215,1,8
360,276,53380,1,8
392,212,53545,1,0
444,168,53628,1,8
444,168,53792,1,8
452,204,53875,1,0
452,240,54040,1,0
392,204,54204,1,0
364,184,54287,1,0
444,168,54369,1,8
500,180,54534,1,0
500,180,54617,1,0
452,204,54699,1,8
408,148,54864,1,0
428,176,54946,1,0
460,192,55029,1,8
428,176,55111,1,8
428,176,55193,1,8
428,176,55276,1,0
436,212,55358,1,8
368,196,55523,5,4
428,284,55770,1,0
352,356,56018,1,0
336,288,56182,1,8
288,192,56430,1,8
332,288,56677,1,8
428,176,56842,1,8
428,176,56924,1,8
428,176,57007,1,0
400,240,57171,1,8
396,168,57336,1,0
428,176,57419,1,8
428,176,57501,1,8
428,176,57584,1,8
444,208,57666,1,0
396,260,57831,1,0
364,248,57913,1,8
368,212,57996,1,0
356,180,58160,1,8
252,176,58408,1,8
252,176,58655,1,8
320,192,58820,1,0
424,212,59067,1,0
324,240,59314,1,0
292,180,59479,1,0
296,144,59562,1,0
332,140,59644,1,8
400,152,59809,1,0
436,156,59891,1,0
472,164,59974,1,8
424,212,60139,1,0
444,184,60221,1,8
444,184,60303,1,8
476,120,60468,1,0
472,156,60551,1,8
464,188,60633,1,0
396,208,60798,5,12
388,312,61045,1,8
352,212,61292,1,8
376,280,61457,1,0
376,280,61704,1,0
428,188,61952,1,8
360,204,62117,1,8
396,196,62199,1,8
428,208,62281,1,0
428,188,62446,1,8
448,256,62611,1,0
436,224,62693,1,0
464,204,62776,1,8
492,184,62858,1,8
468,208,62941,1,0
428,188,63106,1,8
428,188,63188,1,8
416,220,63270,1,0
396,172,63435,1,4
328,184,63600,1,8
328,220,63682,1,8
328,292,63847,1,8
328,256,63930,1,8
380,208,64095,1,4
404,272,64259,1,8
392,240,64342,1,8
416,304,64507,1,8
404,272,64589,1,8
412,204,64754,1,4
480,184,64919,1,8
396,296,65248,1,8
332,272,65413,1,0
480,184,65578,1,0
472,164,65633,1,0
452,156,65688,1,0
432,168,65743,1,8
396,296,65908,1,8
340,252,66073,5,0
284,208,66237,1,0
256,184,66320,1,0
228,164,66402,1,0
228,164,66567,1,0
300,168,66732,1,0
368,180,66897,1,8
488,256,67226,1,8
436,208,67391,1,0
388,256,67556,1,0
412,228,67639,1,0
388,252,67721,1,0
388,256,67886,1,0
388,256,68051,1,0
436,204,68215,1,8
488,156,68380,1,0
464,180,68463,1,0
436,208,68545,1,8
504,220,68710,1,0
436,244,68875,1,0
436,244,68957,1,0
436,244,69040,1,0
436,244,69204,1,0
436,244,69369,1,0
392,192,69534,1,8
444,360,69864,1,8
392,192,70029,1,0
452,228,70193,1,0
420,212,70276,1,0
420,212,70358,1,0
452,152,70523,1,8
384,156,70688,1,0
420,156,70770,1,0
448,180,70853,1,8
392,192,71018,1,0
392,192,71100,1,0
424,200,71182,1,8
352,200,71347,1,0
296,240,71512,1,0
296,240,71595,1,0
296,240,71677,1,0
224,236,71842,1,0
296,236,72007,1,0
424,200,72171,1,8
340,312,72501,1,8
384,260,72666,5,8
420,200,72831,1,8
404,228,72913,1,8
404,228,72996,1,8
404,228,73160,1,8
420,160,73325,1,0
484,188,73490,1,8
420,220,73655,1,0
452,204,73737,1,0
420,200,73820,1,8
352,212,73985,1,0
284,224,74149,1,0
248,232,74232,1,0
248,232,74314,1,0
248,232,74479,1,0
316,224,74644,1,0
384,200,74809,1,8
420,200,75139,1,8
420,200,75303,1,8
420,200,75468,1,8
420,200,75551,1,8
420,200,75633,1,8
420,200,75798,1,8
388,140,75963,1,4
368,208,76128,1,8
392,144,76292,1,4
328,176,76457,1,8
272,136,76622,5,4
204,144,76787,1,0
180,168,76869,1,0
216,176,76952,1,0
280,204,77034,1,8
348,196,77199,1,8
376,216,77281,1,0
408,156,77446,1,0
400,192,77529,1,0
392,224,77611,1,8
324,232,77776,1,0
360,292,77941,1,0
404,196,78188,1,8
420,228,78270,1,0
348,196,78435,1,8
408,232,78600,1,0
440,168,78765,1,8
452,136,78847,1,8
512,184,78930,1,0
444,200,79095,1,8
376,204,79259,1,0
304,204,79507,1,0
312,236,79589,1,0
332,264,79671,1,8
396,296,79836,1,8
444,200,79919,1,0
408,232,80084,1,0
408,232,80166,1,0
408,232,80248,1,0
440,212,80331,1,8
404,272,80496,1,8
332,264,80578,1,0
340,196,80743,1,0
340,196,80908,1,8
368,176,80990,1,8
332,168,81073,1,0
376,244,81155,1,8
408,232,81237,1,0
424,164,81402,1,8
476,212,81567,1,0
440,212,81732,1,8
272,136,81897,5,0
204,144,82062,1,0
180,168,82144,1,0
216,176,82227,1,0
280,204,82309,1,8
348,196,82474,1,8
376,216,82556,1,0
408,156,82721,1,0
400,192,82804,1,0
392,224,82886,1,8
324,232,83051,1,0
304,164,83215,1,0
408,172,83463,1,8
436,192,83545,1,0
460,256,83710,1,8
392,260,83875,1,0
360,272,83957,1,0
292,268,84122,1,0
324,256,84204,1,8
392,224,84369,1,8
372,156,84534,1,8
440,164,84699,1,0
472,176,84781,1,8
500,196,84864,1,0
472,176,84946,1,8
460,208,85029,1,0
428,220,85111,1,0
396,232,85193,1,8
344,276,85358,1,8
360,272,85523,1,0
244,192,85606,1,8
276,180,85688,1,0
296,112,85853,1,12
348,160,86018,1,0
396,232,86182,1,8
396,232,86265,1,8
416,260,86347,1,8
392,196,86512,1,4
420,132,86677,1,8
420,132,86842,1,4
392,196,87007,1,8
324,200,87171,5,4
256,208,87336,1,0
220,200,87419,1,0
232,168,87501,1,0
268,172,87584,1,8
332,200,87748,1,0
356,228,87831,1,0
424,212,87996,1,0
392,224,88078,1,0
416,200,88160,1,8
412,236,88243,1,0
372,292,88408,1,0
336,300,88490,1,0
356,272,88573,1,8
380,208,88737,1,8
424,212,88820,1,0
388,152,88985,1,0
412,176,89067,1,8
432,204,89149,1,0
464,140,89314,1,8
468,176,89397,1,8
500,192,89479,1,0
464,188,89562,1,8
448,220,89644,1,0
376,220,89809,1,0
308,228,89974,1,0
272,232,90056,1,0
272,232,90139,1,0
304,216,90221,1,8
364,248,90303,1,8
392,268,90468,1,0
392,268,90551,1,0
392,268,90633,1,0
376,220,90798,1,0
408,208,90880,1,8
468,176,90963,1,0
464,188,91045,1,8
428,184,91128,1,8
392,268,91292,1,8
408,208,91375,1,0
408,208,91457,1,0
444,208,91540,1,8
444,208,91704,1,8
440,244,91787,1,0
448,176,91952,1,8
428,184,92034,1,0
428,184,92117,1,0
444,208,92281,1,8
372,208,92446,5,0
308,240,92611,1,0
292,272,92693,1,0
324,256,92776,1,0
360,252,92858,1,8
444,208,93023,1,0
412,220,93106,1,0
348,192,93270,1,0
412,220,93353,1,0
392,248,93435,1,8
424,232,93518,1,0
392,216,93600,1,8
412,220,93682,1,0
424,188,93765,1,0
416,196,93847,1,8
460,140,94012,1,8
472,172,94095,1,0
476,208,94177,1,0
444,208,94259,1,8
360,252,94424,1,0
360,288,94507,1,0
412,220,94589,1,8
392,248,94671,1,0
444,208,94754,1,8
388,252,94919,1,8
324,224,95084,1,8
356,164,95248,1,0
392,164,95331,1,8
428,168,95413,1,0
460,176,95496,1,8
472,172,95578,1,0
444,208,95660,1,0
408,204,95743,1,8
392,248,95908,1,8
392,248,95990,1,8
372,220,96073,1,0
392,164,96155,1,8
444,208,96237,1,0
400,152,96402,1,4
340,188,96567,1,8
336,120,96732,1,4
376,176,96897,1,8
348,240,97062,1,0
320,220,97144,1,0
320,220,97226,1,0
320,220,97391,1,0
356,212,97474,1,0
392,208,97556,1,8
324,200,97721,5,4
256,208,97886,1,0
220,200,97969,1,0
232,168,98051,1,0
268,172,98134,1,8
332,200,98298,1,0
356,228,98381,1,0
424,212,98546,1,0
392,224,98628,1,0
416,200,98710,1,8
412,236,98793,1,0
372,292,98958,1,0
336,300,99040,1,0
356,272,99123,1,8
380,208,99287,1,8
424,212,99370,1,0
388,208,99452,1,0
388,152,99535,1,0
412,176,99617,1,8
432,204,99699,1,0
464,140,99864,1,8
468,176,99947,1,8
500,192,100029,1,0
464,188,100112,1,8
448,220,100194,1,0
376,220,100359,1,0
308,228,100524,1,0
272,232,100606,1,0
272,232,100689,1,0
304,216,100771,1,8
364,248,100853,1,8
392,268,101018,1,0
392,268,101101,1,0
392,268,101183,1,0
376,220,101348,1,0
408,208,101430,1,8
468,176,101513,1,0
464,188,101595,1,8
428,184,101678,1,8
392,268,101842,1,8
408,208,101925,1,0
408,208,102007,1,0
444,208,102090,1,8
408,208,102171,1,0
444,208,102254,1,8
440,244,102337,1,0
448,176,102502,1,8
428,184,102584,1,0
428,184,102667,1,0
444,208,102831,1,8
372,208,102996,5,0
308,240,103161,1,0
292,272,103243,1,0
324,256,103326,1,0
360,252,103408,1,8
444,208,103573,1,0
412,220,103656,1,0
348,192,103820,1,0
412,220,103903,1,0
392,248,103985,1,8
424,232,104068,1,0
392,216,104150,1,8
412,220,104232,1,0
424,188,104315,1,0
416,196,104397,1,8
460,140,104562,1,8
472,172,104645,1,0
476,208,104727,1,0
444,208,104809,1,8
360,252,104974,1,0
360,288,105057,1,0
412,220,105139,1,8
392,248,105221,1,0
444,208,105304,1,8
420,232,105386,1,0
388,252,105469,1,8
428,196,105633,1,8
472,172,105715,1,0
472,172,105798,1,0
472,172,105880,1,0
472,172,105963,1,8
440,188,106045,1,8
412,220,106128,1,0
380,236,106210,1,8
356,168,106292,1,0
392,168,106375,1,0
428,172,106457,1,8
492,196,106622,1,0
456,200,106704,1,8
456,200,106787,1,0
404,152,106952,1,12
332,152,107117,1,0
356,168,107281,1,12
376,100,107446,1,0
400,124,107529,1,8
428,172,107611,1,8
456,200,107693,1,0
456,200,107776,1,8
432,132,107941,1,4
404,196,108106,1,12
336,196,108270,5,0
268,192,108435,1,0
296,256,108600,1,0
364,244,108765,1,8
432,224,108930,1,8
400,240,109012,1,8
384,208,109095,1,0
372,176,109177,1,0
404,168,109259,1,8
404,168,109342,1,8
432,224,109424,1,0
396,232,109507,1,0
372,256,109589,1,0
344,276,109671,1,0
316,296,109754,1,0
372,176,109836,1,8
352,204,109919,1,0
336,236,110001,1,0
368,224,110084,1,8
336,164,110248,1,0
360,192,110331,1,0
352,204,110413,1,8
384,208,110496,1,8
384,208,110578,1,8
384,208,110660,1,8
372,256,110743,1,0
412,196,110908,1,8
444,184,110990,1,0
456,152,111073,1,8
444,184,111155,1,0
416,164,111237,1,8
444,184,111320,1,8
432,216,111402,1,0
424,252,111485,1,0
416,164,111567,1,8
416,164,111649,1,8
408,200,111732,1,0
404,236,111814,1,0
372,256,111897,1,0
456,152,111979,1,8
412,196,112062,1,0
344,188,112226,1,0
308,180,112309,1,0
344,180,112391,1,0
444,184,112474,1,8
416,204,112556,1,0
412,196,112639,1,0
412,196,112721,1,0
448,196,112803,1,8
480,208,112886,1,0
448,196,112968,1,0
444,184,113051,1,8
444,184,113133,1,8
444,184,113215,1,0
444,184,113298,1,8
444,184,113380,1,8
456,152,113545,5,8
444,184,113628,1,0
480,188,113710,1,8
480,208,113792,1,0
456,184,113875,1,8
480,188,113957,1,0
444,184,114040,1,8
420,212,114122,1,0
388,200,114204,1,8
356,188,114287,1,8
384,208,114369,1,0
412,232,114452,1,0
412,232,114534,1,0
412,232,114617,1,0
420,264,114699,1,8
444,196,114864,1,8
456,164,114946,1,8
480,188,115029,1,0
456,184,115111,1,0
444,184,115193,1,8
444,184,115276,1,0
444,196,115358,1,0
444,196,115441,1,8
408,196,115523,1,0
372,196,115606,1,0
444,196,115688,1,8
444,196,115770,1,8
384,208,115853,1,0
412,232,115935,1,0
400,264,116018,1,8
400,264,116100,1,8
408,196,116182,1,8
380,260,116347,1,0
444,184,116512,1,0
460,252,116677,1,8
396,224,116842,1,0
368,204,116924,1,0
404,196,117007,1,8
436,188,117089,1,8
444,184,117171,1,0
444,184,117254,1,0
408,196,117336,1,8
408,196,117419,1,8
436,176,117501,1,8
400,172,117584,1,0
432,180,117666,1,8
468,184,117748,1,0
444,208,117831,1,8
428,140,117996,1,0
444,184,118078,1,8
444,208,118160,1,0
444,208,118243,1,8
444,208,118325,1,8
420,232,118408,1,0
368,204,118490,1,8
368,204,118573,1,8
392,228,118655,1,0
328,256,118820,5,4
