osu file format v9

[General]
AudioFilename: Bird Sprite -Awakening of Light-.mp3
AudioLeadIn: 1500
PreviewTime: 66073
Countdown: 0
SampleSet: Soft
StackLeniency: 0.6
Mode: 0
LetterboxInBreaks: 1

[Editor]
DistanceSpacing: 1
BeatDivisor: 4
GridSize: 4

[Metadata]
Title:Bird Sprite -Awakening of Light-
Artist:syatten remixed celas
Creator:Reiji-RJ
Version:Normal
Source:BMS
Tags:BOF2011 Creation Records reku IceBeam lepidopodus lepidon

[Difficulty]
HPDrainRate:3
CircleSize:4
OverallDifficulty:3
ApproachRate:5
SliderMultiplier:1
SliderTickRate:1

[Events]
//Background and Video events
0,0,"812723.jpg"
//Break Periods
2,55723,59598
//Storyboard Layer 0 (Background)
//Storyboard Layer 1 (Fail)
//Storyboard Layer 2 (Pass)
//Storyboard Layer 3 (Foreground)
//Storyboard Sound Samples
//Background Colour Transformations
3,100,163,162,255

[TimingPoints]
139,329.67032967033,4,2,0,5,1,0
798,-100,4,2,0,10,0,0
1457,-100,4,2,0,20,0,0
2117,-100,4,2,0,30,0,0
2693,-100,4,2,0,40,0,0
2858,-100,4,1,0,30,0,0
7968,-100,4,2,0,40,0,0
8133,-100,4,1,0,30,0,0
11924,-100,4,1,0,35,0,0
12996,-100,4,2,1,50,0,0
13408,-100,4,2,1,40,0,0
23463,-100,4,1,0,40,0,0
23875,-100,4,2,1,60,0,0
28737,-100,4,1,0,40,0,0
29067,-100,4,2,1,60,0,0
39287,-100,4,1,0,40,0,0
39452,-100,4,2,1,60,0,0
46210,-100,4,1,1,40,0,0
46375,-100,4,2,1,60,0,0
46869,-100,4,1,1,40,0,0
47034,-100,4,2,1,60,0,0
49507,-100,4,1,1,40,0,0
49671,-100,4,2,1,60,0,0
50001,-100,4,1,1,40,0,0
50166,-100,4,2,1,60,0,0
51485,-100,4,1,1,40,0,0
51649,-100,4,2,1,60,0,0
52144,-100,4,1,1,40,0,0
52309,-100,4,2,1,60,0,0
55441,-100,4,1,1,50,0,0
55606,-100,4,2,1,60,0,0
66073,-200,4,2,0,60,0,1
66155,-133.333333333333,4,2,0,20,0,1
75880,-100,4,1,0,40,0,0
76622,-100,4,2,0,45,0,0
85853,-100,4,2,0,50,0,0
86018,-100,4,2,0,60,0,0
86182,-100,4,2,0,70,0,0
86347,-100,4,2,0,80,0,0
87171,-100,4,2,1,50,0,0
87748,-100,4,1,1,50,0,0
87913,-100,4,2,1,50,0,0
88408,-100,4,1,1,50,0,0
88573,-100,4,2,1,50,0,0
89067,-100,4,1,1,50,0,0
89232,-100,4,2,1,50,0,0
89726,-100,4,1,1,50,0,0
89891,-100,4,2,1,50,0,0
92364,-100,4,1,1,50,0,0
92529,-100,4,2,1,50,0,0
93023,-100,4,1,1,50,0,0
93188,-100,4,2,1,50,0,0
93682,-100,4,1,1,50,0,0
93847,-100,4,2,1,50,0,0
94342,-100,4,1,1,50,0,0
94507,-100,4,2,1,50,0,0
95001,-100,4,1,1,50,0,0
95166,-100,4,2,1,50,0,0
95578,-100,4,1,1,50,0,0
95825,-100,4,2,1,50,0,0
96320,-100,4,1,0,60,0,0
97639,-100,4,2,1,60,0,0
108270,-100,4,2,1,70,0,1
108847,-100,4,1,1,60,0,1
109012,-100,4,2,1,70,0,1
109507,-100,4,1,1,60,0,1
110331,-100,4,2,1,70,0,1
110825,-100,4,1,1,60,0,1
110990,-100,4,2,1,70,0,1
111485,-100,4,1,1,60,0,1
111649,-100,4,2,1,70,0,1
112144,-100,4,1,1,60,0,1
112968,-100,4,2,1,70,0,1
113463,-100,4,1,1,60,0,1
113628,-100,4,2,1,70,0,1
114122,-100,4,1,1,60,0,1
114287,-100,4,2,1,70,0,1
114781,-100,4,1,1,60,0,1
114946,-100,4,2,1,70,0,1
115441,-100,4,1,1,60,0,1
115606,-100,4,2,1,70,0,1
116100,-100,4,1,1,60,0,1
118160,-133.333333333333,4,1,1,60,0,1
118737,-133.333333333333,4,1,1,60,0,0
118820,-100,4,2,1,70,0,1
118902,-100,4,2,1,70,0,0

[Colours]
Combo1 : 27,137,90
Combo2 : 14,231,204
Combo3 : 18,101,184
Combo4 : 5,228,129

[HitObjects]
256,192,468,12,4,2776
40,92,3435,6,0,B|60:140|108:164|172:160|208:116,1,200
308,128,4424,2,0,B|342:85|406:81|454:105|474:153,1,200
384,196,5413,6,0,B|364:252|396:296,1,100
300,324,6073,2,0,B|246:328|200:332,1,100
108,296,6732,1,0
108,296,7062,2,0,B|124:216|104:196|84:176|108:96,1,200
112,104,7886,1,0
116,108,8051,5,4
208,80,8380,1,0
304,112,8710,1,0
396,84,9039,1,0
372,184,9369,1,0
372,184,9699,2,0,B|316:196|292:256|308:316|352:340,1,200
420,268,10688,5,0
472,184,11018,1,0
476,188,11677,1,0
372,184,12007,2,0,B|326:176|272:168,3,100,0|0|0|4
180,204,13325,5,4
84,180,13655,2,0,B|40:112|68:36,1,150,8|0
84,44,14314,2,0,B|136:40|184:36,1,100,8|0
276,76,14974,2,0,B|352:48|420:88,1,150,8|0
432,108,15633,2,0,B|424:208,1,100,8|0
328,172,16292,6,0,B|316:324,1,150,8|0
328,336,16952,1,8
420,300,17281,1,0
328,336,17611,2,0,B|224:328,1,100,8|0
208,340,18106,1,0
188,352,18270,2,0,B|144:320|88:340,1,100,8|4
60,244,18930,6,0,B|52:160|48:88,1,150,8|0
48,94,19589,1,8
140,52,19919,1,0
224,108,20248,2,0,B|300:140|368:96,1,150,8|0
367,96,20908,1,8
460,60,21237,1,0
448,160,21567,5,8
404,304,22062,1,0
404,304,22226,2,0,B|304:312,1,100,8|0
208,340,22886,2,0,B|112:316,2,100,2|2|0
304,312,23875,6,0,B|404:304,2,100,4|8|2
228,244,24864,1,8
128,256,25193,2,0,B|88:192|112:112,1,150,2|2
132,120,25853,2,0,B|204:104|212:144|280:120,1,150,2|2
300,132,26512,5,0
392,96,26842,1,8
468,164,27171,2,0,B|460:268,1,100,2|8
376,320,27831,2,0,B|300:280|240:336|240:336|184:324,1,200,2|2
164,320,28655,1,2
141,315,28820,1,0
44,328,29149,5,4
64,128,29809,2,0,B|168:140,1,100,2|8
248,84,30468,2,0,B|300:80|336:124|336:124|380:92|432:108,1,200,2|2
496,184,31457,1,8
400,204,31787,6,0,B|356:236|352:300|392:336,1,150,2|2
390,334,32446,1,0
284,336,32776,1,8
284,336,32941,1,2
284,336,33106,2,0,B|216:284|140:328,1,150,2|0
124,316,33765,2,0,B|112:216,1,100,2|4
44,144,34424,5,4
68,48,34754,1,8
164,68,35084,1,0
140,164,35414,1,8
228,212,35743,2,0,B|304:176|368:228,1,150,2|0
368,228,36402,2,0,B|344:144|416:96,1,150,2|2
414,97,37062,5,0
460,188,37391,1,8
444,288,37721,2,0,B|412:332|356:324,1,100,0|10
260,344,38380,2,0,B|192:292|120:328,1,150,2|2
104,340,39040,2,0,B|76:244,2,100,2|0|4
160,148,40358,6,0,B|188:244,2,100,2|8|0
256,124,41347,1,8
352,148,41677,2,0,B|324:244,1,100,2|8
256,192,42336,12,4,44974
80,108,45633,6,0,B|160:72|216:140,1,150,2|2
208,160,46292,2,0,B|307:148,1,100,0|8
264,240,46952,2,0,B|363:228,1,100,0|8
460,196,47611,6,0,B|504:128|468:52,1,150,2|2
468,53,48270,2,0,B|408:116|332:92,1,150,2|0
188,56,49259,1,8
108,120,49589,2,0,B|88:172|116:216,1,100,0|8
124,232,50084,1,0
132,248,50248,6,0,B|208:220|280:260,1,150,4|0
268,280,50908,2,0,B|312:212|404:224,1,150,2|2
397,223,51567,1,0
492,260,51897,1,8
476,160,52226,2,0,B|500:112|480:64,1,100,0|8
380,80,52886,6,0,B|232:68,1,150,2|2
220,60,53545,2,0,B|200:132|240:132|220:208,1,150,2|0
256,192,54369,12,4,55523
256,192,60798,5,4
408,200,63435,5,4
280,144,64095,1,4
392,64,64754,1,4
256,192,64836,12,4,66073
216,96,68710,6,0,B|165:122|110:71|110:71|87:142|30:145|30:145|99:185|93:273|93:273|148:213|224:236,1,524.999984353781
223,236,71347,6,0,B|198:193|199:145|221:98|257:66|309:51|373:63|425:105|446:154|445:203|423:250|387:281|339:290,1,524.999984353781,0|0
300,220,73985,6,0,B|264:240|248:276|252:316|280:348|280:348|240:328|204:316|168:324|140:352,1,299.999991059304,0|0
128,152,75963,5,0
76,68,76292,1,0
132,156,76622,6,0,B|168:92|248:76|304:116,1,200,4|2
400,88,77611,1,2
468,164,77941,2,0,B|460:240|452:320,1,150,2|0
436,328,78600,2,0,B|388:308|340:336,1,100,2|2
240,352,79259,6,0,B|140:340,1,100,0|2
200,260,79919,2,0,B|104:232,1,100,0|2
180,164,80578,2,0,B|92:116,1,100,0|2
176,60,81237,2,0,B|256:92|312:28,1,150,2|0
311,28,81897,5,2
408,48,82226,1,2
388,144,82556,1,2
291,124,82885,1,2
192,108,83215,2,0,B|160:84|120:96|120:96|96:160|20:152,1,200,2|2
28,52,84204,1,2
32,56,84534,5,2
60,252,85193,1,2
132,320,85523,1,2
160,224,85853,2,2,B|232:200|256:228|280:256|356:224,1,200,2|2
444,60,87171,6,0,B|396:68|344:76,1,100,4|8
268,140,87831,2,0,B|220:132|168:124,1,100,0|8
80,172,88490,2,0,B|36:248|92:312,1,150
108,324,89149,2,0,B|152:296|208:312,1,100,0|8
300,344,89809,5,0
376,280,90139,2,0,B|416:220|372:160|372:160|384:88,1,200,8|8
252,260,91457,2,0,B|233:190|294:147|294:147|306:75,1,200,8|8
212,44,92446,6,0,B|108:40,1,100,0|8
40,112,93106,2,0,B|24:168|56:208,1,100,0|8
144,160,93765,2,0,B|188:224|160:304,1,150
160,303,94424,1,0
256,340,94754,1,8
352,304,95084,6,0,B|324:224|368:160,1,150
367,160,95743,1,0
456,206,96073,1,8
456,205,96402,6,0,B|488:165|472:109,3,100
456,88,97556,1,0
440,64,97721,6,0,B|392:88|344:72,1,100,4|8
252,108,98380,2,0,B|204:80|156:96,1,100,0|8
156,96,98875,1,2
156,96,99040,2,0,B|164:196,1,100,0|8
68,168,99699,2,0,B|76:268,1,100,0|8
72,288,100193,1,0
68,308,100358,6,0,B|120:288|168:320,1,100,2|8
184,220,101018,2,0,B|236:236|256:284,1,100,2|8
328,216,101677,2,0,B|356:256|352:312,1,100,2|10
444,264,102336,2,0,B|448:186|452:112,1,150,2|0
440,96,102996,6,0,B|392:116|340:104,1,100,2|8
256,52,103655,1,2
170,104,103985,2,0,B|120:116|72:96,2,100,8|2|8
204,196,104974,1,2
308,196,105303,1,8
256,192,105633,12,4,107941
40,96,108270,6,0,B|84:124|144:112|172:60,1,150,4|2
184,76,108930,2,0,B|192:224,1,150,0|2
208,236,109589,1,0
212,336,109919,1,0
312,332,110248,2,0,B|388:316|388:352|460:332,1,150,0|2
472,344,110908,6,0,B|480:244,1,100,0|8
388,208,111567,2,0,B|396:108,1,100,0|8
476,52,112226,1,0
396,108,112556,1,0
300,84,112886,2,0,B|268:48|204:40|160:68,1,150,0|2
144,56,113545,5,0
48,84,113874,1,8
76,180,114204,1,0
172,152,114533,1,8
264,188,114864,2,0,B|304:152|360:164,3,100,0|8|0|8
452,188,116182,6,0,B|468:136,2,50
472,288,116842,2,0,B|508:320,2,50
376,256,117501,2,0,B|328:260,3,50
328,284,118160,6,0,B|256:304|256:260|180:284,1,149.999995529652,0|4
