osu file format v9

[General]
AudioFilename: Bird Sprite -Awakening of Light-.mp3
AudioLeadIn: 1500
PreviewTime: 66073
Countdown: 0
SampleSet: Soft
StackLeniency: 0.4
Mode: 0
LetterboxInBreaks: 1

[Editor]
DistanceSpacing: 1
BeatDivisor: 4
GridSize: 4

[Metadata]
Title:Bird Sprite -Awakening of Light-
Artist:syatten remixed celas
Creator:Reiji-RJ
Version:Hyper
Source:BMS
Tags:BOF2011 Creation Records reku IceBeam lepidopodus lepidon

[Difficulty]
HPDrainRate:6
CircleSize:4
OverallDifficulty:6
ApproachRate:8
SliderMultiplier:1.4
SliderTickRate:1

[Events]
//Background and Video events
0,0,"812723.jpg"
//Break Periods
2,55723,60048
//Storyboard Layer 0 (Background)
//Storyboard Layer 1 (Fail)
//Storyboard Layer 2 (Pass)
//Storyboard Layer 3 (Foreground)
//Storyboard Sound Samples
//Background Colour Transformations
3,100,163,162,255

[TimingPoints]
139,329.67032967033,4,2,0,5,1,0
798,-100,4,2,0,10,0,0
1457,-100,4,2,0,20,0,0
2117,-100,4,2,0,30,0,0
2693,-100,4,2,0,40,0,0
3023,-100,4,1,0,50,0,0
3188,-100,4,2,0,50,0,0
3682,-100,4,1,0,50,0,0
3847,-100,4,2,0,50,0,0
4342,-100,4,1,0,50,0,0
4507,-100,4,2,0,50,0,0
5001,-100,4,1,0,50,0,0
5166,-100,4,2,0,50,0,0
5660,-100,4,1,0,50,0,0
5825,-100,4,2,0,50,0,0
6320,-100,4,1,0,50,0,0
6485,-100,4,2,0,50,0,0
6979,-100,4,1,0,50,0,0
7144,-100,4,2,0,50,0,0
7639,-100,4,1,0,50,0,0
7968,-100,4,2,0,50,0,0
8298,-100,4,1,0,50,0,0
8463,-100,4,2,0,50,0,0
8957,-100,4,1,0,50,0,0
9122,-100,4,2,0,50,0,0
9617,-100,4,1,0,50,0,0
9781,-100,4,2,0,50,0,0
10276,-100,4,1,0,50,0,0
10441,-100,4,2,0,50,0,0
10935,-100,4,1,0,50,0,0
11100,-100,4,2,0,50,0,0
11595,-100,4,1,0,50,0,0
11759,-100,4,2,0,50,0,0
11924,-100,4,1,0,50,0,0
12996,-100,4,1,0,50,0,0
13078,-100,4,1,0,50,0,0
13243,-100,4,1,1,50,0,0
13408,-100,4,2,1,50,0,0
23463,-100,4,1,0,40,0,0
23875,-100,4,1,1,60,0,0
23957,-100,4,2,1,60,0,0
24122,-100,4,1,1,60,0,0
24287,-100,4,2,1,60,0,0
24452,-100,4,1,1,60,0,0
24617,-100,4,2,1,60,0,0
24781,-100,4,1,1,60,0,0
24946,-100,4,2,1,60,0,0
25111,-100,4,1,1,60,0,0
25606,-100,4,2,1,60,0,0
25770,-100,4,1,1,60,0,0
26182,-100,4,2,1,60,0,0
26512,-100,4,1,1,60,0,0
27254,-100,4,2,1,60,0,0
27419,-100,4,1,1,60,0,0
27584,-100,4,2,1,60,0,0
27748,-100,4,1,1,60,0,0
28573,-100,4,2,1,60,0,0
28737,-100,4,1,0,60,0,0
29891,-100,4,2,1,60,0,0
30056,-100,4,1,1,60,0,0
30221,-100,4,2,1,60,0,0
30386,-100,4,1,1,60,0,0
31210,-100,4,2,1,60,0,0
31375,-100,4,1,1,60,0,0
31540,-100,4,2,1,60,0,0
31704,-100,4,1,1,60,0,0
34507,-100,4,2,1,60,0,0
34671,-100,4,1,1,60,0,0
34836,-100,4,2,1,60,0,0
35001,-100,4,1,1,60,0,0
35166,-100,4,2,1,60,0,0
35331,-100,4,1,1,60,0,0
35496,-100,4,2,1,60,0,0
35660,-100,4,1,1,60,0,0
36155,-100,4,2,1,60,0,0
36320,-100,4,1,1,60,0,0
36732,-100,4,2,1,60,0,0
37062,-100,4,1,1,60,0,0
37803,-100,4,2,1,60,0,0
37968,-100,4,1,1,60,0,0
38133,-100,4,2,1,60,0,0
38298,-100,4,1,1,60,0,0
38792,-100,4,2,1,60,0,0
38957,-100,4,1,1,60,0,0
39452,-100,4,2,1,60,0,0
39617,-100,4,1,1,60,0,0
39781,-100,4,2,1,60,0,0
39946,-100,4,1,1,60,0,0
40441,-100,4,2,1,60,0,0
40606,-100,4,1,1,60,0,0
40770,-100,4,2,1,60,0,0
40935,-100,4,1,1,60,0,0
41100,-100,4,2,1,60,0,0
41265,-100,4,1,1,60,0,0
41759,-100,4,2,1,60,0,0
41924,-100,4,1,1,60,0,0
42089,-100,4,2,1,60,0,0
42254,-100,4,1,0,55,0,0
45139,-100,4,2,1,60,0,0
45551,-100,4,1,1,60,0,0
45715,-100,4,2,1,60,0,0
46210,-100,4,1,1,60,0,0
46375,-100,4,2,1,60,0,0
46787,-100,4,1,1,60,0,0
47199,-100,4,2,1,60,0,0
47529,-100,4,1,1,60,0,0
47693,-100,4,2,1,60,0,0
48188,-100,4,1,1,60,0,0
48353,-100,4,2,1,60,0,0
48847,-100,4,1,1,60,0,0
49012,-100,4,2,1,60,0,0
49507,-100,4,1,1,60,0,0
49836,-100,4,2,1,60,0,0
50084,-100,4,1,1,60,0,0
50331,-100,4,2,1,60,0,0
50825,-100,4,1,1,60,0,0
50990,-100,4,2,1,60,0,0
51485,-100,4,1,1,60,0,0
51649,-100,4,2,1,60,0,0
52144,-100,4,1,1,60,0,0
52474,-100,4,2,1,60,0,0
52803,-100,4,1,1,60,0,0
52968,-100,4,2,1,60,0,0
53463,-100,4,1,1,60,0,0
53628,-100,4,2,1,60,0,0
54122,-100,4,1,1,60,0,0
54287,-100,4,2,1,60,0,0
54781,-100,4,1,1,60,0,0
54946,-133.333333333333,4,2,0,60,0,0
55441,-133.333333333333,4,1,0,60,0,0
55606,-100,4,1,0,60,0,0
66073,-200,4,1,0,60,0,1
66155,-200,4,2,0,20,0,1
75880,-100,4,1,0,40,0,0
76704,-100,4,2,1,45,0,0
85688,-200,4,2,0,45,0,0
86018,-200,4,2,0,50,0,0
86347,-200,4,2,0,55,0,0
86759,-200,4,2,0,5,0,0
87171,-100,4,1,1,50,0,0
87254,-100,4,2,1,50,0,0
87748,-100,4,1,1,50,0,0
87913,-100,4,2,1,50,0,0
88490,-100,4,1,1,50,0,0
88573,-100,4,2,1,50,0,0
89067,-100,4,1,1,50,0,0
89232,-100,4,2,1,50,0,0
89726,-100,4,1,1,50,0,0
89891,-100,4,2,1,50,0,0
90386,-100,4,1,1,50,0,0
90551,-100,4,2,1,50,0,0
91045,-100,4,1,1,50,0,0
91210,-100,4,2,1,50,0,0
91704,-100,4,1,1,50,0,0
91869,-100,4,2,1,50,0,0
92034,-100,4,1,1,50,0,0
92529,-100,4,2,1,50,0,0
93023,-100,4,1,1,50,0,0
93188,-100,4,2,1,50,0,0
93682,-100,4,1,1,50,0,0
93847,-100,4,2,1,50,0,0
94342,-100,4,1,1,50,0,0
95001,-100,4,1,1,45,0,0
95331,-100,4,1,1,50,0,0
95660,-100,4,1,1,55,0,0
95990,-100,4,1,1,60,0,0
96320,-100,4,1,1,50,0,0
98133,-100,4,2,1,60,0,0
98298,-100,4,1,1,60,0,0
98792,-100,4,2,1,60,0,0
98957,-100,4,1,1,60,0,0
98957,-100,4,1,1,60,0,0
99122,-100,4,2,1,60,0,0
99287,-100,4,1,1,60,0,0
99452,-100,4,2,1,60,0,0
99617,-100,4,1,1,60,0,0
100523,-100,4,2,1,60,0,0
100688,-100,4,1,1,60,0,0
100770,-100,4,2,1,60,0,0
100935,-100,4,1,1,60,0,0
101182,-100,4,2,1,60,0,0
101347,-100,4,1,1,60,0,0
101430,-100,4,2,1,60,0,0
101595,-100,4,1,1,60,0,0
101842,-100,4,2,1,60,0,0
102007,-100,4,1,1,60,0,0
102089,-100,4,2,1,60,0,0
102254,-100,4,1,1,60,0,0
103078,-100,4,2,1,60,0,0
103243,-100,4,1,1,60,0,0
104067,-100,4,2,1,60,0,0
104232,-100,4,1,1,60,0,0
104397,-100,4,2,1,60,0,0
104562,-100,4,1,1,60,0,0
104726,-100,4,2,1,60,0,0
104891,-100,4,1,1,60,0,0
105551,-100,4,1,0,55,0,0
107858,-100,4,1,1,60,0,0
108023,-100,4,1,0,60,0,0
108270,-100,4,1,0,60,0,1
108353,-100,4,2,1,70,0,1
116182,-100,4,1,0,30,0,1
116265,-100,4,1,0,35,0,1
116430,-100,4,1,0,40,0,1
116595,-100,4,1,0,45,0,1
116759,-100,4,1,0,50,0,1
116924,-100,4,1,0,55,0,1
117089,-100,4,1,0,60,0,1
117254,-100,4,1,0,65,0,1
117419,-100,4,1,0,30,0,1
117666,-100,4,1,0,35,0,1
117831,-100,4,1,0,40,0,1
117996,-100,4,1,0,45,0,1
118160,-100,4,1,0,50,0,1
118325,-100,4,1,0,55,0,1
118490,-100,4,1,0,60,0,1
118737,-100,4,1,0,60,0,0
118820,-100,4,1,0,70,0,1
118902,-100,4,1,0,70,0,0

[Colours]
Combo1 : 27,137,90
Combo2 : 14,231,204
Combo3 : 18,101,184
Combo4 : 5,228,129

[HitObjects]
256,192,468,12,4,2776
184,64,3106,6,0,B|264:68|328:72,1,140,0|0
412,132,3600,1,2
412,132,3765,2,0,B|416:92|420:60,1,70
312,168,4095,2,0,B|304:256|300:320,2,140
324,72,4919,1,2
412,132,5084,1,0
312,168,5248,1,0
424,36,5413,5,0
508,96,5578,1,2
496,192,5743,1,0
396,228,5908,1,0
56,112,6237,1,2
164,104,6402,1,0
60,116,6567,2,0,B|44:188|84:256,1,140,0|2
168,320,7062,2,0,B|244:332,1,70
316,264,7391,2,0,B|308:224|312:188,1,70,0|2
312,88,7721,1,0
432,44,7886,1,0
432,44,7968,1,0
432,44,8051,5,4
472,136,8215,2,0,B|468:192|468:220,1,70,2|0
364,192,8545,2,0,B|284:164|232:232,1,140,0|2
316,264,9040,1,0
352,160,9204,2,0,B|272:132|220:200,1,140,0|2
120,164,9699,2,0,B|84:156|44:156,1,70,0|0
144,252,10029,2,0,B|140:296|152:332,1,70,0|2
252,336,10358,1,0
252,336,10523,1,0
420,64,10853,5,2
340,56,11018,1,0
260,48,11182,1,0
92,320,11512,1,2
172,328,11677,1,0
252,336,11841,1,0
332,348,12007,1,0
336,352,12336,1,0
340,356,12666,2,0,B|348:288|356:248,1,105
368,256,12996,2,0,B|408:244|448:252,1,70,4|0
280,60,13325,6,0,B|296:120|280:160,1,70,4|0
204,136,13655,1,8
368,40,13820,2,0,B|384:108|372:180,1,140,0|0
288,236,14314,2,0,B|248:224|216:240,1,70,8|0
180,324,14644,2,0,B|220:336|252:320,1,70
128,248,14974,1,8
128,248,15139,2,0,B|96:188|128:112,1,140
188,40,15633,1,8
280,60,15798,1,0
280,60,15880,1,0
280,60,15963,5,0
272,152,16128,2,0,B|308:156|352:164,1,70,0|8
384,232,16457,2,0,B|348:164|392:96,1,140
456,272,16952,1,8
456,272,17117,2,0,B|384:236|308:288,1,140
224,316,17611,1,8
224,316,17776,2,0,B|188:308|152:304,1,70,0|0
84,192,18106,2,0,B|120:200|156:204,1,70,0|8
272,152,18435,1,0
272,152,18518,1,0
272,152,18600,5,4
352,108,18765,1,0
440,144,18930,1,8
360,200,19095,1,0
364,204,19424,1,0
352,108,19589,1,8
440,144,19754,1,0
452,240,19919,2,0,B|448:288|440:328,1,70
328,308,20248,1,8
328,308,20413,2,0,B|264:316|176:328,1,140
188,332,20908,1,8
104,280,21073,1,0
96,268,21155,1,0
88,256,21237,5,0
92,156,21402,2,0,B|96:124|88:80,1,70,0|8
164,48,21732,2,0,B|184:116|172:192,1,140
264,228,22226,2,0,B|312:224|340:224,1,70,8|0
272,140,22556,2,0,B|320:136|348:136,1,70
276,52,22886,2,0,B|348:48|416:48,1,140,2|2
436,264,23545,2,0,B|460:208,3,35
440,272,23875,6,0,B|392:264|348:260,1,70,4|2
200,188,24204,2,0,B|196:148|216:104,1,70,0|0
244,272,24534,2,0,B|248:312|228:356,1,70,0|2
288,172,24864,2,0,B|336:180|380:184,1,70,0|0
448,180,25193,2,0,B|480:116|452:32,1,140,0|0
364,48,25688,2,0,B|320:52|280:52,1,70,2|0
204,56,26018,1,0
152,268,26347,1,0
152,268,26430,1,0
152,268,26512,6,0,B|196:252|220:264|244:276|296:260,1,140,0|0
448,92,27171,2,0,B|460:128|448:164,1,70,0|2
364,116,27501,2,0,B|352:80|364:44,1,70,0|0
368,204,27831,1,0
372,208,28160,1,0
104,56,28490,1,0
84,192,28655,1,2
184,96,28820,1,0
40,116,28985,1,0
172,180,29149,5,4
176,184,29479,1,0
372,208,29809,2,0,B|428:204|460:200,1,70,0|2
464,280,30139,2,0,B|408:284|376:288,1,70
348,132,30468,2,0,B|408:128|496:120,2,140
264,88,31292,1,2
224,164,31457,2,0,B|192:144|160:140,1,70
100,72,31787,6,0,B|44:144|108:220,1,140
168,224,32281,1,0
204,300,32446,1,0
292,320,32611,1,0
380,284,32776,1,0
400,184,32941,1,0
400,184,33023,1,0
400,184,33106,6,0,B|404:144|408:112,1,70,0|0
312,140,33435,2,0,B|308:180|304:212,1,70,0|0
332,48,33765,6,0,B|296:32|256:48,1,70,0|0
140,124,34095,2,0,B|176:140|216:124,1,70,4|0
172,40,34424,5,4
180,36,34589,1,2
68,48,34754,5,0
60,40,34919,1,2
40,144,35084,5,0
32,152,35248,1,2
116,216,35413,5,0
120,224,35578,1,2
140,124,35743,5,0
300,312,36073,1,0
356,248,36237,1,2
440,256,36402,1,0
392,340,36567,1,0
300,120,36897,1,0
300,120,36979,1,0
300,120,37062,6,0,B|348:104|348:104|388:112|388:112|436:96,2,140
212,104,37886,1,2
144,160,38051,2,0,B|148:200|156:240,1,70
236,280,38380,2,0,B|184:340|100:304,1,140
68,232,38875,1,0
68,232,39040,2,0,B|56:176|52:120,1,105
64,116,39369,1,0
132,36,39534,1,0
212,104,39699,5,4
144,160,39864,1,0
216,108,40029,2,0,B|284:112|360:120,1,140
448,112,40523,2,0,B|444:152|436:180,1,70,2|0
348,208,40853,1,0
492,240,41018,2,0,B|488:276|480:312,1,70
388,340,41347,2,0,B|332:344|248:348,1,140
152,328,41842,1,2
60,336,42007,2,0,B|48:292|44:264,1,70
64,168,42336,5,0
136,96,42501,1,0
236,128,42666,1,0
160,188,42831,1,0
160,188,42913,1,0
160,188,42996,2,0,B|164:224|176:256,1,70
352,196,43325,2,0,B|348:160|336:128,1,70
256,224,43655,1,0
328,296,43820,1,0
328,296,43902,1,0
328,296,43985,1,0
428,264,44149,1,0
452,100,44397,1,0
452,100,44479,2,0,B|456:56|456:24,2,70
360,104,44974,6,0,B|304:80|248:108,1,105,4|0
244,112,45303,2,0,B|256:148|244:184,1,70,2|0
180,236,45633,2,0,B|128:240|68:248,2,105,0|0|0
260,264,46292,1,0
264,268,46622,2,0,B|332:260|408:252,1,140,8|0
480,248,47117,1,0
480,248,47281,1,8
316,48,47611,6,0,B|332:160,1,105
320,164,47941,2,0,B|284:152|252:160,1,70,2|0
200,232,48270,2,0,B|164:236|164:236|136:256|136:256|88:260,2,105
292,252,48930,1,0
296,256,49095,2,0,B|292:296|308:332,1,70,0|8
400,336,49424,1,2
400,336,49507,1,0
400,336,49589,2,0,B|404:296|388:260,1,70
212,248,49919,2,0,B|208:288|224:324,1,70,8|0
488,352,50248,6,0,B|492:296|468:248,1,105,4|0
480,208,50578,2,0,B|404:196,1,70,2|0
336,148,50908,2,0,B|328:120|328:120|336:80|336:80|328:44,2,105
332,232,51566,1,0
336,236,51897,2,0,B|260:240|192:248,1,140,8|0
116,256,52391,1,0
116,256,52556,1,8
268,36,52886,6,0,B|292:92|260:136,1,105
268,148,53215,2,0,B|344:152,1,70,2|0
420,196,53545,2,0,B|436:164|436:164|432:132|432:132|448:96,2,105
332,232,54204,1,0
336,236,54534,2,0,B|244:244|184:248,1,140,8|0
192,256,55029,6,0,B|188:240|188:240|192:232|192:232|184:224|184:224|192:220|192:220|184:212|184:212|192:200|192:200|184:196|184:196|188:188|188:188|180:176|180:176|188:168|188:168|180:160|180:160|188:148|188:148|184:140|184:140|188:132|188:132|180:124|180:124|184:116,1,157.499995306134,0|4
256,188,60798,5,4
244,144,63435,5,4
304,212,64095,1,4
220,228,64754,1,4
56,68,66073,6,0,B|56:64|80:68|116:68|168:80|192:104|204:136|208:160|196:204|172:224|132:228|92:212|68:180|68:144|96:100|112:84|160:76|248:88,1,490,4|0
248,72,68710,6,0,B|228:128|268:168|320:172|348:160|348:160|364:136|348:112|312:104|280:140|272:172|268:196|324:240|324:284|292:332|236:336|208:312,1,490
144,336,71347,6,0,B|128:316|128:284|144:248|184:232|204:228|248:232|280:260|296:284|296:284|320:320|376:340|424:328|464:292|472:252|460:216|440:204|440:204,1,490
371,239,73985,6,0,B|355:203|359:139|387:107|431:115|439:167|383:195|311:171|287:167|259:143|239:131,1,280
88,56,75963,5,0
52,156,76210,1,0
52,156,76292,1,0
64,236,76457,1,0
76,316,76622,5,0
156,304,76787,1,2
144,224,76952,1,8
260,80,77281,1,0
380,208,77611,2,0,B|376:264|372:288,1,70,0|2
288,240,77941,2,0,B|292:180|292:156,1,70,0|0
296,324,78270,2,0,B|228:312|144:304,2,140
372,280,79095,1,2
460,296,79259,5,0
408,72,79589,2,0,B|356:136|268:96,1,140,0|0
176,96,80084,1,2
240,28,80248,2,0,B|284:108|228:176,1,140
224,272,80743,1,2
168,192,80908,2,0,B|256:200|328:204,1,140
400,232,81402,2,0,B|408:188|412:156,2,70,2|0|0
388,312,81897,5,0
132,280,82226,1,8
168,192,82391,1,2
224,272,82556,1,0
368,80,82886,1,0
136,284,83215,2,0,B|92:284|68:296,1,70,0|2
172,196,83545,2,0,B|160:160|160:124,1,70,0|2
228,276,83875,2,0,B|296:304|372:280,1,140,0|0
448,316,84369,1,2
440,232,84534,6,0,B|448:156|452:88,1,140
292,76,85029,1,2
372,84,85193,2,0,B|368:147|360:223,1,140
188,332,85853,6,0,B|244:320|256:332|268:344|332:328,1,140,0|0
332,336,87171,6,0,B|320:260,1,70,4|0
228,204,87501,2,0,B|240:280,1,70,8|0
308,184,87831,2,0,B|284:44,1,140,0|8
196,76,88325,1,2
196,76,88408,1,0
196,76,88490,1,0
104,52,88655,2,0,B|68:44|32:36,2,70,0|8|0
128,136,89149,2,0,B|108:212|164:288,1,140,0|8
244,312,89644,1,0
304,240,89809,2,0,B|324:164|268:88,1,140,0|8
336,328,90468,5,0
304,240,90633,1,2
244,312,90798,1,8
248,316,91128,5,0
216,228,91293,1,2
156,300,91458,1,8
160,304,91787,5,0
128,216,91952,1,2
68,288,92117,1,0
36,204,92281,1,0
88,132,92446,1,0
180,140,92611,1,0
216,228,92776,1,8
428,264,93106,6,0,B|434:193|442:121,1,140,0|8
446,45,93600,1,0
370,73,93765,2,0,B|318:49|258:77,1,105
262,85,94095,2,0,B|274:125|262:165,1,70,8|0
180,140,94424,1,0
184,144,94754,1,0
136,220,94919,1,0
184,296,95084,5,0
188,300,95248,1,0
60,272,95413,1,0
64,276,95578,1,0
80,144,95743,1,0
84,148,95908,1,0
212,172,96073,1,0
216,176,96237,1,0
136,220,96402,5,0
140,224,96732,1,0
144,228,97062,1,0
268,252,97309,1,0
268,252,97391,1,0
332,192,97556,1,0
356,276,97721,5,4
420,100,98051,2,0,B|416:64|412:32,1,70,0|0
320,60,98380,2,0,B|248:68|148:76,1,140,4|0
92,100,98875,1,0
92,100,99040,2,0,B|112:148|92:192,1,70,4|0
52,316,99369,2,0,B|32:268|52:224,1,70,0|0
144,260,99699,2,0,B|188:248|212:260|236:272|284:256,1,140,4|0
384,288,100193,1,0
452,212,100358,6,0,B|460:100,1,105,4|2
456,92,100688,2,0,B|388:96,1,70,0|0
268,180,101018,6,0,B|388:172,1,105,4|2
376,188,101347,2,0,B|372:268,1,70,0|0
300,100,101677,6,0,B|180:108,1,105,4|2
192,120,102007,1,0
104,140,102171,1,0
56,216,102336,1,4
16,120,102501,5,0
104,140,102666,1,0
156,212,102831,1,0
248,256,102996,5,4
344,240,103160,1,0
344,240,103325,2,0,B|360:176|372:100,2,140,0|4|0
416,304,104149,1,0
416,304,104314,2,0,B|452:312|488:304,1,70,4|0
324,336,104644,2,0,B|288:328|252:336,1,70,0|0
172,348,104974,1,4
72,64,105303,1,0
72,64,105468,1,0
72,64,105633,5,0
100,180,105798,1,0
180,212,105963,5,0
196,44,106128,1,0
280,60,106292,5,0
292,180,106457,1,0
364,212,106622,5,0
392,56,106787,1,0
428,144,106952,5,0
460,232,107117,1,0
460,232,107199,1,0
460,232,107281,1,0
364,212,107446,1,0
52,232,107693,1,0
52,232,107776,1,0
84,144,107940,1,0
148,212,108106,1,0
256,260,108270,6,0,B|256:304|276:328,1,70,4|2
372,360,108600,2,0,B|372:316|352:292,1,70,8|2
364,212,108930,1,0
368,192,109012,1,2
364,172,109095,1,0
352,156,109177,1,0
336,148,109259,1,2
280,80,109424,1,0
180,88,109589,1,2
176,100,109671,1,0
172,112,109754,1,0
148,212,109919,1,8
148,212,110084,1,0
172,304,110248,2,0,B|160:344,7,35,2|0|0|0|2|0|0|0
184,308,110908,6,0,B|260:312,1,70,2|0
148,212,111237,2,0,B|72:208,1,70,8|0
240,216,111567,2,0,B|396:224,1,140,2|8
472,232,112062,1,0
472,232,112226,2,0,B|480:280|460:316,1,70,2|0
432,144,112556,2,0,B|424:96|444:60,1,70,8|0
344,48,112886,2,0,B|312:52|288:56,3,35,2|0|0|0
276,68,113215,2,0,B|236:64|224:64,3,35,2|0|0|0
208,72,113545,5,2
120,60,113710,1,0
40,100,113875,1,8
52,184,114040,1,0
56,196,114122,1,0
60,208,114204,1,2
148,220,114369,1,0
228,180,114534,1,8
320,192,114699,2,0,B|356:176,4,35,0|0|2|0|0
256,264,115193,1,8
152,328,115358,2,0,B|104:320,4,35,0|0|2|0|0
256,348,115853,1,8
256,348,116018,1,8
352,316,116182,6,0,B|396:308|420:304,1,70
164,248,116512,2,0,B|120:240|96:236,1,70
200,59,116842,5,0
340,80,117007,1,0
319,219,117171,1,0
179,198,117336,1,0
260,140,117501,5,0
260,140,117584,1,0
260,140,117666,1,0
260,140,117748,1,0
260,140,117831,1,0
260,140,117913,1,0
260,140,117996,1,0
260,140,118078,1,0
260,140,118160,1,0
252,232,118325,2,0,B|264:256,4,17.5
180,92,118655,1,0
348,112,118820,5,4
