osu file format v9

[General]
AudioFilename: Bird Sprite -Awakening of Light-.mp3
AudioLeadIn: 1500
PreviewTime: 66073
Countdown: 0
SampleSet: Soft
StackLeniency: 0.6
Mode: 0
LetterboxInBreaks: 1

[Editor]
DistanceSpacing: 1
BeatDivisor: 4
GridSize: 4

[Metadata]
Title:Bird Sprite -Awakening of Light-
Artist:syatten remixed celas
Creator:Reiji-RJ
Version:Beginner
Source:BMS
Tags:BOF2011 Creation Records reku IceBeam lepidopodus lepidon

[Difficulty]
HPDrainRate:1
CircleSize:3
OverallDifficulty:2
ApproachRate:2
SliderMultiplier:0.8
SliderTickRate:1

[Events]
//Background and Video events
0,0,"812723.jpg"
//Break Periods
2,55723,59238
//Storyboard Layer 0 (Background)
//Storyboard Layer 1 (Fail)
//Storyboard Layer 2 (Pass)
//Storyboard Layer 3 (Foreground)
//Storyboard Sound Samples
//Background Colour Transformations
3,100,163,162,255

[TimingPoints]
139,329.67032967033,4,2,0,5,1,0
798,-100,4,2,0,10,0,0
1457,-100,4,2,0,20,0,0
2117,-100,4,2,0,30,0,0
2693,-100,4,2,0,40,0,0
2858,-100,4,1,0,40,0,0
7968,-100,4,2,0,40,0,0
8133,-100,4,1,0,40,0,0
11924,-100,4,1,0,45,0,0
12913,-100,4,2,0,50,0,0
13408,-100,4,2,1,40,0,0
22721,-100,4,2,1,45,0,0
23051,-100,4,2,1,50,0,0
23463,-100,4,1,0,40,0,0
23875,-100,4,2,1,60,0,0
28737,-100,4,1,0,50,0,0
29067,-100,4,2,1,60,0,0
39287,-100,4,1,0,40,0,0
39452,-100,4,2,1,60,0,0
55441,-100,4,1,1,50,0,0
55606,-100,4,2,1,60,0,0
66073,-133.333333333333,4,2,0,60,0,1
66155,-133.333333333333,4,2,0,20,0,1
75880,-100,4,1,0,40,0,0
76622,-100,4,2,0,45,0,0
85853,-100,4,2,0,50,0,0
86018,-100,4,2,0,60,0,0
86182,-100,4,2,0,70,0,0
86347,-100,4,2,0,80,0,0
87171,-100,4,2,1,50,0,0
96320,-100,4,1,0,40,0,0
96897,-100,4,1,0,45,0,0
97639,-100,4,2,1,60,0,0
108270,-100,4,2,0,70,0,1
116018,-100,4,1,0,40,0,1
116347,-100,4,1,0,45,0,1
116677,-100,4,1,0,50,0,1
117007,-100,4,1,0,55,0,1
117336,-100,4,1,0,60,0,1
117666,-100,4,1,0,65,0,1
117996,-100,4,1,0,60,0,1
118737,-100,4,1,0,60,0,0
118820,-100,4,2,0,70,0,1
118902,-100,4,2,0,70,0,0

[Colours]
Combo1 : 27,137,90
Combo2 : 14,231,204
Combo3 : 18,101,184
Combo4 : 5,228,129

[HitObjects]
256,192,468,12,4,2776
140,128,3435,5,0
144,132,4095,2,0,B|216:136|256:96|256:96|296:136|368:132,1,240
444,132,5413,5,0
408,288,6073,1,0
248,272,6732,2,0,B|168:248|168:296|88:272,2,160,0|0|4
264,112,8710,6,0,B|344:136|344:88|424:112,1,160
232,264,10358,1,0
232,264,10688,6,0,B|188:292|124:292|80:264,1,160
200,160,12007,2,0,B|244:132|308:132|352:160,1,160
372,236,12996,1,4
372,236,13325,6,0,B|328:152|388:84,1,160,4|0
464,76,14314,1,8
464,76,14644,2,0,B|304:88,2,160
456,156,16292,6,0,B|296:168,1,160,8|8
216,168,17281,2,0,B|56:156,2,160,0|0|4
256,240,18930,5,8
412,276,19589,1,8
412,276,19919,2,0,B|436:200|432:116,2,160
336,304,21567,5,8
176,304,22226,1,8
100,276,22556,2,0,B|100:232|80:200,3,80,0|10|2|0
20,136,23875,6,0,B|64:104|128:116|160:164|160:164|240:148,1,240,4|8
272,224,25193,2,0,B|351:208|351:208|383:256|447:268|491:236,1,240,2|8
432,172,26512,1,2
296,80,27171,5,2
292,88,27501,1,8
288,96,27831,2,0,B|252:36|176:32|116:72|120:144,1,240,2|0
208,140,29149,6,0,B|240:184|236:248|188:284,2,160,4|2|2
64,212,31128,2,0,B|144:204,1,80,2|8
208,140,31787,6,0,B|244:164|308:164|324:140|340:116|404:116|440:140,1,240,2|8
387,212,33106,2,0,B|347:252|351:316|399:352,1,160,2|2
452,280,34095,1,4
452,280,34424,6,0,B|368:260|332:288|296:320|216:296,1,240,4|8
132,296,35743,2,0,B|72:240|72:136|132:80,1,240,2|8
208,56,37062,1,2
324,168,37721,6,0,B|368:164|400:148,1,80,2|8
448,84,38380,2,0,B|428:244,1,160,2|2
416,320,39369,1,0
416,320,39699,5,4
336,180,40358,2,0,B|256:160|256:204|172:180,2,160,2|2|2
404,136,42007,1,8
256,192,42336,12,4,44974
88,116,45633,6,0,B|208:128,1,120,2|2
408,188,47611,5,2
412,192,48270,2,0,B|292:204,1,120,2|0
96,296,50248,5,4
92,300,50907,2,0,B|212:312,1,120,2|2
256,88,52886,5,2
256,88,53545,2,0,B|236:148|276:148|256:208,1,120,2|0
256,192,54204,12,4,55523
256,192,60798,5,4
100,312,63435,5,4
252,260,64095,1,4
132,156,64754,1,4
256,192,64836,12,4,66073
472,136,68710,6,0,B|400:140|408:216|408:216|344:180|272:184|220:224|216:284,1,359.999989271164
112,344,71347,6,0,B|116:280|48:260|48:260|112:204|68:152|68:152|128:120|92:44,1,359.999989271164,0|0
196,96,73985,6,0,B|180:128|188:164|208:192|252:196|292:180|304:148|300:112|276:84,1,239.999992847443,0|0
424,136,75963,5,0
408,216,76292,1,0
392,296,76622,6,0,B|232:312,2,160,4|2|2
256,200,78600,1,2
116,280,79259,6,0,B|72:204|116:128,1,160,2|2
256,48,80578,2,0,B|300:124|256:200,1,160,2|2
208,264,81567,1,2
288,276,81897,6,0,B|368:252|368:296|448:276,2,160,2|2|2
408,176,83875,1,2
288,84,84534,2,0,B|228:112|208:180|228:248|288:276,1,240,2|2
336,340,85853,6,2,B|256:316|256:372|180:340,1,160,2|2
56,228,87171,6,0,B|96:168|160:176|224:168|264:228,1,240,4|8
336,196,88490,2,0,B|372:40,2,160
400,244,90139,5,8
256,312,90798,1,8
112,244,91457,1,8
176,196,91787,2,0,B|184:152|160:120,1,80,0|8
100,72,92446,6,0,B|140:132|204:124|268:132|308:72,1,240,0|8
384,44,93765,2,0,B|396:136|488:148,2,160
308,72,95413,1,8
152,44,96073,1,8
172,124,96402,6,0,B|188:204,3,80
116,236,97721,6,0,B|172:196|236:208|288:244|296:320,1,240,4|8
216,316,99040,2,0,B|224:244|276:208|340:196|396:236,1,240,2|8
472,212,100358,5,0
416,152,100688,1,8
256,116,101347,1,8
96,152,102007,1,8
40,212,102336,2,0,B|76:288,1,80,0|8
156,284,102996,6,0,B|196:356|256:340|316:356|356:284,1,240,2|8
356,208,104314,2,0,B|316:136|256:152|196:136|156:208,1,240,2|8
256,192,105633,12,4,108270
364,80,108930,6,0,B|308:164|384:228,1,160,2|0
456,244,109919,1,2
456,244,110248,2,0,B|364:204|312:280,1,160,0|2
244,316,111237,5,2
88,276,111897,1,2
196,160,112556,1,2
196,160,112886,2,0,B|240:156|280:152,1,80,2|0
352,124,113545,6,0,B|368:160|388:196,3,80,2|2|0|2
440,264,114864,2,0,B|380:296|328:260|328:260|272:220|212:260,1,240,2|0
148,304,116182,6,0,B|76:264,1,80
60,188,116842,2,0,B|68:108,1,80
148,104,117501,2,0,B|140:183,1,80
176,256,118160,6,0,B|256:228|256:280|336:256,1,160,0|4
