osu file format v9

[General]
AudioFilename: Bird Sprite -Awakening of Light-.mp3
AudioLeadIn: 1500
PreviewTime: 66073
Countdown: 0
SampleSet: Soft
StackLeniency: 0.6
Mode: 0
LetterboxInBreaks: 1

[Editor]
DistanceSpacing: 1.3
BeatDivisor: 4
GridSize: 4

[Metadata]
Title:Bird Sprite -Awakening of Light-
Artist:syatten remixed celas
Creator:Reiji-RJ
Version:Another
Source:BMS
Tags:BOF2011 Creation Records reku IceBeam lepidopodus lepidon

[Difficulty]
HPDrainRate:7
CircleSize:5
OverallDifficulty:7
ApproachRate:8
SliderMultiplier:1.6
SliderTickRate:1

[Events]
//Background and Video events
0,0,"812723.jpg"
//Break Periods
2,55723,60048
//Storyboard Layer 0 (Background)
//Storyboard Layer 1 (Fail)
//Storyboard Layer 2 (Pass)
//Storyboard Layer 3 (Foreground)
//Storyboard Sound Samples
//Background Colour Transformations
3,100,163,162,255

[TimingPoints]
139,329.67032967033,4,2,0,5,1,0
798,-100,4,2,0,10,0,0
1457,-100,4,2,0,20,0,0
2117,-100,4,2,0,30,0,0
2693,-100,4,2,0,40,0,0
3023,-100,4,1,0,30,0,0
3188,-100,4,2,0,40,0,0
3682,-100,4,1,0,30,0,0
3847,-100,4,2,0,40,0,0
4342,-100,4,1,0,30,0,0
4507,-100,4,2,0,40,0,0
5001,-100,4,1,0,30,0,0
5166,-100,4,2,0,40,0,0
5660,-100,4,1,0,30,0,0
5825,-100,4,2,0,40,0,0
6320,-100,4,1,0,30,0,0
6485,-100,4,2,0,40,0,0
6979,-100,4,1,0,30,0,0
7144,-100,4,2,0,40,0,0
7639,-100,4,1,0,30,0,0
7968,-100,4,2,0,40,0,0
8298,-100,4,1,0,30,0,0
8463,-100,4,2,0,40,0,0
8957,-100,4,1,0,30,0,0
9122,-100,4,2,0,40,0,0
9617,-100,4,1,0,30,0,0
9781,-100,4,2,0,40,0,0
10276,-100,4,1,0,30,0,0
10441,-100,4,2,0,40,0,0
10935,-100,4,1,0,30,0,0
11100,-100,4,2,0,40,0,0
11595,-100,4,1,0,30,0,0
11759,-100,4,2,0,40,0,0
11924,-100,4,1,0,35,0,0
12996,-100,4,2,0,50,0,0
13078,-100,4,1,0,35,0,0
13243,-100,4,2,1,50,0,0
13408,-100,4,2,1,40,0,0
23463,-100,4,1,0,40,0,0
23875,-100,4,2,1,60,0,0
28737,-100,4,1,0,40,0,0
29067,-100,4,2,1,60,0,0
39287,-100,4,1,0,40,0,0
39452,-100,4,2,1,60,0,0
42254,-100,4,1,0,40,0,0
44891,-100,4,2,1,60,0,0
46210,-100,4,1,0,40,0,0
46375,-100,4,2,1,60,0,0
46787,-100,4,1,0,40,0,0
47199,-100,4,2,1,60,0,0
48847,-100,4,1,0,40,0,0
49012,-100,4,2,1,60,0,0
49424,-100,4,1,0,40,0,0
49836,-100,4,2,1,60,0,0
50001,-100,4,1,0,40,0,0
50166,-100,4,2,1,60,0,0
51485,-100,4,1,0,40,0,0
51649,-100,4,2,1,60,0,0
52062,-100,4,1,0,40,0,0
52474,-100,4,2,1,60,0,0
55441,-100,4,1,1,50,0,0
55606,-100,4,2,1,60,0,0
66073,-200,4,2,0,60,0,1
66155,-200,4,2,0,20,0,1
75880,-200,4,1,0,40,0,0
76622,-133.333333333333,4,2,0,45,0,0
86018,-133.333333333333,4,2,0,50,0,0
86347,-133.333333333333,4,2,0,55,0,0
86759,-200,4,2,0,5,0,0
87171,-100,4,2,1,50,0,0
87748,-100,4,1,1,50,0,0
87913,-100,4,2,1,50,0,0
88408,-100,4,1,1,50,0,0
88573,-100,4,2,1,50,0,0
89067,-100,4,1,1,50,0,0
89232,-100,4,2,1,50,0,0
89726,-100,4,1,1,50,0,0
89891,-100,4,2,1,50,0,0
90386,-100,4,1,1,50,0,0
90551,-100,4,2,1,50,0,0
91045,-100,4,1,1,50,0,0
91210,-100,4,2,1,50,0,0
91704,-100,4,1,1,50,0,0
92034,-100,4,2,1,50,0,0
92199,-100,4,1,1,50,0,0
92529,-100,4,2,1,50,0,0
93023,-100,4,1,1,50,0,0
93188,-100,4,2,1,50,0,0
93518,-100,4,1,1,50,0,0
93847,-100,4,2,1,50,0,0
94342,-100,4,1,1,50,0,0
94507,-100,4,2,1,50,0,0
95001,-100,4,1,1,50,0,0
95166,-100,4,2,1,50,0,0
95578,-100,4,1,1,50,0,0
95660,-100,4,2,1,50,0,0
95743,-100,4,1,1,50,0,0
95825,-100,4,2,1,50,0,0
96320,-100,4,1,0,60,0,0
97639,-100,4,2,1,60,0,0
105551,-100,4,1,0,50,0,0
107858,-100,4,2,1,60,0,0
108023,-100,4,1,0,60,0,0
108270,-100,4,2,0,70,0,1
116182,-100,4,1,0,30,0,1
116265,-100,4,1,0,35,0,1
116430,-100,4,1,0,40,0,1
116595,-100,4,1,0,45,0,1
116759,-100,4,1,0,50,0,1
116924,-100,4,1,0,55,0,1
117089,-100,4,1,0,60,0,1
117254,-100,4,1,0,65,0,1
117419,-100,4,1,0,30,0,1
117666,-100,4,1,0,35,0,1
117831,-100,4,1,0,40,0,1
117996,-100,4,1,0,45,0,1
118160,-100,4,1,0,50,0,1
118325,-100,4,1,0,55,0,1
118490,-100,4,1,0,60,0,1
118737,-100,4,1,0,60,0,0
118820,-100,4,2,0,70,0,1
118902,-100,4,2,0,70,0,0

[Colours]
Combo1 : 27,137,90
Combo2 : 14,231,204
Combo3 : 18,101,184
Combo4 : 5,228,129

[HitObjects]
256,192,468,12,4,2776
156,60,3106,6,0,B|152:108|148:148,1,80,0|0
232,284,3435,2,0,B|232:240|228:196,1,80
336,104,3765,2,0,B|327:152|324:196,1,80
336,284,4095,6,0,B|380:288|428:304,1,80
180,136,4424,2,0,B|144:148|100:156,1,80
164,344,4754,2,0,B|169:296|172:256,1,80
320,64,5084,2,0,B|331:98|352:156,1,80
412,200,5413,6,0,B|408:288,1,80
324,228,5743,2,0,B|320:312,1,80
240,200,6073,2,0,B|236:288,1,80
152,240,6402,2,0,B|148:320,1,80
108,160,6732,6,0,B|100:76,1,80
204,172,7062,2,0,B|192:84,1,80
296,148,7391,2,0,B|284:64,1,80
392,160,7721,2,0,B|380:80,1,80
456,224,8051,6,0,B|376:252,1,80,4|0
288,316,8380,2,0,B|372:328,1,80
256,240,8710,2,0,B|172:224,1,80
88,320,9040,2,0,B|172:300,1,80
68,240,9369,6,0,B|52:160,1,80
148,192,9699,2,0,B|164:108,1,80
232,224,10029,2,0,B|296:168,1,80
232,316,10358,2,0,B|312:308,1,80
292,72,10688,6,0,B|268:104|272:152,1,80
296,228,11018,2,0,B|332:248|376:244,1,80
440,180,11347,2,0,B|404:156|360:164,1,80
448,344,11677,2,0,B|472:308|468:264,1,80
368,312,12007,6,0,B|288:324,1,80
172,340,12336,1,0
172,340,12419,1,0
88,252,12584,1,0
88,252,12666,1,0
148,140,12831,1,0
148,140,12913,1,0
148,140,12996,1,4
268,168,13160,1,0
288,280,13325,6,0,B|328:296|368:292,1,80,4|0
420,232,13655,2,0,B|456:156|436:72,1,160,8|0
368,40,14149,1,0
368,40,14314,2,0,B|284:48,1,80,8|0
188,124,14644,2,0,B|276:132,1,80
376,224,14974,2,0,B|208:232,1,160,8|0
76,316,15468,1,0
112,180,15633,1,8
76,316,15798,1,0
112,180,15963,6,0,B|96:140|104:96,1,80
184,152,16292,2,0,B|196:236|172:320,1,160,8|0
248,344,16787,1,0
248,344,16952,2,0,B|288:344|332:348,1,80,8|0
408,352,17281,2,0,B|448:360|488:348,1,80
416,276,17611,2,0,B|344:236|252:260,1,160,8|0
200,208,18106,1,0
116,72,18270,1,8
200,208,18435,1,0
200,208,18518,1,0
200,208,18600,6,0,B|204:124,1,80,4|0
280,92,18930,2,0,B|276:172,1,80,8|0
271,252,19259,2,0,B|268:332,1,80
348,300,19589,2,0,B|352:216,1,80,8|0
356,124,19919,5,0
432,100,20084,1,0
456,176,20248,1,8
380,200,20413,1,0
188,188,20578,5,0
164,264,20743,1,0
240,288,20908,1,8
264,212,21073,1,0
104,104,21237,6,0,B|64:116|28:136,1,80
64,208,21567,2,0,B|104:196|140:176,1,80,8|0
248,164,21897,2,0,B|228:124|232:84,1,80
300,52,22226,2,0,B|324:84|320:140,1,80,8|0
392,208,22556,2,0,B|432:220|468:240,1,80
444,304,22886,5,2
432,328,23215,1,2
432,360,23545,1,0
432,360,23628,1,0
432,360,23710,1,0
432,360,23792,1,0
432,360,23875,6,0,B|344:356,1,80,4|0
260,332,24204,2,0,B|232:252,1,80,8|0
156,228,24534,2,0,B|76:212,1,80,2|0
68,132,24864,2,0,B|148:148,1,80,8|0
224,168,25193,2,0,B|220:108|260:68|328:72,1,160,2|8
400,24,25688,1,2
404,132,25853,1,2
408,240,26018,2,0,B|351:261|299:217|311:153,1,160,0|2
300,148,26430,1,2
288,140,26512,6,0,B|204:160,1,80,0|0
168,248,26842,2,0,B|248:228,1,80,8|0
68,236,27171,2,0,B|48:160,1,80,2|0
128,156,27501,2,0,B|104:72,1,80,8|0
172,252,27831,2,0,B|232:216|296:264,1,120,2|0
296,268,28160,2,0,B|316:192,1,80,8|0
316,104,28490,1,2
448,192,28655,1,2
316,104,28820,1,0
456,40,28985,1,0
316,104,29149,6,0,B|276:108|232:96,1,80,4|0
160,72,29479,2,0,B|144:108|156:152,1,80,8|0
224,248,29809,2,0,B|240:204|228:160,1,80,2|0
72,220,30139,2,0,B|116:216|156:228,1,80,8|0
168,304,30468,2,0,B|236:332|328:320,1,160,2|8
400,348,30963,1,0
424,272,31128,6,0,B|448:236|440:188,1,80,2|0
368,168,31457,2,0,B|288:188,1,80,8|0
212,204,31787,2,0,B|164:140|184:48,1,160,2|8
88,28,32281,5,2
96,44,32364,1,0
100,60,32446,1,2
60,160,32611,1,0
120,240,32776,1,10
128,256,32858,1,0
132,272,32941,1,2
132,292,33023,1,0
128,312,33106,2,0,B|188:280|248:316,1,120,2|0
252,324,33435,2,0,B|336:312,1,80,8|0
428,336,33765,5,2
356,212,33930,1,0
200,124,34095,1,4
48,100,34259,1,0
84,192,34424,6,0,B|112:268,1,80,4|0
164,328,34754,2,0,B|208:336|252:320,1,80,8|0
320,296,35084,2,0,B|356:308|412:324,1,80,2|0
444,252,35413,2,0,B|405:238|352:224,1,80,8|0
200,252,35743,2,0,B|112:240|40:264,1,160,2|8
164,328,36237,2,0,B|208:336|252:320,1,80,2|2
284,252,36567,2,0,B|292:172|300:92,1,160,0|2
308,80,36979,1,2
320,68,37062,6,0,B|408:76,1,80,0|0
224,96,37391,2,0,B|140:88,1,80,8|0
204,188,37721,2,0,B|284:196,1,80,2|0
32,224,38051,2,0,B|112:232,1,80,8|0
84,332,38380,2,0,B|204:344,1,120,2|0
216,356,38710,1,8
324,300,38875,5,2
408,256,39040,1,2
324,208,39204,1,2
324,208,39287,1,0
324,208,39369,1,0
320,312,39534,1,0
420,260,39699,6,0,B|432:176|444:92,1,160,4|8
452,24,40193,1,0
376,52,40358,2,0,B|288:56,1,80,2|0
332,136,40688,2,0,B|248:160,1,80,8|0
348,224,41018,2,0,B|220:332,1,160,2|8
148,348,41512,1,0
68,328,41677,2,0,B|60:288|72:248,1,80,2|0
144,196,42007,2,0,B|152:240|136:284,1,80,8|0
68,172,42336,5,0
64,160,42419,1,0
60,148,42501,1,0
84,32,42666,1,0
192,72,42831,1,0
272,56,42996,2,0,B|312:44|352:36,1,80
396,100,43325,2,0,B|356:112|316:120,1,80
252,216,43655,5,0
244,316,43820,1,0
248,328,43902,1,0
252,340,43985,1,0
360,332,44149,1,0
412,272,44314,2,0,B|424:236|432:192,1,80
368,144,44644,2,0,B|356:180|348:220,1,80
364,340,44974,5,4
360,332,45056,1,0
264,224,45221,1,2
268,232,45303,1,0
200,308,45468,1,0
120,268,45633,2,0,B|68:312|4:288,2,120,2|2|0
48,200,46292,5,0
60,112,46457,1,0
140,152,46622,1,8
460,184,46869,1,0
460,184,46952,1,0
452,288,47117,1,0
360,240,47282,1,8
100,72,47611,5,2
104,80,47693,1,0
188,200,47858,1,2
192,192,47941,1,0
256,100,48106,1,2
348,144,48270,2,0,B|400:184|464:160,2,120,2|0|2
296,212,48930,6,0,B|284:292,1,80
212,328,49259,2,0,B|148:308|96:336,1,120,8|0
95,336,49589,1,0
72,228,49754,1,0
133,100,49919,1,8
156,208,50084,1,0
240,132,50248,5,4
240,132,50331,1,0
132,100,50496,1,2
132,100,50578,1,0
156,208,50743,1,0
264,244,50908,5,2
416,168,51155,1,2
268,92,51402,1,0
320,172,51567,5,0
372,252,51732,1,0
416,168,51897,2,0,B|456:116|428:52,1,120,8|0
436,44,52226,2,0,B|352:48,1,80
268,28,52556,1,8
268,28,52886,5,2
268,28,52969,1,0
180,44,53134,1,2
180,44,53216,1,0
92,60,53381,1,2
0,144,53546,5,2
176,240,53793,1,0
180,44,54040,1,2
256,192,54204,12,4,55523
256,192,60798,5,4
304,120,63435,5,4
292,280,64095,1,4
160,188,64754,1,4
256,192,64919,12,2,65743
92,68,66073,6,0,B|64:120|68:188|124:224|176:228|176:228|168:184|172:132|204:96|260:76|304:84|344:104,1,480,4|0
408,188,68380,6,0,B|408:164|432:148,2,40
412,196,68875,2,0,B|352:204|312:216|288:268|320:320|352:324|352:324|392:336|432:272|388:216|328:208|276:228|236:288|240:348,1,520
239,346,71347,6,0,B|256:276|192:260|140:332|140:332|180:208|108:188|108:188|200:168|204:104|188:52|120:40,1,560,0|0
112,112,73985,6,0,B|144:160|184:176|228:148|228:148|224:96|252:72|292:76|324:108|300:152|264:168,1,320
308,320,75963,5,0
308,320,76045,1,0
204,304,76209,1,0
204,304,76292,1,0
308,320,76457,1,0
96,336,76622,6,0,B|76:296|84:244,1,89.9999973177911,4|0
84,248,76952,2,0,B|148:240,1,59.9999982118607,2|0
168,164,77281,2,0,B|104:172,1,59.9999982118607,2|0
48,104,77611,2,0,B|107:96,1,59.9999982118607,2|0
120,88,77858,1,0
132,80,77941,2,0,B|184:108|248:92,1,119.999996423721,2|2
320,68,78435,1,0
456,28,78600,1,2
404,160,78765,1,0
404,160,78847,1,0
404,160,78930,2,0,B|407:100,1,59.9999982118607,2|0
360,224,79259,6,0,B|396:252|392:308,1,89.9999973177911,2|0
392,304,79589,2,0,B|332:328,1,59.9999982118607,2|0
264,308,79919,2,0,B|196:304,1,59.9999982118607,2|0
44,344,80248,2,0,B|136:336,1,89.9999973177911,2|0
196,316,80578,2,0,B|255:319,1,59.9999982118607,2|0
324,264,80908,1,2
324,264,80990,1,0
324,264,81073,1,0
360,196,81237,5,2
316,96,81402,1,0
216,140,81567,1,2
260,240,81732,1,0
360,196,81897,6,0,B|428:204,1,59.9999982118607,2|0
360,120,82226,2,0,B|296:124,1,59.9999982118607,2|0
216,216,82556,2,0,B|288:208,1,59.9999982118607,2|0
216,140,82886,2,0,B|152:124,1,59.9999982118607,2|0
92,96,83215,2,0,B|68:148|108:164|88:220,1,119.999996423721,2|2
96,288,83710,1,0
164,316,83875,2,0,B|208:300|260:312,1,89.9999973177911,2|0
320,340,84204,2,0,B|372:356|412:332,1,89.9999973177911,2|0
448,276,84534,6,0,B|432:228|468:208|448:156,1,119.999996423721,2|2
396,104,85029,1,0
388,112,85111,1,0
380,120,85193,2,0,B|316:120,1,59.9999982118607,2|0
224,196,85523,2,0,B|296:196,1,59.9999982118607,2|0
348,248,85853,1,2
352,252,86182,1,2
356,256,86512,1,2
360,260,86842,6,0,B|348:284|364:308|352:328,1,60
288,336,87171,6,0,B|252:348|204:344,1,80,4|0
120,276,87501,2,0,B|156:268|204:272,1,80,8|0
108,288,87831,2,0,B|100:208,1,80
192,232,88160,2,0,B|184:152,1,80,8|0
276,180,88490,2,0,B|264:12,1,160,0|8
424,8,88985,1,0
352,44,89149,1,0
420,88,89314,1,0
424,100,89397,1,0
432,112,89479,2,0,B|444:152|436:196,1,80,8|0
404,284,89809,6,0,B|368:264|320:268,1,80
349,340,90139,2,0,B|308:344|272:324,1,80,8|0
111,318,90468,2,0,B|100:280|96:240,1,80
176,271,90798,2,0,B|172:232|160:193,1,80,8|0
249,51,91128,2,0,B|288:40|328:40,1,80
228,128,91457,2,0,B|268:128|306:116,1,80,8|0
384,144,91787,5,0
316,244,91952,1,0
208,296,92117,1,8
88,312,92281,1,0
64,220,92446,6,0,B|56:132,1,80
156,216,92776,2,0,B|196:148,1,80,8|0
208,296,93106,2,0,B|280:256,1,80
308,332,93435,1,8
308,332,93600,1,0
308,332,93765,2,0,B|240:288,1,80
356,244,94095,2,0,B|312:176,1,80,8|0
452,236,94424,2,0,B|460:156,1,80
472,312,94754,1,8
472,312,94919,1,0
472,312,95084,6,0,B|432:328|388:324,1,80
320,296,95413,2,0,B|232:308,1,80,8|0
232,316,95660,1,0
224,328,95743,2,0,B|184:304|136:328,1,80
48,284,96073,2,0,B|128:252,1,80,8|0
196,224,96402,6,0,B|260:204|316:244,1,120
320,252,96732,2,0,B|352:180,1,80
428,104,97062,1,0
432,108,97226,1,0
468,212,97391,1,0
464,216,97556,1,0
392,288,97721,6,0,B|316:248,1,80,4|0
196,224,98051,2,0,B|276:196,1,80,8|2
344,164,98380,2,0,B|356:84,1,80
280,36,98710,2,0,B|268:120,1,80,8|2
192,136,99040,6,0,B|112:164,1,80,2|0
196,224,99369,2,0,B|276:196,1,80,8|2
108,252,99699,2,0,B|124:292|104:340,1,80,0|2
112,340,99946,1,0
116,352,100029,1,8
196,336,100193,1,2
332,352,100358,6,0,B|372:348|412:328,1,80,2|0
268,296,100688,2,0,B|304:277|344:273,1,80,8|2
420,248,101018,2,0,B|404:208|392:172,1,80
480,184,101347,2,0,B|467:148|452:108,1,80,8|2
372,92,101677,2,0,B|336:116|292:120,1,80,2|0
312,40,102007,2,0,B|273:43|237:67,1,80,8|2
124,92,102336,5,2
88,164,102501,1,0
144,220,102666,1,8
216,184,102831,1,2
204,104,102996,6,0,B|200:24,1,80,0|0
296,148,103325,2,0,B|292:64,1,80,8|2
392,192,103655,2,0,B|384:112,1,80,2|0
480,232,103985,1,8
400,288,104149,1,2
388,296,104232,1,0
376,304,104314,6,0,B|312:280|256:328,1,120,2|0
256,336,104644,2,0,B|196:284,1,80,8|2
128,224,104974,1,0
28,232,105139,1,0
40,248,105221,1,2
44,264,105303,1,8
112,316,105468,1,2
136,228,105633,6,0,B|120:188|116:144,1,80
360,324,105963,2,0,B|384:292|392:248,1,80
400,240,106210,1,0
400,224,106292,1,0
336,148,106457,1,0
368,48,106622,2,0,B|280:56,1,80
176,36,106952,6,0,B|204:96|152:148,1,120
140,164,107281,2,0,B|220:160,1,80
292,212,107611,1,0
304,220,107693,1,0
316,228,107776,1,0
424,264,107941,1,4
336,332,108106,1,0
316,228,108270,5,4
360,116,108435,1,2
248,72,108600,1,0
204,184,108765,1,2
108,256,108930,1,2
128,248,109012,1,0
148,248,109095,1,2
168,252,109177,1,0
184,260,109259,1,2
200,272,109342,1,0
212,288,109424,1,0
224,304,109507,1,0
228,324,109589,5,2
252,316,109671,1,0
272,304,109754,1,0
288,288,109836,1,0
304,268,109919,1,2
316,248,110001,1,0
324,224,110084,1,0
328,200,110166,1,0
328,176,110248,5,2
324,152,110331,1,0
316,128,110413,1,2
304,108,110496,1,0
288,88,110578,1,2
268,72,110660,1,0
248,60,110743,1,0
224,52,110825,1,0
200,48,110908,6,0,B|188:100,3,40,2|0|0|0
124,128,111237,2,0,B|117:88,3,40,2|0|0|0
192,160,111567,2,0,B|196:204,3,40,2|0|0|0
124,243,111897,2,0,B|128:204,3,40,2|0|2|0
176,288,112226,5,2
180,296,112309,1,0
184,304,112391,2,0,B|228:296|264:324,1,80
280,336,112639,1,2
304,344,112721,1,0
328,344,112803,1,0
352,336,112886,5,2
372,324,112968,1,0
388,308,113051,1,0
400,288,113133,1,0
404,264,113215,1,2
404,240,113298,1,0
396,216,113380,1,0
388,192,113463,1,0
388,168,113545,5,2
396,136,113628,1,0
396,104,113710,1,2
308,108,113875,1,2
304,76,113958,1,0
300,44,114040,1,2
244,180,114204,1,2
224,152,114287,1,0
216,120,114369,2,0,B|212:96|192:84,5,40,2|0|2|0|2|0
140,140,114864,5,2
140,172,114946,1,0
132,204,115029,1,0
116,232,115111,1,0
96,256,115193,6,0,B|104:308,3,40,2|0|0|0
188,320,115523,2,0,B|191:280,3,40,2|0|0|0
276,300,115853,2,0,B|288:356,3,40,2|0|0|0
368,344,116182,5,0
384,264,116347,1,0
400,184,116512,1,0
416,104,116677,1,0
312,20,116842,5,0
324,116,117007,1,0
336,212,117171,1,0
348,308,117336,1,0
256,332,117501,5,0
236,320,117584,1,0
216,308,117666,1,0
196,296,117748,1,0
176,284,117831,5,0
156,272,117913,1,0
136,260,117996,1,0
116,248,118078,1,0
96,236,118160,5,0
76,224,118243,2,0,B|56:212,4,20
44,204,118490,5,0
76,180,118573,1,0
100,148,118655,1,0
112,112,118737,1,0
112,72,118820,5,4
