osu file format v14

[General]
AudioFilename: e5.mp3
AudioLeadIn: 0
PreviewTime: 73858
Countdown: 0
SampleSet: Soft
StackLeniency: 0.7
Mode: 0
LetterboxInBreaks: 0
WidescreenStoryboard: 0

[Editor]
Bookmarks: 39602,43788
DistanceSpacing: 2
BeatDivisor: 4
GridSize: 4
TimelineZoom: 3.799999

[Metadata]
Title:installation (Short Ver.)
TitleUnicode:インストレーション (Short Ver.)
Artist:sweet ARMS
ArtistUnicode:sweet ARMS
Creator:My Angel RangE
Version:Insane
Source:デート・ア・ライブ 或守インストール
Tags:arusu ars install compile heart sting playstation visual novel date a live ii 2 shio watanabe go sakabe Dailycare Moa
BeatmapID:1007539
BeatmapSetID:471351

[Difficulty]
HPDrainRate:7
CircleSize:4
OverallDifficulty:6
ApproachRate:9
SliderMultiplier:1.4
SliderTickRate:1

[Events]
//Background and Video events
0,0,"bg2 (3).jpg",0,0
//Break Periods
//Storyboard Layer 0 (Background)
//Storyboard Layer 1 (Fail)
//Storyboard Layer 2 (Pass)
//Storyboard Layer 3 (Foreground)
//Storyboard Sound Samples

[TimingPoints]
794,279.06976744186,4,2,2,40,1,0
794,-125,4,2,2,40,0,0
9724,-111.111111111111,4,2,2,40,0,0
18654,-142.857142857143,4,2,2,40,0,0
20887,-100,4,2,2,40,0,0
29817,-100,4,2,2,50,0,0
38747,-125,4,2,2,40,0,0
56607,-111.111111111111,4,2,2,40,0,0
65538,-105.263157894737,4,2,2,40,0,0
73352,-142.857142857143,4,2,2,40,0,0
74468,-83.3333333333333,4,2,2,60,0,1
79421,-83.3333333333333,4,2,2,60,0,1
90096,-100,4,2,2,40,0,0

[Colours]
Combo1 : 0,128,255
Combo2 : 255,0,0
Combo3 : 255,255,0
Combo4 : 0,0,255

[HitObjects]
156,155,794,5,0,0:0:0:0:
162,164,3026,5,0,0:0:0:0:
168,177,5259,5,0,0:0:0:0:
175,187,7491,5,0,0:0:0:0:
181,199,8607,6,0,P|231:184|301:222,1,112
221,323,9026,2,0,L|229:267,2,56
119,268,9445,2,0,P|56:261|45:263,1,56
327,331,9724,6,0,P|387:339|441:300,1,125.999996154785,0|8,0:0|0:0,0:0:0:0:
410,148,10142,1,0,0:0:0:0:
364,238,10282,2,0,P|304:233|279:247,1,62.9999980773926
190,291,10561,2,0,P|220:299|251:295,1,62.9999980773926,8|0,0:0|0:0,0:0:0:0:
260,120,10840,6,0,P|210:150|228:205,1,125.999996154785,0|8,0:0|0:0,0:0:0:0:
327,331,11259,1,0,0:0:0:0:
217,362,11398,2,0,L|148:357,1,62.9999980773926
26,265,11677,2,0,L|89:261,1,62.9999980773926,8|0,0:0|0:0,0:0:0:0:
153,168,11956,6,0,P|139:124|181:43,1,125.999996154785,0|8,0:0|0:0,0:0:0:0:
238,121,12375,1,0,0:0:0:0:
224,277,12514,2,0,L|233:199,1,62.9999980773926
332,108,12793,2,0,L|324:170,1,62.9999980773926,8|0,0:0|0:0,0:0:0:0:
365,314,13073,6,0,B|398:338|398:338|494:327,1,125.999996154785,0|8,0:0|0:0,0:0:0:0:
358,232,13491,2,0,B|273:222|273:222|240:246,1,125.999996154785
272,378,13910,2,0,L|281:310,1,62.9999980773926,8|0,0:0|0:0,0:0:0:0:
203,277,14189,5,0,0:0:0:0:
365,314,14328,1,0,0:0:0:0:
268,216,14468,2,0,P|291:162|315:151,1,62.9999980773926,8|0,0:0|0:0,0:0:0:0:
372,103,14747,1,0,0:0:0:0:
253,94,14887,1,0,0:0:0:0:
165,27,15026,2,0,P|106:30|90:37,1,62.9999980773926,8|0,0:0|0:0,0:0:0:0:
166,113,15305,5,0,0:0:0:0:
68,95,15445,1,0,0:0:0:0:
107,179,15584,5,8,0:0:0:0:
37,246,15724,1,0,0:0:0:0:
157,272,15863,2,0,L|246:281,1,62.9999980773926
316,176,16142,2,0,L|227:185,1,62.9999980773926,8|0,0:0|0:0,0:0:0:0:
325,286,16421,6,0,P|379:271|447:307,1,125.999996154785,0|8,0:0|0:0,0:0:0:0:
341,378,16840,1,0,0:0:0:0:
222,350,16980,2,0,P|168:373|85:339,1,125.999996154785,0|8,0:0|0:0,0:0:0:0:
75,170,17398,1,0,0:0:0:0:
159,282,17538,6,0,L|160:203,1,62.9999980773926
204,62,17817,1,8,0:0:0:0:
275,199,17956,6,0,L|279:118,1,62.9999980773926
336,18,18235,1,0,0:0:0:0:
371,254,18375,6,0,L|386:187,1,62.9999980773926,8|0,0:0|0:0,0:0:0:0:
284,92,18654,6,0,B|206:62|206:62|148:79|148:79|74:58|74:58|31:96|79:177,1,342.999989532471
94,266,19770,5,0,0:0:0:0:
101,289,19839,1,0,0:0:0:0:
115,309,19909,1,0,0:0:0:0:
134,324,19979,1,0,0:0:0:0:
156,333,20049,1,0,0:0:0:0:
201,224,20189,5,0,0:0:0:0:
225,219,20258,1,0,0:0:0:0:
249,219,20328,1,0,0:0:0:0:
273,222,20398,1,0,0:0:0:0:
297,228,20468,1,0,0:0:0:0:
319,238,20537,1,0,0:0:0:0:
340,252,20607,2,0,P|356:217|347:189,1,48.9999985046387
341,68,20887,6,0,P|392:54|485:107,1,140,0|8,0:0|0:0,0:0:0:0:
392,158,21305,1,0,0:0:0:0:
255,115,21445,2,0,P|213:128|179:175,2,70,0|0|8,0:0|0:0|0:0,0:0:0:0:
241,325,21863,6,0,P|226:253|264:199,1,140
323,276,22282,1,8,0:0:0:0:
144,347,22421,2,0,B|87:355|87:355|50:348,1,70
28,210,22700,2,0,B|40:207|40:207|97:215,1,70,0|8,0:0|0:0,0:0:0:0:
174,118,22980,6,0,B|234:117|234:117|286:73|286:73|306:168,1,210,0|8,0:0|0:0,0:0:0:0:
244,214,23538,1,0,0:0:0:0:
388,138,23677,1,0,0:0:0:0:
352,250,23817,2,0,L|360:338,1,70,0|8,0:0|0:0,0:0:0:0:
469,159,24096,6,0,P|465:108|321:85,1,210,0|8,0:0|0:0,0:0:0:0:
214,56,24654,1,0,0:0:0:0:
101,115,24793,2,0,L|16:131,1,70
220,173,25073,2,0,L|305:189,1,70,8|0,0:0|0:0,0:0:0:0:
98,329,25352,6,0,B|84:274|84:274|140:174,1,140,0|8,0:0|0:0,0:0:0:0:
184,279,25770,1,0,0:0:0:0:
261,341,25910,2,0,B|318:326|356:330|356:330|409:366,1,140,0|8,0:0|0:0,0:0:0:0:
401,252,26328,6,0,P|367:188|438:76,1,210,0|8,0:0|0:0,0:0:0:0:
473,175,26887,1,0,0:0:0:0:
304,97,27026,2,0,L|234:87,2,70,0|0|8,0:0|0:0|0:0,0:0:0:0:
307,203,27445,6,0,P|300:275|345:343,1,140
386,148,27863,2,0,P|393:76|348:8,1,140,8|0,0:0|0:0,0:0:0:0:
281,17,28282,1,0,0:0:0:0:
306,96,28421,1,8,0:0:0:0:
229,151,28561,6,0,B|194:167|194:167|86:148,1,140
67,236,28980,1,8,0:0:0:0:
51,275,29119,1,2,0:0:0:0:
183,229,29259,5,8,0:0:0:0:
162,279,29398,1,2,0:0:0:0:
303,216,29538,5,8,0:0:0:0:
273,289,29677,1,2,0:0:0:0:
123,163,29817,6,0,B|131:96|131:96|197:34,1,140,0|8,0:0|0:0,0:0:0:0:
376,70,30235,1,0,0:0:0:0:
300,152,30375,2,0,P|259:187|210:124,1,140,0|8,0:0|0:0,0:0:0:0:
263,68,30793,2,0,B|321:28|321:28|392:82,1,140
428,209,31212,6,0,L|440:133,1,70,8|0,0:0|0:0,0:0:0:0:
345,225,31491,1,0,0:0:0:0:
509,208,31631,1,0,0:0:0:0:
313,141,31770,1,8,0:0:0:0:
259,340,31910,6,0,P|236:275|281:200,1,140
315,277,32328,1,8,0:0:0:0:
174,357,32468,1,0,0:0:0:0:
103,234,32607,2,0,B|90:267|90:267|100:332,2,70,0|0|8,0:0|0:0|0:0,0:0:0:0:
171,172,33026,6,0,P|142:147|46:163,1,140
95,346,33445,2,0,L|186:348,1,70,8|0,0:0|0:0,0:0:0:0:
348,282,33724,2,0,L|257:284,1,70
131,199,34003,2,0,L|222:201,1,70,8|0,0:0|0:0,0:0:0:0:
306,95,34282,6,0,P|323:54|428:68,1,140,0|8,0:0|0:0,0:0:0:0:
461,128,34700,1,0,0:0:0:0:
355,275,34840,2,0,L|364:196,2,70,0|0|8,0:0|0:0|0:0,0:0:0:0:
218,280,35259,6,0,P|148:268|161:333,1,140
290,343,35677,2,0,B|373:361,1,70,8|0,0:0|0:0,0:0:0:0:
451,227,35956,2,0,L|457:304,2,70,0|0|8,0:0|0:0|0:0,0:0:0:0:
342,243,36375,6,0,P|299:213|332:125,1,140
395,169,36793,1,8,0:0:0:0:
256,76,36933,1,0,0:0:0:0:
204,205,37073,2,0,L|193:274,2,70,0|0|8,0:0|0:0|0:0,0:0:0:0:
146,106,37491,6,0,B|113:68|67:78|67:78|54:157,1,140
114,198,37910,1,8,0:0:0:0:
194,299,38049,1,0,0:0:0:0:
58,273,38189,5,8,0:0:0:0:
269,248,38328,1,0,0:0:0:0:
202,75,38468,2,0,L|197:148,1,70,8|0,0:0|0:0,0:0:0:0:
297,146,38747,6,0,P|350:110|414:129,1,112
445,190,39166,1,0,0:0:0:0:
376,241,39305,2,0,P|323:277|259:258,1,112
192,308,39724,1,0,0:0:0:0:
218,169,39863,2,0,L|216:238,1,56
104,338,40142,2,0,L|106:269,1,56
124,131,40421,2,0,P|119:74|52:42,1,112
25,123,40840,1,0,0:0:0:0:
65,212,40980,6,0,B|144:220|144:220|188:199,1,112
321,123,41398,2,0,B|242:115|242:115|212:129,1,112
258,199,41817,1,0,0:0:0:0:
193,253,41956,2,0,P|188:327|283:326,1,168
347,357,42514,2,0,L|416:365,1,56
426,265,42793,2,0,L|488:246,1,56
337,126,43212,6,0,B|303:99|303:99|322:18,1,112
393,41,43631,1,0,0:0:0:0:
221,74,43770,2,0,P|169:89|143:83,1,56
29,42,44049,2,0,P|56:44|81:56,1,56
91,226,44328,2,0,P|75:169|128:120,1,112
168,185,44747,1,0,0:0:0:0:
255,206,44887,2,0,P|304:204|333:214,1,56
201,282,45166,2,0,P|152:284|123:274,1,56
33,288,45445,6,0,P|6:247|121:150,1,224
175,88,46142,1,0,0:0:0:0:
259,35,46282,2,0,L|338:31,1,56
438,112,46561,2,0,L|447:173,1,56
262,149,46840,2,0,L|253:210,1,56
413,150,47119,2,0,L|422:211,1,56
289,183,47398,2,0,L|280:244,1,56
440,290,47677,6,0,P|378:278|326:306,1,112
273,369,48096,1,0,0:0:0:0:
181,350,48235,2,0,L|109:357,1,56
133,259,48514,2,0,L|77:253,1,56
201,179,48793,2,0,P|215:126|86:60,1,224
125,136,49491,1,0,0:0:0:0:
295,152,49631,1,0,0:0:0:0:
203,280,49770,1,0,0:0:0:0:
296,356,49910,6,0,P|347:366|418:334,1,112
303,250,50328,2,0,P|248:240|196:259,1,112
402,262,50747,1,0,0:0:0:0:
462,188,50887,2,0,B|430:145|430:145|461:90|428:36,1,168
356,90,51445,1,0,0:0:0:0:
249,108,51584,1,0,0:0:0:0:
165,39,51724,2,0,L|90:47,2,56
172,225,52142,6,0,B|150:167|150:167|177:99,1,112
243,181,52561,1,0,0:0:0:0:
88,230,52700,2,0,P|102:281|176:305,1,112
232,286,53119,1,0,0:0:0:0:
168,104,53259,2,0,B|159:165|159:165|169:229,1,112
245,164,53677,1,0,0:0:0:0:
83,145,53817,1,0,0:0:0:0:
301,92,53956,2,0,L|377:83,2,56
158,197,54375,6,0,P|112:238|115:303,1,112
282,243,54933,2,0,P|324:208|331:154,1,112
102,130,55491,2,0,L|38:117,1,56
245,112,55770,2,0,L|309:99,1,56
394,44,56049,1,8,0:0:0:0:
412,125,56189,1,8,0:0:0:0:
431,207,56328,1,8,0:0:0:0:
449,289,56468,1,8,0:0:0:0:
438,301,56607,6,0,P|363:289|308:323,1,125.999996154785
131,344,57026,2,0,P|188:367|248:353,1,125.999996154785
207,193,57445,2,0,L|201:285,1,62.9999980773926,8|0,0:0|0:0,0:0:0:0:
305,125,57724,2,0,P|308:75|386:33,1,125.999996154785
352,226,58142,2,0,P|349:276|271:318,1,125.999996154785
214,202,58561,2,0,L|274:240,1,62.9999980773926,8|0,0:0|0:0,0:0:0:0:
86,163,58840,6,0,B|76:88|76:88|111:40,1,125.999996154785
134,244,59259,2,0,B|144:319|144:319|114:359,1,125.999996154785
176,101,59677,2,0,L|171:176,1,62.9999980773926,8|0,0:0|0:0,0:0:0:0:
278,277,59956,2,0,P|313:310|412:296,1,125.999996154785
298,165,60375,2,0,P|236:161|188:200,1,125.999996154785
382,178,60793,2,0,L|345:247,1,62.9999980773926,8|0,0:0|0:0,0:0:0:0:
293,73,61073,6,0,L|369:45,2,62.9999980773926
189,79,61491,2,0,P|132:43|68:67,1,125.999996154785
237,222,61910,2,0,L|247:147,1,62.9999980773926,8|0,0:0|0:0,0:0:0:0:
121,146,62189,2,0,L|42:153,2,62.9999980773926
154,236,62607,2,0,P|213:217|285:259,1,125.999996154785
209,365,63026,2,0,L|210:302,1,62.9999980773926,8|0,0:0|0:0,0:0:0:0:
206,147,63305,6,0,B|203:79|203:79|249:32,1,125.999996154785
396,146,63724,2,0,B|399:214|399:214|358:255,1,125.999996154785
285,119,64142,2,0,L|333:190,1,62.9999980773926,8|0,0:0|0:0,0:0:0:0:
242,230,64421,2,0,P|183:228|121:278,1,125.999996154785
208,319,64840,1,0,0:0:0:0:
302,337,64980,2,0,P|363:338|414:302,1,125.999996154785,0|8,0:0|0:0,0:0:0:0:
334,238,65398,1,0,0:0:0:0:
155,244,65538,6,0,P|100:261|23:224,1,132.999996448517
237,143,65956,2,0,P|292:126|369:163,1,132.999996448517
254,311,66375,2,0,L|251:244,1,66.4999982242585,8|0,0:0|0:0,0:0:0:0:
74,192,66654,1,0,0:0:0:0:
216,149,66793,1,0,0:0:0:0:
124,66,66933,1,0,0:0:0:0:
48,282,67073,6,0,P|109:277|156:208,1,132.999996448517
227,69,67491,2,0,L|226:143,1,66.4999982242585,8|0,0:0|0:0,0:0:0:0:
286,219,67770,1,0,0:0:0:0:
378,104,67910,1,0,0:0:0:0:
362,280,68049,1,0,0:0:0:0:
210,163,68189,2,0,P|150:170|118:237,1,132.999996448517
195,323,68607,2,0,L|209:241,1,66.4999982242585,8|0,0:0|0:0,0:0:0:0:
291,93,68887,6,0,P|321:38|401:28,1,132.999996448517
373,233,69305,2,0,B|362:154|362:154|381:93,1,132.999996448517
446,182,69724,1,8,0:0:0:0:
286,238,69863,1,0,0:0:0:0:
221,173,70003,2,0,P|161:161|85:208,1,132.999996448517
171,255,70421,1,0,0:0:0:0:
244,321,70561,2,0,P|296:333|366:287,1,132.999996448517,0|8,0:0|0:0,0:0:0:0:
286,237,70980,1,0,0:0:0:0:
293,153,71119,6,0,L|293:234,1,66.4999982242585
150,109,71398,2,0,L|123:183,1,66.4999982242585
288,64,71677,2,0,P|345:77|376:157,1,132.999996448517,0|8,0:0|0:0,0:0:0:0:
453,226,72096,1,0,0:0:0:0:
367,314,72235,6,0,L|281:331,1,66.4999982242585
106,247,72514,2,0,L|192:264,1,66.4999982242585
382,274,72793,6,0,L|296:291,1,66.4999982242585,8|0,0:0|0:0,0:0:0:0:
92,208,73072,2,0,L|178:225,1,66.4999982242585
288,151,73352,5,0,0:0:0:0:
247,259,73491,1,8,0:0:0:0:
169,81,73631,1,10,0:0:0:0:
154,95,74468,6,0,P|101:92|46:194,1,167.999994873047,0|8,0:0|0:0,0:0:0:0:
232,161,74887,1,0,0:0:0:0:
153,266,75026,2,0,L|135:173,1,83.9999974365235,0|0,0:0|0:0,0:0:0:0:
326,216,75305,2,0,L|344:123,1,83.9999974365235,8|0,0:0|0:0,0:0:0:0:
50,241,75584,6,0,P|46:301|141:362,1,167.999994873047,0|8,0:0|0:0,0:0:0:0:
247,274,76003,1,0,0:0:0:0:
150,142,76142,2,0,L|152:240,1,83.9999974365235,0|0,0:0|0:0,0:0:0:0:
306,145,76421,2,0,L|307:61,1,83.9999974365235,8|0,0:0|0:0,0:0:0:0:
366,289,76700,6,0,P|413:312|491:227,1,167.999994873047,0|8,0:0|0:0,0:0:0:0:
425,153,77119,1,0,0:0:0:0:
306,145,77259,2,0,B|251:183|251:183|231:60,1,167.999994873047,0|8,0:0|0:0,0:0:0:0:
142,154,77677,2,0,B|164:265|164:265|218:320|218:320|176:335|127:336,1,251.999992309571,0|8,0:0|0:0,0:0:0:0:
77,294,78235,1,0,0:0:0:0:
281,248,78375,2,0,B|342:253|342:253|387:268,2,83.9999974365235,0|0|8,0:0|0:0|0:0,0:0:0:0:
242,101,78793,6,0,P|208:58|88:56,1,167.999994873047
142,154,79212,2,0,P|176:197|298:187,1,167.999994873047,8|0,0:0|0:0,0:0:0:0:
401,232,79631,1,0,0:0:0:0:
403,100,79770,1,8,0:0:0:0:
289,45,79910,6,0,P|222:40|172:139,1,167.999994873047
240,203,80328,2,0,L|255:104,1,83.9999974365235,8|0,0:0|0:0,0:0:0:0:
379,32,80607,1,0,0:0:0:0:
425,141,80747,1,0,0:0:0:0:
332,193,80887,1,8,0:0:0:0:
327,303,81026,6,0,B|316:346|269:364|176:345|176:345|129:270,1,251.999992309571,0|8,0:0|0:0,0:0:0:0:
21,258,81584,1,0,0:0:0:0:
97,83,81724,2,0,L|98:174,2,83.9999974365235,0|0|8,0:0|0:0|0:0,0:0:0:0:
218,57,82142,2,0,P|267:55|224:189,1,251.999992309571,0|8,0:0|0:0,0:0:0:0:
97,166,82840,1,2,0:0:0:0:
300,274,82980,1,2,0:0:0:0:
258,54,83119,1,10,0:0:0:0:
401,26,83259,6,0,B|467:37|467:37|442:153,1,167.999994873047
375,266,83677,2,0,L|370:164,1,83.9999974365235,8|0,0:0|0:0,0:0:0:0:
482,234,83956,1,0,0:0:0:0:
243,176,84096,2,0,P|187:168|151:181,2,83.9999974365235,0|8|0,0:0|0:0|0:0,0:0:0:0:
203,284,84514,6,0,P|258:326|284:232,1,167.999994873047,0|8,0:0|0:0,0:0:0:0:
230,87,84933,1,0,0:0:0:0:
119,47,85073,2,0,B|55:59|55:59|14:100,1,83.9999974365235
138,129,85352,2,0,B|202:117|202:117|215:103,1,83.9999974365235,8|0,0:0|0:0,0:0:0:0:
71,189,85631,2,0,B|34:284|34:284|41:318|80:353,1,167.999994873047,0|8,0:0|0:0,0:0:0:0:
230,303,86049,1,0,0:0:0:0:
257,142,86189,2,0,P|187:143|157:231,1,167.999994873047,0|8,0:0|0:0,0:0:0:0:
230,303,86607,1,0,0:0:0:0:
354,179,86747,6,0,L|366:268,1,83.9999974365235
319,330,87026,2,0,P|384:343|445:272,1,167.999994873047,8|0,0:0|0:0,0:0:0:0:
447,188,87445,1,0,0:0:0:0:
371,91,87584,1,8,0:0:0:0:
258,135,87724,6,0,B|207:153|207:153|73:107,1,167.999994873047
264,46,88142,2,0,B|371:9|371:9|422:27,1,167.999994873047,8|0,0:0|0:0,0:0:0:0:
333,186,88561,2,0,L|353:78,1,83.9999974365235,0|8,0:0|0:0,0:0:0:0:
177,86,88840,2,0,P|117:126|22:76,1,167.999994873047
28,195,89259,2,0,L|17:289,2,83.9999974365235,8|0|0,0:0|0:0|0:0,0:0:0:0:
239,236,89817,2,0,B|226:213|226:213|252:162,1,83.9999974365235,8|0,0:0|0:0,0:0:0:0:
284,319,90096,6,0,P|226:333|156:262,1,140,0|8,0:0|0:0,0:0:0:0:
312,176,90654,2,0,P|365:133|431:145,1,140,0|8,0:0|0:0,0:0:0:0:
392,341,91073,2,0,B|410:287|410:287|386:208,1,140
233,259,91491,2,0,L|317:267,1,70,8|0,0:0|0:0,0:0:0:0:
163,180,91770,2,0,L|79:188,2,70,0|0|8,0:0|0:0|0:0,0:0:0:0:
214,91,92189,6,0,P|251:58|314:161,1,210,0|8,0:0|0:0,0:0:0:0:
320,247,92747,1,0,0:0:0:0:
273,332,92887,1,0,0:0:0:0:
179,351,93026,2,0,L|88:360,1,70,0|8,0:0|0:0,0:0:0:0:
63,260,93305,6,0,P|45:198|115:135,1,140
230,226,93724,2,0,L|137:215,1,70,8|0,0:0|0:0,0:0:0:0:
318,147,94003,2,0,L|411:136,1,70
190,101,94282,2,0,L|97:90,1,70,8|0,0:0|0:0,0:0:0:0:
371,53,94561,6,0,B|402:28|402:28|433:144,1,140,0|8,0:0|0:0,0:0:0:0:
391,213,94980,1,0,0:0:0:0:
311,347,95119,2,0,P|282:289|328:216,1,140,0|8,0:0|0:0,0:0:0:0:
483,297,95538,6,0,B|421:263|421:263|332:294,1,140
144,336,95956,2,0,L|239:342,1,70,8|0,0:0|0:0,0:0:0:0:
303,237,96235,2,0,L|315:164,1,70
248,73,96514,1,8,0:0:0:0:
161,150,96654,6,0,B|116:222|116:222|77:154,1,140
206,220,97073,2,0,B|182:258|182:258|166:295,1,70,8|0,0:0|0:0,0:0:0:0:
314,124,97352,2,0,P|331:65|267:-7,1,140,0|8,0:0|0:0,0:0:0:0:
86,85,97770,2,0,B|178:99|178:99|253:79,1,140
234,174,98189,1,8,0:0:0:0:
146,213,98328,1,2,0:0:0:0:
323,244,98468,5,8,0:0:0:0:
461,260,98607,1,2,0:0:0:0:
244,316,98747,5,8,0:0:0:0:
105,244,98887,2,0,L|198:259,1,70,2|0,0:0|0:0,0:0:0:0:
