osu file format v13

[General]
AudioFilename: 01 Trust in you.mp3
AudioLeadIn: 0
PreviewTime: 68053
Countdown: 0
SampleSet: Normal
StackLeniency: 0.7
Mode: 3
LetterboxInBreaks: 1
SpecialStyle: 0
WidescreenStoryboard: 1

[Editor]
DistanceSpacing: 1
BeatDivisor: 4
GridSize: 8
TimelineZoom: 3.599999

[Metadata]
Title:Trust in you
TitleUnicode:Trust in you
Artist:sweet ARMS
ArtistUnicode:sweet ARMS
Creator:Theeph-
Version:
Source:Date A Live
Tags:date a live 2
BeatmapID:443515
BeatmapSetID:185533

[Difficulty]
HPDrainRate:8
CircleSize:7
OverallDifficulty:7
ApproachRate:5
SliderMultiplier:1.6
SliderTickRate:1

[Events]
//Background and Video events
0,0,"osu.png",0,0
//Break Periods
//Storyboard Layer 0 (Background)
//Storyboard Layer 1 (Fail)
//Storyboard Layer 2 (Pass)
//Storyboard Layer 3 (Foreground)
//Storyboard Sound Samples
//Background Colour Transformations
3,100,163,162,255

[TimingPoints]
790,315.789473684211,4,1,0,5,1,0
15947,-100,4,1,0,46,0,0
22895,-100,4,1,0,5,0,0
24790,-100,4,1,0,45,0,0
26053,-100,4,1,0,65,0,0
38053,-100,4,1,0,45,0,0
38684,-100,4,1,0,85,0,0

[HitObjects]
182,192,790,5,0,0:0:0:6:
109,192,947,1,0,0:0:0:6:
36,192,1105,1,0,0:0:0:6:
182,192,1263,1,0,0:0:0:6:
109,192,1421,1,0,0:0:0:6:
182,192,1579,1,0,0:0:0:6:
36,192,1737,1,0,0:0:0:6:
182,192,1895,1,0,0:0:0:6:
36,192,2053,1,0,0:0:0:6:
182,192,2211,1,0,0:0:0:6:
109,192,2368,1,0,0:0:0:6:
182,192,2526,1,0,0:0:0:6:
36,192,2684,1,0,0:0:0:6:
109,192,2842,1,0,0:0:0:6:
182,192,3000,1,0,0:0:0:6:
256,192,3316,1,0,0:0:0:6:
182,192,3474,1,0,0:0:0:6:
109,192,3632,1,0,0:0:0:6:
182,192,3790,1,0,0:0:0:6:
109,192,3947,1,0,0:0:0:6:
256,192,4105,1,0,0:0:0:6:
109,192,4263,1,0,0:0:0:6:
182,192,4421,1,0,0:0:0:6:
109,192,4579,1,0,0:0:0:6:
256,192,4737,1,0,0:0:0:6:
109,192,4895,1,0,0:0:0:6:
182,192,5053,1,0,0:0:0:6:
109,192,5211,1,0,0:0:0:6:
109,192,5368,1,0,0:0:0:6:
256,192,5526,1,0,0:0:0:6:
329,192,5842,1,0,0:0:0:6:
182,192,6000,1,0,0:0:0:6:
182,192,6158,1,0,0:0:0:6:
256,192,6316,1,0,0:0:0:6:
329,192,6474,1,0,0:0:0:6:
182,192,6632,1,0,0:0:0:6:
329,192,6790,1,0,0:0:0:6:
256,192,6947,1,0,0:0:0:6:
182,192,7105,1,0,0:0:0:6:
329,192,7263,1,0,0:0:0:6:
182,192,7421,1,0,0:0:0:6:
256,192,7579,1,0,0:0:0:6:
182,192,7737,1,0,0:0:0:6:
256,192,7895,1,0,0:0:0:6:
329,192,8053,1,0,0:0:0:6:
402,192,8368,1,0,0:0:0:6:
256,192,8526,1,0,0:0:0:6:
402,192,8684,1,0,0:0:0:6:
329,192,8842,1,0,0:0:0:6:
256,192,9000,1,0,0:0:0:6:
402,192,9158,1,0,0:0:0:6:
256,192,9316,1,0,0:0:0:6:
402,192,9474,1,0,0:0:0:6:
329,192,9632,1,0,0:0:0:6:
402,192,9790,1,0,0:0:0:6:
256,192,9947,1,0,0:0:0:6:
402,192,10105,1,0,0:0:0:6:
329,192,10263,1,0,0:0:0:6:
329,192,10421,1,0,0:0:0:6:
402,192,10579,1,0,0:0:0:6:
475,192,10895,1,0,0:0:0:6:
402,192,11053,1,0,0:0:0:6:
329,192,11211,1,0,0:0:0:6:
475,192,11368,1,0,0:0:0:6:
402,192,11526,1,0,0:0:0:6:
475,192,11684,1,0,0:0:0:6:
329,192,11842,1,0,0:0:0:6:
475,192,12000,1,0,0:0:0:6:
329,192,12158,1,0,0:0:0:6:
402,192,12316,1,0,0:0:0:6:
329,192,12474,1,0,0:0:0:6:
475,192,12632,1,0,0:0:0:6:
329,192,12790,1,0,0:0:0:6:
402,192,12947,1,0,0:0:0:6:
475,192,13105,1,0,0:0:0:6:
182,192,13421,1,0,0:0:0:3:
475,192,13421,1,0,0:0:0:3:
329,192,13579,1,0,0:0:0:3:
36,192,13579,1,0,0:0:0:3:
109,192,13737,1,0,0:0:0:3:
402,192,13737,1,0,0:0:0:3:
256,192,13895,1,0,0:0:0:3:
475,192,13895,1,0,0:0:0:3:
329,192,14053,1,0,0:0:0:3:
36,192,14053,1,0,0:0:0:3:
182,192,14211,1,0,0:0:0:3:
402,192,14211,1,0,0:0:0:3:
256,192,14368,1,0,0:0:0:3:
475,192,14368,1,0,0:0:0:3:
109,192,14526,1,0,0:0:0:3:
329,192,14526,1,0,0:0:0:3:
182,192,14684,1,0,0:0:0:3:
402,192,14684,1,0,0:0:0:3:
475,192,14842,128,0,15947:0:0:0:6:
329,192,15000,128,0,15947:0:0:0:6:
182,192,15158,128,0,15947:0:0:0:6:
36,192,15316,128,0,15947:0:0:0:6:
109,192,15474,128,0,15947:0:0:0:0:
402,192,15632,128,0,15947:0:0:0:0:
256,192,15947,1,0,0:0:0:61:
36,192,16579,1,0,0:0:0:10:
109,192,16579,1,0,0:0:0:10:
182,192,16579,1,0,0:0:0:10:
329,192,16579,1,0,0:0:0:10:
402,192,16579,1,0,0:0:0:10:
475,192,16579,1,0,0:0:0:10:
36,192,17053,1,0,0:0:0:10:
109,192,17053,1,0,0:0:0:10:
182,192,17053,1,0,0:0:0:10:
329,192,17053,1,0,0:0:0:10:
402,192,17053,1,0,0:0:0:10:
475,192,17053,1,0,0:0:0:10:
256,192,17842,1,0,0:0:0:20:
182,192,17842,1,0,0:0:0:20:
329,192,17842,1,0,0:0:0:20:
256,192,18158,1,0,0:0:0:20:
109,192,18158,1,0,0:0:0:20:
402,192,18158,1,0,0:0:0:20:
256,192,18474,1,0,0:0:0:12:
109,192,18474,1,0,0:0:0:12:
402,192,18474,1,0,0:0:0:12:
475,192,18474,1,0,0:0:0:12:
36,192,18474,1,0,0:0:0:12:
256,192,19105,1,0,0:0:0:20:
36,192,19105,1,0,0:0:0:20:
475,192,19105,1,0,0:0:0:20:
109,192,19421,1,0,0:0:0:20:
402,192,19421,1,0,0:0:0:20:
256,192,19421,1,0,0:0:0:20:
329,192,19737,1,0,0:0:0:12:
256,192,19737,1,0,0:0:0:12:
182,192,19737,1,0,0:0:0:12:
36,192,19737,1,0,0:0:0:12:
475,192,19737,1,0,0:0:0:12:
36,192,20211,1,0,0:0:0:61:
109,192,20368,1,0,0:0:0:61:
36,192,20526,1,0,0:0:0:30:
182,192,20526,1,0,0:0:0:30:
109,192,20684,1,0,0:0:0:61:
36,192,20842,1,0,0:0:0:61:
182,192,21000,1,0,0:0:0:20:
256,192,21000,1,0,0:0:0:20:
329,192,21000,1,0,0:0:0:20:
109,192,21632,1,0,0:0:0:61:
182,192,21790,1,0,0:0:0:61:
329,192,21947,1,0,0:0:0:61:
402,192,22105,1,0,0:0:0:15:
182,192,22105,1,0,0:0:0:15:
256,192,22105,1,0,0:0:0:15:
475,192,22105,1,0,0:0:0:15:
109,192,22263,1,0,0:0:0:61:
256,192,22500,1,0,0:0:0:61:
329,192,22658,1,0,0:0:0:61:
402,192,22816,1,0,0:0:0:61:
36,192,22895,128,0,23842:0:0:0:6:
475,192,22974,1,0,0:0:0:6:
475,192,23132,1,0,0:0:0:6:
109,192,23211,128,0,23842:0:0:0:6:
475,192,23290,1,0,0:0:0:6:
182,192,23526,128,0,23842:0:0:0:2:
402,192,23526,1,0,0:0:0:2:
475,192,23526,1,0,0:0:0:2:
475,192,24158,128,0,25421:0:0:0:3:
109,192,24158,1,0,0:0:0:3:
36,192,24316,1,0,0:0:0:6:
402,192,24474,128,0,25421:0:0:0:3:
109,192,24474,1,0,0:0:0:3:
329,192,24790,128,0,25421:0:0:0:20:
256,192,24790,1,0,0:0:0:20:
182,192,24790,1,0,0:0:0:20:
182,192,25105,1,0,0:0:0:30:
109,192,25105,1,0,0:0:0:30:
109,192,25421,1,0,0:0:0:30:
36,192,25421,1,0,0:0:0:30:
36,192,25737,1,0,0:0:0:20:
109,192,25737,1,0,0:0:0:20:
182,192,25737,1,0,0:0:0:20:
36,192,26053,1,0,0:0:0:28:
109,192,26053,1,0,0:0:0:28:
182,192,26053,1,0,0:0:0:28:
109,192,26211,1,0,0:0:0:43:
256,192,26211,1,0,0:0:0:43:
182,192,26368,1,0,0:0:0:43:
475,192,26368,1,0,0:0:0:43:
256,192,26526,1,0,0:0:0:86:
182,192,26684,1,0,0:0:0:28:
329,192,26684,1,0,0:0:0:28:
36,192,26684,1,0,0:0:0:28:
402,192,26842,1,0,0:0:0:86:
475,192,27000,1,0,0:0:0:86:
402,192,27158,1,0,0:0:0:28:
256,192,27158,1,0,0:0:0:28:
36,192,27158,128,0,27947:0:0:0:28:
475,192,27632,1,0,0:0:0:43:
256,192,27632,1,0,0:0:0:43:
109,192,27947,128,0,28263:0:0:0:43:
182,192,27947,1,0,0:0:0:43:
182,192,28263,128,0,28579:0:0:0:28:
475,192,28263,1,0,0:0:0:28:
329,192,28263,1,0,0:0:0:28:
402,192,28579,128,0,29211:0:0:0:43:
36,192,28579,1,0,0:0:0:43:
475,192,28895,1,0,0:0:0:43:
256,192,28895,1,0,0:0:0:43:
182,192,29211,128,0,29526:0:0:0:43:
36,192,29211,1,0,0:0:0:43:
109,192,29526,128,0,29842:0:0:0:28:
475,192,29526,1,0,0:0:0:28:
329,192,29526,1,0,0:0:0:28:
36,192,29842,128,0,31105:0:0:0:43:
182,192,29842,1,0,0:0:0:43:
475,192,30158,1,0,0:0:0:43:
256,192,30158,1,0,0:0:0:43:
109,192,30474,1,0,0:0:0:86:
329,192,30790,1,0,0:0:0:43:
475,192,30790,1,0,0:0:0:43:
329,192,31105,1,0,0:0:0:28:
402,192,31105,1,0,0:0:0:28:
475,192,31105,1,0,0:0:0:28:
256,192,31263,1,0,0:0:0:43:
402,192,31263,1,0,0:0:0:43:
329,192,31421,1,0,0:0:0:86:
256,192,31578,1,0,0:0:0:86:
329,192,31737,1,0,0:0:0:43:
182,192,31737,1,0,0:0:0:43:
109,192,31895,1,0,0:0:0:86:
36,192,32053,1,0,0:0:0:28:
182,192,32053,1,0,0:0:0:28:
329,192,32053,128,0,33000:0:0:0:28:
475,192,32684,1,0,0:0:0:86:
36,192,33000,1,0,0:0:0:43:
402,192,33000,128,0,33316:0:0:0:43:
475,192,33316,1,0,0:0:0:43:
109,192,33316,128,0,33632:0:0:0:43:
182,192,33632,128,0,34263:0:0:0:43:
36,192,33632,1,0,0:0:0:43:
475,192,33947,5,0,0:0:0:86:
36,192,34263,128,0,34579:0:0:0:43:
109,192,34263,1,0,0:0:0:43:
256,192,34579,128,0,34895:0:0:0:43:
475,192,34579,1,0,0:0:0:43:
475,192,34895,128,0,35211:0:0:0:43:
36,192,34895,1,0,0:0:0:43:
182,192,34974,1,0,0:0:0:86:
402,192,35211,128,0,35526:0:0:0:86:
109,192,35368,1,0,0:0:0:86:
182,192,35447,1,0,0:0:0:86:
329,192,35526,128,0,35842:0:0:0:86:
256,192,35842,128,0,36158:0:0:0:43:
36,192,35842,1,0,0:0:0:43:
109,192,35921,1,0,0:0:0:86:
36,192,36158,1,0,0:0:0:21:
109,192,36158,1,0,0:0:0:21:
402,192,36158,1,0,0:0:0:21:
475,192,36158,1,0,0:0:0:21:
36,192,36316,1,0,0:0:0:21:
109,192,36316,1,0,0:0:0:21:
402,192,36316,1,0,0:0:0:21:
475,192,36316,1,0,0:0:0:21:
475,192,36474,1,0,0:0:0:21:
402,192,36474,1,0,0:0:0:21:
36,192,36474,1,0,0:0:0:21:
109,192,36474,1,0,0:0:0:21:
329,192,36790,1,0,0:0:0:43:
182,192,36790,1,0,0:0:0:43:
182,192,36947,5,0,0:0:0:43:
329,192,36947,1,0,0:0:0:43:
256,192,37263,5,0,0:0:0:28:
329,192,37263,1,0,0:0:0:28:
182,192,37263,1,0,0:0:0:28:
402,192,37579,1,0,0:0:0:43:
329,192,37579,1,0,0:0:0:43:
109,192,37737,1,0,0:0:0:43:
182,192,37737,1,0,0:0:0:43:
475,192,38053,128,0,38684:0:0:0:60:
402,192,38132,128,0,38684:0:0:0:60:
329,192,38211,128,0,38684:0:0:0:60:
256,192,38290,128,0,38684:0:0:0:60:
182,192,38368,128,0,38684:0:0:0:60:
109,192,38447,128,0,38684:0:0:0:60:
36,192,38684,1,0,0:0:0:113:
36,192,38842,1,0,0:0:0:113:
182,192,39000,1,0,0:0:0:56:
36,192,39000,1,0,0:0:0:56:
256,192,39158,1,0,0:0:0:113:
329,192,39316,1,0,0:0:0:56:
36,192,39316,1,0,0:0:0:56:
256,192,39474,1,0,0:0:0:113:
182,192,39632,1,0,0:0:0:56:
36,192,39632,1,0,0:0:0:56:
109,192,39790,1,0,0:0:0:113:
36,192,39947,1,0,0:0:0:56:
182,192,39947,1,0,0:0:0:56:
402,192,39947,1,0,0:0:0:0:
329,192,39947,1,0,0:0:0:0:
109,192,40105,1,0,0:0:0:113:
182,192,40263,1,0,0:0:0:56:
36,192,40263,1,0,0:0:0:56:
256,192,40421,1,0,0:0:0:113:
109,192,40579,1,0,0:0:0:56:
36,192,40579,1,0,0:0:0:56:
182,192,40737,1,0,0:0:0:113:
256,192,40895,1,0,0:0:0:56:
36,192,40895,1,0,0:0:0:56:
329,192,41053,1,0,0:0:0:113:
402,192,41211,1,0,0:0:0:37:
256,192,41211,1,0,0:0:0:37:
36,192,41211,1,0,0:0:0:37:
109,192,41211,1,0,0:0:0:0:
329,192,41368,1,0,0:0:0:113:
402,192,41526,1,0,0:0:0:37:
256,192,41526,1,0,0:0:0:37:
36,192,41526,1,0,0:0:0:37:
182,192,41684,1,0,0:0:0:113:
402,192,41842,1,0,0:0:0:56:
36,192,41842,1,0,0:0:0:56:
329,192,42000,1,0,0:0:0:113:
256,192,42158,1,0,0:0:0:56:
36,192,42158,1,0,0:0:0:56:
182,192,42316,1,0,0:0:0:113:
109,192,42474,1,0,0:0:0:37:
256,192,42474,1,0,0:0:0:37:
36,192,42474,1,0,0:0:0:37:
402,192,42474,1,0,0:0:0:0:
182,192,42632,1,0,0:0:0:113:
36,192,42790,1,0,0:0:0:37:
109,192,42790,1,0,0:0:0:37:
256,192,42790,1,0,0:0:0:37:
329,192,42947,1,0,0:0:0:113:
36,192,43105,1,0,0:0:0:56:
402,192,43105,1,0,0:0:0:56:
109,192,43263,1,0,0:0:0:113:
36,192,43421,1,0,0:0:0:56:
182,192,43421,1,0,0:0:0:56:
256,192,43579,1,0,0:0:0:113:
36,192,43737,1,0,0:0:0:37:
329,192,43737,1,0,0:0:0:37:
475,192,43737,128,0,44211:0:0:0:37:
109,192,43737,1,0,0:0:0:0:
402,192,43895,1,0,0:0:0:113:
36,192,44053,1,0,0:0:0:56:
329,192,44053,1,0,0:0:0:56:
256,192,44211,1,0,0:0:0:56:
402,192,44211,128,0,44684:0:0:0:56:
36,192,44368,1,0,0:0:0:56:
182,192,44368,1,0,0:0:0:56:
256,192,44526,1,0,0:0:0:113:
36,192,44684,1,0,0:0:0:37:
329,192,44684,128,0,45237:0:0:0:37:
182,192,44684,1,0,0:0:0:37:
109,192,44842,1,0,0:0:0:113:
36,192,45000,1,0,0:0:0:37:
475,192,45000,128,0,45474:0:0:0:37:
182,192,45000,1,0,0:0:0:37:
256,192,45158,1,0,0:0:0:113:
36,192,45316,1,0,0:0:0:56:
109,192,45316,1,0,0:0:0:56:
402,192,45474,128,0,45947:0:0:0:56:
182,192,45474,1,0,0:0:0:56:
36,192,45632,1,0,0:0:0:56:
256,192,45632,1,0,0:0:0:56:
329,192,45790,1,0,0:0:0:113:
36,192,45947,1,0,0:0:0:37:
329,192,45947,128,0,46579:0:0:0:37:
475,192,45947,1,0,0:0:0:37:
402,192,46105,1,0,0:0:0:113:
36,192,46263,1,0,0:0:0:37:
475,192,46263,1,0,0:0:0:37:
256,192,46263,1,0,0:0:0:37:
182,192,46421,1,0,0:0:0:113:
36,192,46579,1,0,0:0:0:37:
256,192,46579,1,0,0:0:0:37:
475,192,46579,1,0,0:0:0:37:
402,192,46737,1,0,0:0:0:113:
36,192,46895,1,0,0:0:0:28:
475,192,46895,1,0,0:0:0:28:
402,192,46895,1,0,0:0:0:28:
329,192,46895,1,0,0:0:0:28:
256,192,47053,1,0,0:0:0:113:
36,192,47211,1,0,0:0:0:28:
475,192,47211,1,0,0:0:0:28:
402,192,47211,1,0,0:0:0:28:
182,192,47211,1,0,0:0:0:28:
109,192,47368,1,0,0:0:0:56:
256,192,47368,1,0,0:0:0:56:
36,192,47526,1,0,0:0:0:37:
475,192,47526,1,0,0:0:0:37:
329,192,47526,1,0,0:0:0:37:
182,192,47526,1,0,0:0:0:0:
182,192,47684,1,0,0:0:0:113:
36,192,47842,1,0,0:0:0:37:
402,192,47842,1,0,0:0:0:37:
256,192,47842,1,0,0:0:0:37:
475,192,48000,1,0,0:0:0:56:
402,192,48000,1,0,0:0:0:56:
36,192,48158,1,0,0:0:0:56:
256,192,48158,1,8,0:0:0:56:
475,192,48316,1,0,0:0:0:56:
329,192,48316,1,0,0:0:0:56:
402,192,48474,1,0,0:0:0:37:
36,192,48474,128,0,48790:0:0:0:37:
182,192,48474,128,0,48790:0:0:0:37:
475,192,48790,1,0,0:0:0:56:
109,192,48790,1,0,0:0:0:56:
402,192,48790,1,0,0:0:0:0:
36,192,48947,1,0,0:0:0:37:
109,192,48947,1,0,0:0:0:37:
182,192,48947,1,0,0:0:0:37:
475,192,49105,1,0,0:0:0:113:
36,192,49105,1,0,0:0:0:0:
182,192,49263,1,0,0:0:0:0:
475,192,49421,1,0,0:0:0:113:
36,192,49421,1,0,0:0:0:0:
256,192,49579,1,0,0:0:0:0:
109,192,49737,1,0,0:0:0:0:
475,192,49737,1,0,0:0:0:113:
256,192,49895,1,0,0:0:0:0:
182,192,50053,1,0,0:0:0:0:
475,192,50053,1,0,0:0:0:113:
402,192,50053,1,0,0:0:0:0:
36,192,50211,1,0,0:0:0:0:
475,192,50368,1,0,0:0:0:113:
256,192,50368,1,0,0:0:0:0:
109,192,50526,1,0,0:0:0:0:
475,192,50684,1,0,0:0:0:113:
329,192,50684,1,0,0:0:0:0:
182,192,50842,1,0,0:0:0:0:
475,192,51000,1,0,0:0:0:0:
402,192,51000,1,0,0:0:0:0:
256,192,51158,1,0,0:0:0:0:
329,192,51316,1,0,0:0:0:0:
475,192,51316,1,0,0:0:0:0:
109,192,51316,1,0,0:0:0:0:
182,192,51474,1,0,0:0:0:0:
475,192,51632,1,0,0:0:0:0:
256,192,51632,1,0,0:0:0:0:
109,192,51790,1,0,0:0:0:0:
475,192,51947,1,0,0:0:0:0:
402,192,51947,1,0,0:0:0:0:
256,192,52105,1,0,0:0:0:0:
475,192,52263,1,0,0:0:0:0:
329,192,52263,1,0,0:0:0:0:
182,192,52421,1,0,0:0:0:0:
475,192,52579,1,0,0:0:0:0:
402,192,52579,1,0,0:0:0:0:
36,192,52579,1,0,0:0:0:0:
182,192,52579,1,0,0:0:0:0:
256,192,52737,1,0,0:0:0:0:
475,192,52895,1,0,0:0:0:0:
329,192,52895,1,0,0:0:0:0:
182,192,53053,1,0,0:0:0:0:
475,192,53211,1,0,0:0:0:0:
256,192,53211,1,0,0:0:0:0:
109,192,53368,1,0,0:0:0:0:
475,192,53526,1,0,0:0:0:0:
182,192,53526,1,0,0:0:0:0:
36,192,53684,1,0,0:0:0:0:
475,192,53842,1,0,0:0:0:0:
36,192,53842,128,0,54316:0:0:0:0:
256,192,53842,1,0,0:0:0:0:
402,192,54000,1,0,0:0:0:0:
329,192,54158,1,0,0:0:0:0:
475,192,54316,1,0,0:0:0:0:
109,192,54316,128,0,54790:0:0:0:0:
402,192,54316,1,0,0:0:0:0:
256,192,54474,1,0,0:0:0:0:
402,192,54632,1,0,0:0:0:0:
475,192,54790,1,0,0:0:0:0:
182,192,54790,128,0,56053:0:0:0:0:
36,192,54790,128,0,55105:0:0:0:0:
329,192,54790,1,0,0:0:0:0:
402,192,54947,1,0,0:0:0:0:
109,192,55105,128,0,55421:0:0:0:0:
256,192,55105,1,0,0:0:0:0:
475,192,55105,1,0,0:0:0:0:
402,192,55263,1,0,0:0:0:0:
36,192,55421,128,0,55737:0:0:0:0:
329,192,55421,1,0,0:0:0:0:
475,192,55421,1,0,0:0:0:0:
402,192,55579,1,0,0:0:0:0:
109,192,55737,128,0,56053:0:0:0:0:
256,192,55737,1,0,0:0:0:0:
475,192,55737,1,0,0:0:0:0:
402,192,55895,1,0,0:0:0:0:
329,192,56053,1,0,0:0:0:0:
475,192,56053,1,0,0:0:0:0:
