osu file format v12

[General]
AudioFilename: Trust in you (TV Size).mp3
AudioLeadIn: 0
PreviewTime: 67691
Countdown: 0
SampleSet: Soft
StackLeniency: 0.7
Mode: 0
LetterboxInBreaks: 0
WidescreenStoryboard: 1

[Editor]
DistanceSpacing: 1
BeatDivisor: 4
GridSize: 8
TimelineZoom: 1

[Metadata]
Title:Trust in you (TV Size)
TitleUnicode:Trust in you (TV Size)
Artist:sweet ARMS
ArtistUnicode:sweet ARMS
Creator:wcx19911123
Version:Normal
Source:デート・ア・ライブ Ⅱ
Tags:DATE A LIVE 2 opening Fycho
BeatmapID:392032
BeatmapSetID:158932

[Difficulty]
HPDrainRate:4
CircleSize:4
OverallDifficulty:4
ApproachRate:5
SliderMultiplier:0.96
SliderTickRate:1

[Events]
//Background and Video events
0,0,"Itsuka Kotori.jpg",0,0
Video,0,"video.avi"
//Break Periods
//Storyboard Layer 0 (Background)
//Storyboard Layer 1 (Fail)
//Storyboard Layer 2 (Pass)
//Storyboard Layer 3 (Foreground)
//Storyboard Sound Samples
//Background Colour Transformations
3,100,163,162,255

[TimingPoints]
507,315.789473684211,4,2,1,60,1,0
22822,-100,4,2,1,50,0,0
23243,-100,4,2,1,60,0,0
25296,-100,4,2,1,50,0,0
25770,-100,4,2,1,70,0,0
37296,-100,4,2,2,70,0,0
37454,-100,4,2,1,70,0,0
38401,-100,4,2,1,60,0,0
45033,-100,4,2,2,60,0,0
45191,-100,4,2,1,60,0,0
63033,-100,4,2,1,65,0,0
66980,-100,4,2,1,50,0,0
67296,-100,4,2,1,65,0,0
67770,-100,4,2,1,50,0,0
68559,-100,4,2,1,75,0,1
77717,-100,4,2,1,60,0,1
78033,-100,4,2,1,50,0,1
78585,-100,4,2,1,50,0,0
78664,-100,4,2,1,75,0,1
88928,-100,4,2,1,75,0,0
90349,-100,4,2,1,60,0,0
91454,-100,4,2,1,75,0,1
97612,-100,4,2,1,75,0,0
97928,-100,4,2,1,50,0,0
100296,-100,4,2,1,5,0,0

[Colours]
Combo1 : 255,91,21
Combo2 : 134,23,255
Combo3 : 255,11,17
Combo4 : 63,255,6
Combo5 : 255,185,0
Combo6 : 191,223,255

[HitObjects]
64,160,14875,6,0,B|64:128|96:112|96:112|120:152|160:152|160:152|208:128|256:160,1,240,0|4,0:0|0:0,0:0:0:0:
268,352,16296,2,0,P|220:312|204:224,1,144,0|4,0:0|0:0,0:0:0:0:
424,144,17559,1,0,0:0:0:0:
368,64,17875,1,2,0:0:0:0:
328,152,18191,6,0,P|280:176|152:136,1,192,4|0,0:0|0:0,0:0:0:0:
104,56,19138,1,2,0:0:0:0:
64,144,19454,2,0,B|24:232|24:232|32:288,1,144,4|8,0:0|0:3,0:0:0:0:
47,313,20085,2,0,P|79:337|128:336,2,64,8|4|4,0:3|0:3|0:3,0:0:0:0:
74,285,20717,5,4,0:0:0:0:
184,120,21349,2,0,L|160:72,2,48,8|8|8,0:0|0:3|0:3,0:0:0:0:
208,152,21822,2,0,P|264:184|296:184,1,96,4|8,0:0|0:0,0:0:0:0:
416,104,22612,2,0,L|464:40,2,64,8|8|8,0:0|0:0|0:0,0:0:0:0:
392,136,23243,6,0,B|360:200|416:208|384:280,1,144,4|0,0:0|0:0,0:0:0:0:
368,312,23875,2,0,P|336:328|272:320,1,96,12|0,0:0|0:0,0:0:0:0:
192,280,24507,1,12,0:0:0:0:
176,184,24822,1,12,0:0:0:0:
96,128,25138,2,0,L|48:128,2,48,8|8|8,0:0|0:0|0:0,0:0:0:0:
184,88,25770,6,0,P|232:104|264:152,1,96,4|8,0:0|0:0,0:0:0:0:
304,224,26401,2,0,P|360:256|392:256,1,96,2|8,0:0|0:0,0:0:0:0:
424,240,26875,2,0,L|472:104,1,144,4|8,0:0|0:0,0:0:0:0:
408,32,27664,1,2,0:0:0:0:
312,16,27980,1,8,0:0:0:0:
344,104,28296,6,0,P|320:160|280:184,1,96,2|8,0:0|0:0,0:0:0:0:
200,168,28928,1,2,0:0:0:0:
128,104,29243,1,8,0:0:0:0:
104,200,29559,2,0,L|80:296,1,96,2|8,0:0|0:0,0:0:0:0:
168,328,30191,2,0,L|192:376,2,48,0|0|8,0:0|0:0|0:0,0:0:0:0:
224,248,30822,6,0,P|264:224|312:224,1,96,4|8,0:0|0:0,0:0:0:0:
400,264,31454,1,2,0:0:0:0:
464,192,31770,1,8,0:0:0:0:
464,192,31928,2,0,P|464:144|400:64,1,144,4|8,0:0|0:0,0:0:0:0:
312,56,32717,1,2,0:0:0:0:
352,144,33033,1,8,0:0:0:0:
296,224,33349,6,0,P|256:240|192:224,1,96,2|8,0:0|0:0,0:0:0:0:
136,168,33980,2,0,L|120:120,2,48,2|0|8,0:0|0:0|0:0,0:0:0:0:
112,264,34612,2,0,P|128:304|184:336,1,96,12|0,0:0|0:0,0:0:0:0:
208,340,35085,1,8,0:0:0:0:
244,340,35243,2,0,P|288:328|324:284,1,96,4|8,0:0|0:0,0:0:0:0:
304,200,35875,6,0,L|352:184,2,48,8|8|8,0:0|0:0|0:0,0:0:0:0:
208,200,36507,2,0,L|160:184,1,48,8|8,0:0|0:0,0:0:0:0:
208,104,36980,2,0,P|284:68|304:104,1,144,12|12,0:0|0:0,0:0:0:0:
256,352,38401,5,4,0:0:0:0:
176,296,38717,1,8,0:0:0:0:
88,256,39033,2,0,P|56:208|56:168,1,96,0|8,0:0|0:0,0:0:0:0:
112,96,39664,2,0,P|168:88|208:112,1,96,0|8,0:0|0:0,0:0:0:0:
256,184,40296,2,0,L|256:232,2,48,0|0|8,0:0|0:0|0:0,0:0:0:0:
310,105,40928,6,0,P|353:86|400:96,1,96,2|8,0:0|0:0,0:0:0:0:
480,144,41559,1,0,0:0:0:0:
480,240,41875,1,8,0:0:0:0:
400,288,42191,2,0,P|344:296|304:272,1,96,0|8,0:0|0:0,0:0:0:0:
256,200,42822,2,0,L|256:152,2,48,0|0|8,0:0|0:0|0:0,0:0:0:0:
201,278,43454,6,0,P|158:297|112:288,1,96,2|8,0:0|0:0,0:0:0:0:
88,256,43928,2,0,L|72:160,1,96
64,120,44401,1,8,0:0:0:0:
120,48,44717,2,0,P|176:40|248:96,1,144,2|0,0:0|0:0,0:0:0:0:
256,128,45349,2,0,L|256:184,2,48,0|0|8,0:0|0:0|0:0,0:0:0:0:
160,144,45980,5,2,0:0:0:0:
160,240,46296,1,8,0:0:0:0:
208,320,46612,2,0,L|168:352,2,48,0|0|8,0:0|0:0|0:0,0:0:0:0:
304,320,47243,2,0,L|344:352,2,48,0|0|8,0:0|0:0|0:0,0:0:0:0:
256,304,47717,2,0,L|256:200,1,96
256,168,48191,2,0,L|256:120,1,48,8|8,0:0|0:0,0:0:0:0:
256,80,48507,5,4,0:0:0:0:
348,52,48822,1,8,0:0:0:0:
440,80,49138,2,0,P|480:112|496:168,1,96,0|8,0:0|0:0,0:0:0:0:
496,192,49612,1,0,0:0:0:0:
495,231,49770,2,0,P|477:275|440:304,1,96,0|8,0:0|0:0,0:0:0:0:
400,312,50243,2,0,L|288:312,1,96
256,312,50717,1,8,0:0:0:0:
176,260,51033,5,2,0:0:0:0:
208,168,51349,1,8,0:0:0:0:
304,168,51664,2,0,L|408:168,1,96,0|8,0:0|0:0,0:0:0:0:
495,153,52296,2,0,P|477:109|440:80,1,96,2|8,0:0|0:0,0:0:0:0:
400,72,52770,2,0,L|288:72,1,96
256,72,53243,1,8,0:0:0:0:
172,28,53559,6,0,P|160:56|176:124,1,96,2|8,0:0|0:0,0:0:0:0:
200,148,54033,2,0,P|216:192|200:236,1,96
171,265,54507,2,0,P|158:310|172:356,1,96,8|0,0:0|0:0,0:0:0:0:
256,312,55138,1,8,0:0:0:0:
320,240,55454,1,0,0:0:0:0:
320,144,55770,1,8,0:0:0:0:
256,72,56085,6,0,P|200:64|160:80,1,96,2|8,0:0|0:0,0:0:0:0:
96,144,56717,1,0,0:0:0:0:
96,240,57033,1,8,0:0:0:0:
164,306,57349,2,0,P|209:321|256:312,1,96,2|8,0:0|0:0,0:0:0:0:
348,306,57980,2,0,P|303:321|256:312,1,96,8|8,0:0|0:0,0:0:0:0:
212,224,58612,6,0,L|184:168,1,48,8|8,0:0|0:0,0:0:0:0:
300,224,59085,2,0,L|328:168,1,48,8|8,0:0|0:0,0:0:0:0:
256,112,59559,2,0,L|256:56,1,48,8|12,0:0|0:0,0:0:0:0:
168,72,61138,6,0,L|136:112,1,48,8|8,0:0|0:0,0:0:0:0:
256,112,61612,2,0,L|256:160,1,48,8|8,0:0|0:0,0:0:0:0:
344,72,62085,2,0,L|376:112,1,48,8|12,0:0|0:0,0:0:0:0:
488,240,63033,1,0,0:0:0:0:
424,312,63349,1,0,0:0:0:0:
328,312,63664,6,0,P|248:280|224:176,1,192,4|8,0:0|0:0,0:0:0:0:
324,84,64770,2,0,P|348:140|308:220,1,144,4|2,0:0|0:0,0:0:0:0:
228,252,65559,1,8,0:0:0:0:
136,224,65875,1,0,0:0:0:0:
80,144,66191,6,0,P|96:88|136:56,1,96,4|8,0:0|0:0,0:0:0:0:
152,88,66664,2,0,L|224:160,1,96,4|8,0:0|0:0,0:0:0:0:
256,168,67138,1,8,0:0:0:0:
292,155,67296,2,0,L|360:88,1,96,4|8,0:0|0:0,0:0:0:0:
389,62,67770,2,0,P|421:97|432:144,1,96,8|2,0:0|0:0,0:0:0:0:
424,288,68559,6,0,P|384:288|328:240,1,96,4|0,0:0|0:0,0:0:0:0:
320,224,69033,1,8,0:0:0:0:
224,240,69349,1,2,0:0:0:0:
256,152,69664,1,8,0:0:0:0:
256,152,69822,2,0,P|240:120|184:88,1,96,4|0,0:0|0:0,0:0:0:0:
152,88,70296,1,8,0:0:0:0:
168,184,70612,2,0,P|152:232|96:272,1,96,2|8,0:0|0:0,0:0:0:0:
80,264,71085,6,0,L|224:304,1,144,4|8,0:0|0:0,0:0:0:0:
304,256,71875,2,0,L|360:272,2,48,2|2|8,0:0|0:0|0:0,0:0:0:0:
272,232,72349,2,0,P|248:184|256:128,1,96,4|0,0:0|0:0,0:0:0:0:
272,112,72822,1,8,0:0:0:0:
344,48,73138,2,0,L|304:16,2,48,2|0|8,0:0|0:0|0:0,0:0:0:0:
384,56,73612,6,0,P|368:112|408:200,1,144,4|8,0:0|0:0,0:0:0:0:
472,248,74401,2,0,L|496:200,2,48,2|2|8,0:0|0:0|0:0,0:0:0:0:
448,280,74875,2,0,P|392:312|312:296,1,144,4|8,0:0|0:0,0:0:0:0:
240,240,75664,1,2,0:0:0:0:
240,144,75980,1,8,0:0:0:0:
168,80,76296,6,0,P|120:72|72:96,1,96,4|8,0:0|0:0,0:0:0:0:
24,184,76928,2,0,L|0:232,2,48,2|0|8,0:0|0:0|0:0,0:0:0:0:
56,168,77401,2,0,P|88:168|144:208,1,96,4|8,0:0|0:0,0:0:0:0:
168,296,78033,2,0,L|144:344,2,48,8|8|8,0:0|0:0|0:0,0:0:0:0:
248,248,78664,6,0,P|296:256|336:296,1,96,4|0,0:0|0:0,0:0:0:0:
344,320,79138,1,8,0:0:0:0:
432,280,79454,1,2,0:0:0:0:
376,200,79770,1,8,0:0:0:0:
376,200,79928,2,0,P|368:144|384:104,1,96,4|0,0:0|0:0,0:0:0:0:
408,80,80401,1,8,0:0:0:0:
312,88,80717,2,0,P|264:88|216:56,1,96,2|8,0:0|0:0,0:0:0:0:
200,32,81191,6,0,L|232:176,1,144,4|8,0:0|0:0,0:0:0:0:
200,264,81980,2,0,L|216:336,2,48,2|2|8,0:0|0:0|0:0,0:0:0:0:
168,240,82454,2,0,P|128:272|56:264,1,96,4|0,0:0|0:0,0:0:0:0:
48,264,82928,1,8,0:0:0:0:
92,180,83243,2,0,L|112:136,1,48,2|0,0:0|0:0,0:0:0:0:
128,104,83559,1,8,0:0:0:0:
152,80,83717,6,0,P|192:56|296:72,1,144,4|8,0:0|0:0,0:0:0:0:
368,112,84507,2,0,L|416:88,2,48,2|2|8,0:0|0:0|0:0,0:0:0:0:
336,128,84980,2,0,P|304:168|304:264,1,144,4|8,0:0|0:0,0:0:0:0:
376,320,85770,1,2,0:0:0:0:
464,280,86085,1,8,0:0:0:0:
488,184,86401,6,0,L|392:192,1,96,12|2,0:0|0:0,0:0:0:0:
368,216,86875,2,0,L|272:224,1,96,12|0,0:0|0:0,0:0:0:0:
248,248,87349,2,0,L|152:256,1,96,12|2,0:0|0:0,0:0:0:0:
128,280,87822,2,0,L|32:288,1,96,12|0,0:0|0:0,0:0:0:0:
8,264,88296,1,8,0:0:0:0:
72,192,88612,1,8,0:0:0:0:
136,120,88928,1,4,0:0:0:0:
256,192,90349,12,4,91454,0:0:0:0:
320,248,91770,5,8,0:0:0:0:
416,240,92085,2,0,P|456:192|456:136,1,96,0|8,0:0|0:0,0:0:0:0:
456,120,92559,2,0,P|428:76|316:52,1,144,4|8,0:0|0:0,0:0:0:0:
256,80,93349,1,2,0:0:0:0:
168,48,93664,1,8,0:0:0:0:
184,144,93980,6,0,P|176:192|136:232,1,96,4|8,0:0|0:0,0:0:0:0:
56,264,94612,1,2,0:0:0:0:
136,320,94928,1,8,0:0:0:0:
224,360,95243,2,0,P|280:360|320:324,1,96,2|8,0:0|0:0,0:0:0:0:
336,244,95875,2,0,L|348:192,2,48,12|8|0,0:0|0:0|0:0,0:0:0:0:
252,288,96507,6,0,P|200:272|171:235,1,96,12|2,0:0|0:0,0:0:0:0:
131,155,97138,2,0,P|172:145|256:192,1,144,12|4,0:0|0:0,0:0:0:0:
256,192,97928,12,0,100296,0:0:0:0:
