osu file format v13

[General]
AudioFilename: Trust in you (TV Size).mp3
AudioLeadIn: 0
PreviewTime: 67770
Countdown: 0
SampleSet: Soft
StackLeniency: 0.7
Mode: 3
LetterboxInBreaks: 0
SpecialStyle: 0
WidescreenStoryboard: 1

[Editor]
DistanceSpacing: 1
BeatDivisor: 4
GridSize: 8
TimelineZoom: 2.2

[Metadata]
Title:Trust in you (TV Size)
TitleUnicode:Trust in you (TV Size)
Artist:sweet ARMS
ArtistUnicode:sweet ARMS
Creator:victorica_db
Version:Lv.5
Source:デート・ア・ライブ Ⅱ
Tags:date a live 2 opening simple_star
BeatmapID:451758
BeatmapSetID:178826

[Difficulty]
HPDrainRate:7
CircleSize:4
OverallDifficulty:7
ApproachRate:5
SliderMultiplier:1.4
SliderTickRate:1

[Events]
//Background and Video events
Video,0,"video.avi"
0,0,"Tokisaki Kurumi.jpg",0,0
//Break Periods
//Storyboard Layer 0 (Background)
//Storyboard Layer 1 (Fail)
//Storyboard Layer 2 (Pass)
//Storyboard Layer 3 (Foreground)
//Storyboard Sound Samples
//Background Colour Transformations
3,100,163,162,255

[TimingPoints]
507,315.789473684211,4,2,1,30,1,0
37770,-66.6666666666667,4,2,1,30,0,0
38243,-125,4,2,1,30,0,0
38401,-100,4,2,1,30,0,0
68559,-100,4,2,1,30,0,1
100296,-100,4,2,1,30,0,0

[HitObjects]
192,192,14875,128,0,15664:0:0:0:0:
448,192,15664,1,4,0:0:0:0:
64,192,16296,1,0,0:0:0:0:
192,192,16770,1,0,0:0:0:0:
448,192,16770,1,4,0:0:0:0:
192,192,17559,1,0,0:0:0:0:
320,192,17875,1,0,0:0:0:0:
448,192,18191,1,4,0:0:0:0:
64,192,18191,1,0,0:0:0:0:
64,192,18822,1,0,0:0:0:0:
192,192,19138,1,0,0:0:0:0:
320,192,19454,1,0,0:0:0:0:
448,192,19454,1,4,0:0:0:0:
192,192,19928,1,8,0:0:0:0:
320,192,20085,1,8,0:0:0:0:
64,192,20296,1,2,0:0:0:0:
192,192,20507,1,2,0:0:0:0:
64,192,20717,1,4,0:0:0:0:
448,192,20717,1,2,0:0:0:0:
448,192,21349,1,8,0:0:0:0:
64,192,21507,1,2,0:0:0:0:
64,192,21664,1,2,0:0:0:0:
320,192,21822,1,2,0:0:0:0:
448,192,21822,1,4,0:0:0:0:
64,192,22178,1,8,0:0:0:0:
192,192,22296,1,2,0:0:0:0:
320,192,22507,1,8,0:0:0:0:
448,192,22612,1,8,0:0:0:0:
64,192,22770,1,8,0:0:0:0:
192,192,23007,1,8,0:0:0:0:
320,192,23243,1,0,0:0:0:0:
448,192,23243,1,0,0:0:0:0:
320,192,23717,1,2,0:0:0:0:
192,192,23875,1,8,0:0:0:0:
64,192,23875,1,4,0:0:0:0:
192,192,24507,1,4,0:0:0:0:
320,192,24822,1,4,0:0:0:0:
64,192,25138,1,0,0:0:0:0:
192,192,25296,1,0,0:0:0:0:
448,192,25454,1,0,0:0:0:0:
192,192,25612,1,0,0:0:0:0:
448,192,25770,1,2,0:0:0:0:
64,192,26085,1,0,0:0:0:0:
320,192,26085,1,8,0:0:0:0:
192,192,26401,1,2,0:0:0:0:
192,192,26559,1,2,0:0:0:0:
320,192,26717,1,8,0:0:0:0:
448,192,26717,1,0,0:0:0:0:
64,192,26875,1,2,0:0:0:0:
192,192,27349,1,0,0:0:0:0:
448,192,27349,1,8,0:0:0:0:
192,192,27664,1,2,0:0:0:0:
320,192,27822,1,2,0:0:0:0:
448,192,27980,1,8,0:0:0:0:
64,192,27980,1,0,0:0:0:0:
320,192,28296,1,0,0:0:0:0:
192,192,28612,1,8,0:0:0:0:
64,192,28612,1,0,0:0:0:0:
192,192,28928,1,2,0:0:0:0:
320,192,29085,1,2,0:0:0:0:
448,192,29243,1,8,0:0:0:0:
192,192,29243,1,0,0:0:0:0:
64,192,29559,1,2,0:0:0:0:
320,192,29875,1,8,0:0:0:0:
448,192,29875,1,0,0:0:0:0:
448,192,30191,1,2,0:0:0:0:
320,192,30349,1,2,0:0:0:0:
64,192,30507,1,0,0:0:0:0:
192,192,30507,1,8,0:0:0:0:
192,192,30822,1,2,0:0:0:0:
320,192,31138,1,8,0:0:0:0:
448,192,31138,1,0,0:0:0:0:
64,192,31454,1,2,0:0:0:0:
192,192,31612,1,2,0:0:0:0:
320,192,31770,1,8,0:0:0:0:
448,192,31770,1,0,0:0:0:0:
64,192,31928,1,6,0:0:0:0:
64,192,32401,1,0,0:0:0:0:
320,192,32401,1,8,0:0:0:0:
192,192,32717,1,2,0:0:0:0:
320,192,32875,1,2,0:0:0:0:
192,192,33033,1,8,0:0:0:0:
448,192,33033,1,0,0:0:0:0:
448,192,33349,1,2,0:0:0:0:
192,192,33664,1,8,0:0:0:0:
64,192,33664,1,0,0:0:0:0:
320,192,33980,1,2,0:0:0:0:
64,192,34296,1,0,0:0:0:0:
448,192,34296,1,8,0:0:0:0:
320,192,34612,1,2,0:0:0:0:
192,192,34928,1,2,0:0:0:0:
64,192,35243,128,0,35875:0:0:0:0:
448,192,35875,1,8,0:0:0:0:
448,192,36033,1,8,0:0:0:0:
448,192,36191,1,8,0:0:0:0:
64,192,36507,1,8,0:0:0:0:
64,192,36664,1,8,0:0:0:0:
320,192,36980,1,4,0:0:0:0:
64,192,36980,1,0,0:0:0:0:
192,192,37296,1,6,0:0:0:0:
320,192,37454,1,6,0:0:0:0:
192,192,37770,128,0,38401:0:0:0:0:
448,192,38401,1,2,0:0:0:0:
64,192,38717,1,0,0:0:0:0:
192,192,38717,1,8,0:0:0:0:
192,192,39033,1,2,0:0:0:0:
192,192,39349,1,0,0:0:0:0:
448,192,39349,1,8,0:0:0:0:
320,192,39664,1,2,0:0:0:0:
64,192,39980,1,0,0:0:0:0:
192,192,39980,1,8,0:0:0:0:
192,192,40296,1,2,0:0:0:0:
192,192,40454,1,2,0:0:0:0:
320,192,40612,1,8,0:0:0:0:
448,192,40612,1,0,0:0:0:0:
64,192,40928,1,2,0:0:0:0:
320,192,41243,1,8,0:0:0:0:
64,192,41243,1,0,0:0:0:0:
320,192,41559,1,2,0:0:0:0:
64,192,41875,1,0,0:0:0:0:
320,192,41875,1,8,0:0:0:0:
320,192,42191,1,2,0:0:0:0:
448,192,42507,1,8,0:0:0:0:
64,192,42507,1,0,0:0:0:0:
192,192,42822,1,2,0:0:0:0:
192,192,42980,1,2,0:0:0:0:
320,192,43138,1,8,0:0:0:0:
448,192,43138,1,0,0:0:0:0:
192,192,43454,128,0,43928:0:0:0:0:
320,192,43928,128,0,44401:0:0:0:0:
448,192,44401,128,0,45191:0:0:0:0:
64,192,44717,128,0,45191:0:0:0:0:
192,192,45191,128,0,45664:0:0:0:0:
320,192,45664,128,0,46612:0:0:0:0:
64,192,46296,1,0,0:0:0:0:
192,192,46612,1,0,0:0:0:0:
320,192,46928,1,0,0:0:0:0:
448,192,47243,1,0,0:0:0:0:
64,192,47559,1,0,0:0:0:0:
192,192,47717,128,0,48033:0:0:0:0:
320,192,48033,1,0,0:0:0:0:
448,192,48191,1,0,0:0:0:0:
64,192,48507,1,0,0:0:0:0:
448,192,48507,1,4,0:0:0:0:
320,192,48507,1,2,0:0:0:0:
192,192,48664,1,0,0:0:0:0:
320,192,48822,1,0,0:0:0:0:
192,192,48980,1,0,0:0:0:0:
320,192,49138,1,0,0:0:0:0:
64,192,49454,1,0,0:0:0:0:
192,192,49454,1,8,0:0:0:0:
192,192,49770,1,2,0:0:0:0:
320,192,50085,1,8,0:0:0:0:
448,192,50085,1,0,0:0:0:0:
448,192,50401,1,2,0:0:0:0:
320,192,50559,1,2,0:0:0:0:
192,192,50717,1,8,0:0:0:0:
448,192,50717,1,0,0:0:0:0:
64,192,50875,1,0,0:0:0:0:
320,192,51033,1,2,0:0:0:0:
192,192,51191,1,0,0:0:0:0:
64,192,51349,1,0,0:0:0:0:
320,192,51349,1,8,0:0:0:0:
448,192,51507,1,0,0:0:0:0:
64,192,51664,1,2,0:0:0:0:
192,192,51822,1,0,0:0:0:0:
320,192,51980,1,0,0:0:0:0:
448,192,51980,1,8,0:0:0:0:
192,192,52138,1,0,0:0:0:0:
64,192,52296,1,2,0:0:0:0:
192,192,52612,1,8,0:0:0:0:
448,192,52612,1,0,0:0:0:0:
320,192,52928,1,2,0:0:0:0:
192,192,53085,1,2,0:0:0:0:
64,192,53243,1,8,0:0:0:0:
448,192,53243,1,0,0:0:0:0:
192,192,53559,1,2,0:0:0:0:
320,192,53875,1,8,0:0:0:0:
448,192,53875,1,0,0:0:0:0:
192,192,54191,1,2,0:0:0:0:
192,192,54349,1,2,0:0:0:0:
64,192,54507,1,0,0:0:0:0:
448,192,54507,1,8,0:0:0:0:
320,192,54822,1,2,0:0:0:0:
64,192,55138,1,0,0:0:0:0:
320,192,55138,1,8,0:0:0:0:
192,192,55454,1,2,0:0:0:0:
320,192,55612,1,2,0:0:0:0:
448,192,55770,1,8,0:0:0:0:
64,192,55770,1,0,0:0:0:0:
448,192,56085,1,2,0:0:0:0:
320,192,56401,1,8,0:0:0:0:
64,192,56401,1,0,0:0:0:0:
192,192,56717,1,2,0:0:0:0:
320,192,56875,1,2,0:0:0:0:
448,192,57033,1,8,0:0:0:0:
64,192,57033,1,0,0:0:0:0:
64,192,57349,1,2,0:0:0:0:
320,192,57664,1,8,0:0:0:0:
448,192,57664,1,0,0:0:0:0:
64,192,57822,1,2,0:0:0:0:
320,192,57980,1,8,0:0:0:0:
448,192,57980,1,0,0:0:0:0:
64,192,58138,1,2,0:0:0:0:
192,192,58296,1,2,0:0:0:0:
320,192,58454,1,2,0:0:0:0:
448,192,58612,1,8,0:0:0:0:
64,192,58612,1,0,0:0:0:0:
448,192,58770,1,8,0:0:0:0:
64,192,58770,1,0,0:0:0:0:
192,192,59085,1,8,0:0:0:0:
448,192,59085,1,0,0:0:0:0:
448,192,59243,1,0,0:0:0:0:
192,192,59243,1,8,0:0:0:0:
64,192,59559,1,0,0:0:0:0:
320,192,59559,1,8,0:0:0:0:
320,192,59717,1,8,0:0:0:0:
64,192,59717,1,0,0:0:0:0:
192,192,61138,1,8,0:0:0:0:
448,192,61138,1,0,0:0:0:0:
192,192,61296,1,8,0:0:0:0:
448,192,61296,1,0,0:0:0:0:
192,192,61612,1,8,0:0:0:0:
320,192,61612,1,0,0:0:0:0:
192,192,61770,1,8,0:0:0:0:
320,192,61770,1,0,0:0:0:0:
64,192,62085,1,8,0:0:0:0:
320,192,62085,1,0,0:0:0:0:
64,192,62243,1,8,0:0:0:0:
448,192,62243,1,4,0:0:0:0:
64,192,63033,1,0,0:0:0:0:
192,192,63191,1,0,0:0:0:0:
320,192,63349,1,0,0:0:0:0:
448,192,63507,1,0,0:0:0:0:
64,192,63664,128,0,64770:0:0:0:0:
320,192,64770,1,0,0:0:0:0:
192,192,65559,1,0,0:0:0:0:
320,192,65875,1,0,0:0:0:0:
64,192,66191,1,0,0:0:0:0:
192,192,66507,1,0,0:0:0:0:
448,192,66664,128,0,67454:0:0:0:0:
64,192,67296,1,0,0:0:0:0:
192,192,67296,1,0,0:0:0:0:
64,192,67612,1,0,0:0:0:0:
192,192,67612,1,0,0:0:0:0:
320,192,67770,1,0,0:0:0:0:
448,192,67770,1,0,0:0:0:0:
64,192,68559,1,0,0:0:0:0:
448,192,68559,1,0,0:0:0:0:
320,192,68559,1,4,0:0:0:0:
192,192,68559,1,0,0:0:0:0:
192,192,69033,1,8,0:0:0:0:
448,192,69033,1,0,0:0:0:0:
64,192,69349,1,2,0:0:0:0:
192,192,69507,1,2,0:0:0:0:
320,192,69664,1,8,0:0:0:0:
448,192,69664,1,0,0:0:0:0:
192,192,69822,1,6,0:0:0:0:
64,192,70296,1,8,0:0:0:0:
448,192,70296,1,0,0:0:0:0:
192,192,70612,1,2,0:0:0:0:
320,192,70770,1,2,0:0:0:0:
448,192,70928,1,8,0:0:0:0:
64,192,70928,1,0,0:0:0:0:
192,192,71085,1,6,0:0:0:0:
320,192,71401,1,2,0:0:0:0:
192,192,71559,1,8,0:0:0:0:
64,192,71559,1,0,0:0:0:0:
320,192,71875,1,2,0:0:0:0:
64,192,72191,1,8,0:0:0:0:
448,192,72191,1,0,0:0:0:0:
320,192,72349,1,6,0:0:0:0:
64,192,72664,1,2,0:0:0:0:
320,192,72822,1,8,0:0:0:0:
448,192,72822,1,0,0:0:0:0:
192,192,73138,1,2,0:0:0:0:
320,192,73296,1,2,0:0:0:0:
64,192,73454,1,0,0:0:0:0:
448,192,73454,1,8,0:0:0:0:
320,192,73612,1,6,0:0:0:0:
64,192,74085,1,8,0:0:0:0:
448,192,74085,1,0,0:0:0:0:
64,192,74401,1,0,0:0:0:0:
192,192,74559,1,0,0:0:0:0:
320,192,74717,1,0,0:0:0:0:
448,192,74875,128,0,75349:0:0:0:0:
320,192,75349,128,0,75664:0:0:0:0:
64,192,75664,128,0,75980:0:0:0:0:
192,192,75980,128,0,76296:0:0:0:0:
320,192,76296,128,0,76612:0:0:0:0:
64,192,76928,128,0,77401:0:0:0:0:
320,192,77401,128,0,77717:0:0:0:0:
64,192,78033,1,0,0:0:0:0:
192,192,78191,1,0,0:0:0:0:
320,192,78349,128,0,78664:0:0:0:0:
64,192,78664,1,4,0:0:0:0:
64,192,79296,1,0,0:0:0:0:
192,192,79454,1,0,0:0:0:0:
320,192,79612,128,0,79928:0:0:0:0:
192,192,79928,1,4,0:0:0:0:
64,192,80559,1,0,0:0:0:0:
192,192,80717,1,0,0:0:0:0:
320,192,80875,128,0,81191:0:0:0:0:
64,192,81191,1,4,0:0:0:0:
320,192,81664,1,0,0:0:0:0:
192,192,81822,1,0,0:0:0:0:
64,192,81980,1,0,0:0:0:0:
64,192,82138,128,0,82454:0:0:0:0:
320,192,82454,128,0,82770:0:0:0:0:
448,192,82454,1,0,0:0:0:0:
64,192,82770,1,0,0:0:0:0:
192,192,82928,1,0,0:0:0:0:
192,192,83243,128,0,83401:0:0:0:0:
320,192,83401,128,0,83717:0:0:0:0:
448,192,83717,128,0,84191:0:0:0:0:
64,192,83717,1,0,0:0:0:0:
64,192,84507,128,0,84664:0:0:0:0:
192,192,84664,128,0,84980:0:0:0:0:
320,192,84980,128,0,85454:0:0:0:0:
448,192,84980,1,0,0:0:0:0:
192,192,85454,128,0,85770:0:0:0:0:
64,192,85770,128,0,86085:0:0:0:0:
320,192,86085,128,0,86401:0:0:0:0:
64,192,86401,1,0,0:0:0:0:
448,192,86401,1,0,0:0:0:0:
64,192,86717,1,0,0:0:0:0:
320,192,86717,1,0,0:0:0:0:
192,192,86875,1,0,0:0:0:0:
448,192,86875,1,0,0:0:0:0:
320,192,87033,1,0,0:0:0:0:
448,192,87191,1,0,0:0:0:0:
64,192,87349,1,0,0:0:0:0:
192,192,87507,1,0,0:0:0:0:
320,192,87664,1,0,0:0:0:0:
64,192,87822,1,0,0:0:0:0:
192,192,87980,1,0,0:0:0:0:
320,192,88138,1,0,0:0:0:0:
448,192,88296,128,0,88454:0:0:0:0:
320,192,88454,128,0,88612:0:0:0:0:
192,192,88612,128,0,88770:0:0:0:0:
64,192,88770,128,0,88928:0:0:0:0:
192,192,88928,128,0,90191:0:0:0:0:
192,192,91454,128,0,92085:0:0:0:0:
320,192,92085,128,0,92559:0:0:0:0:
64,192,92559,1,4,0:0:0:0:
448,192,92559,128,0,93349:0:0:0:0:
64,192,93349,128,0,93664:0:0:0:0:
192,192,93664,128,0,93980:0:0:0:0:
320,192,93980,128,0,94612:0:0:0:0:
448,192,93980,1,4,0:0:0:0:
64,192,94612,128,0,94928:0:0:0:0:
320,192,94928,128,0,95243:0:0:0:0:
448,192,95243,128,0,95559:0:0:0:0:
320,192,95559,128,0,95875:0:0:0:0:
192,192,95875,128,0,96191:0:0:0:0:
448,192,95875,1,0,0:0:0:0:
64,192,96191,128,0,96507:0:0:0:0:
448,192,96507,1,4,0:0:0:0:
448,192,96664,1,0,0:0:0:0:
448,192,96822,1,0,0:0:0:0:
64,192,97138,1,8,0:0:0:0:
448,192,97138,1,4,0:0:0:0:
192,192,97296,1,0,0:0:0:0:
320,192,97454,1,0,0:0:0:0:
448,192,97612,128,0,100296:0:0:0:0:
64,192,97612,128,0,100296:0:0:0:0:
