osu file format v13

[General]
AudioFilename: 02 - Installation.mp3
AudioLeadIn: 2000
PreviewTime: 305875
Countdown: 0
SampleSet: Normal
StackLeniency: 0.7
Mode: 0
LetterboxInBreaks: 0
EpilepsyWarning: 1
WidescreenStoryboard: 1

[Editor]
Bookmarks: 20666,38526,56386,74247,89875,98805,107735,116666,134526,150154,168014,203735,239456,268479,288572,306433,322061,336921
DistanceSpacing: 1.2
BeatDivisor: 3
GridSize: 4
TimelineZoom: 3.5

[Metadata]
Title:Installation
TitleUnicode:インストレーション
Artist:sweet ARMS
ArtistUnicode:sweet ARMS
Creator:Cherry Blossom
Version:Nightmare
Source:デート・ア・ライブ 或守インストール
Tags:Arusu Ars Install Compile Heart Sting Playstation Visual Novel date a live ii 2 shio watanabe go sakabe kenterz
BeatmapID:444356
BeatmapSetID:185927

[Difficulty]
HPDrainRate:6.5
CircleSize:4
OverallDifficulty:9
ApproachRate:9.3
SliderMultiplier:1.9
SliderTickRate:1

[Events]
//Background and Video events
0,0,"kurumi.jpg",0,0
//Break Periods
2,154624,162995
2,288772,296949
//Storyboard Layer 0 (Background)
//Storyboard Layer 1 (Fail)
//Storyboard Layer 2 (Pass)
//Storyboard Layer 3 (Foreground)
//Storyboard Sound Samples
//Background Colour Transformations
3,100,163,162,255

[TimingPoints]
573,279.06976744186,4,1,3,70,1,0
642,-133.333333333333,4,2,0,25,0,0
2735,-133.333333333333,4,2,0,5,0,0
2805,-133.333333333333,4,1,3,70,0,0
2875,-133.333333333333,4,2,0,25,0,0
4968,-133.333333333333,4,2,0,5,0,0
5038,-133.333333333333,4,1,3,70,0,0
5107,-133.333333333333,4,2,0,25,0,0
7200,-133.333333333333,4,2,0,5,0,0
7270,-133.333333333333,4,1,3,60,0,0
8386,-133.333333333333,4,1,3,60,0,0
8456,-133.333333333333,4,2,2,60,0,0
16200,-133.333333333333,4,1,3,60,0,0
17317,-100,4,2,2,60,0,0
18433,-200,4,2,0,60,0,0
19549,-100,4,2,2,60,0,0
20666,-100,4,1,3,60,0,0
38596,-133.333333333333,4,2,2,35,0,0
41875,-133.333333333333,4,2,0,35,0,0
42991,-133.333333333333,4,2,2,35,0,0
55828,-133.333333333333,4,2,2,70,0,0
56386,-114.942528735632,4,2,2,50,0,0
65317,-114.942528735632,4,2,2,50,0,0
73689,-114.942528735632,4,2,2,30,0,0
74247,-100,4,1,3,70,0,1
89875,-114.942528735632,4,1,3,60,0,0
98805,-133.333333333333,4,2,2,35,0,0
102154,-133.333333333333,4,2,0,35,0,0
103270,-133.333333333333,4,2,2,35,0,0
107735,-114.942528735632,4,2,2,50,0,0
133968,-114.942528735632,4,2,2,30,0,0
134526,-100,4,1,3,70,0,1
150154,-100,4,1,3,60,0,0
163549,-114.942528735632,4,1,2,35,0,0
165503,-114.942528735632,4,1,2,5,0,0
165782,-114.942528735632,4,2,2,60,0,0
168014,-100,4,1,3,70,0,1
168084,-100,4,1,3,60,0,0
176945,-100,4,1,3,60,0,0
177014,-100,4,1,2,60,0,0
180293,-100,4,1,3,60,0,0
203735,-100,4,1,3,70,0,1
203805,-100,4,1,3,60,0,0
230456,-100,4,1,2,60,0,0
233875,-100,4,1,3,60,0,0
235270,-100,4,1,2,60,0,0
238340,-100,4,1,3,60,0,0
239456,-100,4,1,3,60,0,1
239526,-100,4,1,3,60,0,0
248386,-100,4,1,3,70,0,1
259479,-100,4,1,3,60,0,0
259549,-114.942528735632,4,1,3,70,0,1
259619,-114.942528735632,4,1,3,60,0,0
268479,-114.942528735632,4,2,2,50,0,0
288014,-114.942528735632,4,2,2,30,0,0
288572,-114.942528735632,4,2,0,30,0,0
297503,-133.333333333333,4,2,0,30,0,0
305317,-133.333333333333,4,2,0,50,0,0
305875,-114.942528735632,4,2,0,30,0,0
306433,-100,4,1,3,70,0,1
322061,-100,4,1,3,70,0,0
322340,-114.942528735632,4,1,3,60,0,0

[Colours]
Combo1 : 254,231,188
Combo2 : 253,160,57
Combo3 : 250,244,50
Combo4 : 255,91,91

[HitObjects]
200,144,573,5,4,0:0:0:0:
256,192,642,12,0,2735,0:0:0:0:
208,248,2805,5,4,0:0:0:0:
256,192,2875,12,0,4968,0:0:0:0:
304,136,5038,5,4,0:0:0:0:
256,192,5107,12,0,7200,0:0:0:0:
312,240,7270,5,4,0:0:0:0:
320,252,8386,6,0,L|468:248,1,142.500005435944,4|0,0:0|0:0,0:0:0:0:
504,172,8805,1,0,0:0:0:0:
252,188,8945,1,10,0:0:0:0:
252,188,9084,2,0,P|232:260|260:320,1,142.500005435944
344,340,9503,5,6,0:0:0:0:
440,116,9782,2,0,P|368:128|304:96,1,142.500005435944
256,32,10200,1,0,0:0:0:0:
176,68,10340,2,0,L|100:64,1,71.2500027179719
60,176,10619,6,0,L|208:172,1,142.500005435944
452,332,11177,2,0,L|304:328,1,142.500005435944
104,64,11735,6,0,L|176:68,2,71.2500027179719,6|0|0,0:0|0:0|0:0,0:0:0:0:
40,120,12154,1,0,0:0:0:0:
88,192,12293,2,0,L|100:344,1,142.500005435944
412,334,12852,2,0,L|424:192,1,142.500005435944,0|0,0:0|0:0,0:0:0:0:
428,108,13270,2,0,P|360:88|288:108,1,142.500005435944,0|0,0:0|0:0,0:0:0:0:
224,156,13689,2,0,P|188:164|152:156,1,71.2500027179719,0|0,0:0|0:0,0:0:0:0:
84,108,13968,5,6,0:0:0:0:
428,108,14247,2,0,P|444:180|428:248,1,142.500005435944
396,324,14666,1,0,0:0:0:0:
312,344,14805,2,0,L|216:340,1,71.2500027179719
12,284,15084,6,0,L|108:280,1,71.2500027179719
148,224,15363,2,0,L|244:220,1,71.2500027179719,0|0,0:0|0:0,0:0:0:0:
296,180,15642,1,0,0:0:0:0:
220,144,15782,1,0,0:0:0:0:
296,104,15921,1,0,0:0:0:0:
220,60,16061,1,0,0:0:0:0:
296,20,16200,5,4,0:0:0:0:
304,32,17317,6,0,L|432:28,1,95,6|0,0:0|0:0,0:0:0:0:
464,112,17596,1,8,0:0:0:0:
432,260,17735,2,0,L|304:256,1,95,6|0,0:0|0:0,0:0:0:0:
256,188,18014,1,8,0:0:0:0:
120,252,18154,2,0,P|128:208|116:160,1,95,6|0,0:0|0:0,0:0:0:0:
96,44,18433,6,0,B|140:64|180:44|180:44|220:64|256:40|256:40|292:64|336:44|336:44|372:64|416:44,1,332.5
500,120,19549,5,10,0:0:0:0:
484,144,19619,1,2,0:0:0:0:
476,176,19689,1,2,0:0:0:0:
472,204,19759,1,2,0:0:0:0:
480,232,19828,2,0,P|480:264|468:292,1,47.5,2|2,0:0|0:0,0:0:0:0:
424,340,19968,1,10,0:0:0:0:
396,336,20038,1,2,0:0:0:0:
368,332,20107,1,2,0:0:0:0:
340,328,20177,1,2,0:0:0:0:
312,324,20247,1,2,0:0:0:0:
284,320,20317,1,2,0:0:0:0:
256,316,20386,1,6,0:0:0:0:
4,76,20666,6,0,P|88:100|180:60,1,190,4|8,0:0|0:0,0:0:0:0:
284,20,21084,1,0,0:0:0:0:
424,104,21224,2,0,L|420:200,2,95,0|0|8,0:0|0:0|0:0,0:0:0:0:
504,292,21642,6,0,P|413:315|329:277,1,190,4|0,0:0|0:0,0:0:0:0:
240,204,22061,2,0,L|144:200,1,95,8|0,0:0|0:0,0:0:0:0:
96,304,22340,2,0,L|192:300,1,95
32,192,22619,1,8,0:0:0:0:
312,128,22759,6,0,P|348:208|296:296,1,190,4|0,0:0|0:0,0:0:0:0:
188,300,23177,1,8,0:0:0:0:
80,260,23317,1,0,0:0:0:0:
168,188,23456,1,0,0:0:0:0:
100,368,23596,1,0,0:0:0:0:
100,368,23735,1,8,0:0:0:0:
312,324,23875,6,0,L|412:320,2,95,4|0|0,0:0|0:0|0:0,0:0:0:0:
168,188,24293,1,8,0:0:0:0:
304,44,24433,2,0,P|336:120|304:220,1,190
204,272,24852,2,0,L|104:268,1,95,8|0,0:0|0:0,0:0:0:0:
312,324,25131,6,0,L|412:320,1,95,4|0,0:0|0:0,0:0:0:0:
168,188,25410,2,0,P|76:176|20:100,1,190,8|0,0:0|0:0,0:0:0:0:
136,76,25828,1,0,0:0:0:0:
136,76,25968,1,8,0:0:0:0:
320,136,26107,6,0,L|312:340,1,190,4|0,0:0|0:0,0:0:0:0:
200,352,26526,2,0,P|152:360|104:352,1,95,8|0,0:0|0:0,0:0:0:0:
40,260,26805,1,0,0:0:0:0:
156,192,26945,1,0,0:0:0:0:
156,192,27084,1,8,0:0:0:0:
44,88,27224,6,0,P|136:96|224:44,1,190,4|0,0:0|0:0,0:0:0:0:
344,28,27642,2,0,L|464:24,1,95,8|0,0:0|0:0,0:0:0:0:
508,116,27921,1,0,0:0:0:0:
400,192,28061,1,0,0:0:0:0:
400,192,28200,1,8,0:0:0:0:
472,304,28340,6,0,B|400:300|400:300|356:280|356:280|284:276,1,190,4|0,0:0|0:0,0:0:0:0:
172,280,28759,1,8,0:0:0:0:
172,280,28898,1,0,0:0:0:0:
68,156,29038,1,8,0:0:0:0:
68,156,29177,1,0,0:0:0:0:
56,268,29317,1,8,0:0:0:0:
56,268,29456,1,0,0:0:0:0:
188,164,29596,6,0,P|280:172|372:112,1,190,4|8,0:0|0:0,0:0:0:0:
472,96,30014,1,0,0:0:0:0:
488,208,30154,2,0,L|480:320,2,95,0|0|8,0:0|0:0|0:0,0:0:0:0:
396,28,30572,6,0,P|304:48|204:24,1,190,4|0,0:0|0:0,0:0:0:0:
96,16,30991,1,8,0:0:0:0:
36,116,31131,1,0,0:0:0:0:
120,196,31270,1,0,0:0:0:0:
224,144,31410,1,0,0:0:0:0:
224,144,31549,1,8,0:0:0:0:
100,300,31689,6,0,L|0:296,2,95,4|0|0,0:0|0:0|0:0,0:0:0:0:
204,348,32107,2,0,L|308:344,1,95,8|0,0:0|0:0,0:0:0:0:
408,312,32386,1,0,0:0:0:0:
320,240,32526,1,0,0:0:0:0:
320,240,32666,1,8,0:0:0:0:
492,156,32805,6,0,P|404:172|324:120,1,190,4|0,0:0|0:0,0:0:0:0:
256,28,33224,1,8,0:0:0:0:
84,104,33363,2,0,L|92:304,1,190
192,348,33782,2,0,P|236:360|288:348,1,95,8|0,0:0|0:0,0:0:0:0:
412,244,34061,6,0,P|368:232|316:244,2,95,4|0|8,0:0|0:0|0:0,0:0:0:0:
504,312,34479,1,0,0:0:0:0:
508,120,34619,2,0,P|416:140|320:116,1,190,0|8,0:0|0:0,0:0:0:0:
188,32,35038,6,0,P|140:24|88:36,2,95,4|0|0,0:0|0:0|0:0,0:0:0:0:
212,144,35456,2,0,L|204:344,1,190,8|0,0:0|0:0,0:0:0:0:
92,360,35875,1,0,0:0:0:0:
92,360,36014,1,8,0:0:0:0:
324,296,36154,6,0,L|420:292,2,95,4|0|0,0:0|0:0|0:0,0:0:0:0:
188,208,36572,2,0,L|92:204,2,95,8|0|0,0:0|0:0|0:0,0:0:0:0:
280,140,36991,1,0,0:0:0:0:
280,140,37131,1,8,0:0:0:0:
124,32,37270,6,0,P|212:52|308:32,1,190,4|0,0:0|0:0,0:0:0:0:
420,52,37689,1,8,0:0:0:0:
420,52,37828,1,0,0:0:0:0:
496,164,37968,1,8,0:0:0:0:
496,164,38107,1,0,0:0:0:0:
388,244,38247,1,8,0:0:0:0:
388,244,38386,1,0,0:0:0:0:
480,344,38526,5,4,0:0:0:0:
456,360,39084,2,0,L|284:356,1,142.500005435944,8|0,0:0|0:0,0:0:0:0:
184,268,39642,2,0,L|12:264,2,142.500005435944
332,216,40479,2,0,L|412:212,1,71.2500027179719
476,180,40759,2,0,P|496:120|468:44,1,142.500005435944,2|0,0:0|0:0,0:0:0:0:
400,16,41177,1,2,0:0:0:0:
256,208,41456,1,0,0:0:0:0:
112,16,41735,1,0,0:0:0:0:
112,16,41875,6,0,L|24:12,2,71.2500027179719,2|0|0,0:0|0:0|0:0,0:0:0:0:
108,96,42293,1,2,0:0:0:0:
108,96,42433,2,0,L|188:88,1,71.2500027179719,2|0,0:0|0:0,0:0:0:0:
256,80,42712,1,2,0:0:0:0:
316,292,42991,6,0,P|444:272|464:136,1,285.000010871888,2|8,0:0|0:0,0:0:0:0:
196,292,44107,2,0,P|68:272|48:136,1,285.000010871888,0|0,0:0|0:0,0:0:0:0:
396,52,45224,2,0,B|324:40|256:68|256:68|192:40|116:52,2,285.000010871888,2|0|0,0:0|0:0|0:0,0:0:0:0:
508,116,46619,1,0,0:0:0:0:
396,180,46898,1,0,0:0:0:0:
500,256,47177,1,0,0:0:0:0:
392,328,47456,6,0,L|244:320,1,142.500005435944,4|0,0:0|0:0,0:0:0:0:
176,352,47875,1,0,0:0:0:0:
80,240,48014,2,0,P|148:256|224:236,2,142.500005435944,8|0|0,0:0|0:0|0:0,0:0:0:0:
20,96,48852,5,0,0:0:0:0:
20,96,48991,2,0,P|88:76|160:96,1,142.500005435944
220,136,49410,2,0,P|256:144|288:136,1,71.2500027179719
420,64,49689,6,0,L|416:208,1,142.500005435944,2|0,0:0|0:0,0:0:0:0:
464,268,50107,1,0,0:0:0:0:
340,352,50386,2,0,B|272:364|272:364|200:352,1,142.500005435944
140,300,50805,6,0,L|56:292,2,71.2500027179719
188,240,51224,2,0,L|272:232,1,71.2500027179719
300,164,51503,2,0,L|384:156,2,71.2500027179719
256,60,51921,6,0,P|188:72|112:56,1,142.500005435944,2|0,0:0|0:0,0:0:0:0:
56,8,52340,1,0,0:0:0:0:
4,68,52479,2,0,L|12:224,1,142.500005435944,8|0,0:0|0:0,0:0:0:0:
36,284,52898,2,0,P|104:300|180:284,1,142.500005435944
476,100,53456,6,0,P|408:84|332:100,1,142.500005435944
268,132,53875,2,0,L|272:224,1,71.2500027179719
364,320,54154,2,0,L|356:176,1,142.500005435944,2|0,0:0|0:0,0:0:0:0:
155,177,54712,2,0,L|148:320,1,142.500005435944
456,200,55270,6,0,P|444:124|392:76,1,142.500005435944
112,79,55828,1,8,0:0:0:0:
60,136,55968,1,0,0:0:0:0:
56,216,56107,1,8,0:0:0:0:
88,288,56247,1,0,0:0:0:0:
168,316,56386,6,0,L|348:312,1,165.300001387253,6|0,0:0|0:0,0:0:0:0:
424,352,56805,2,0,P|416:268|440:188,1,165.300001387253,2|0,0:0|0:0,0:0:0:0:
480,100,57224,2,0,P|436:104|396:100,1,82.6500006936264,8|0,0:0|0:0,0:0:0:0:
256,68,57503,6,0,L|80:64,1,165.300001387253,2|0,0:0|0:0,0:0:0:0:
256,184,57921,2,0,L|432:180,1,165.300001387253,2|0,0:0|0:0,0:0:0:0:
256,300,58340,2,0,L|136:296,1,82.6500006936264,8|0,0:0|0:0,0:0:0:0:
40,344,58619,6,0,P|64:256|40:176,1,165.300001387253,2|0,0:0|0:0,0:0:0:0:
8,92,59038,2,0,P|96:116|176:92,1,165.300001387253,2|0,0:0|0:0,0:0:0:0:
256,72,59456,2,0,P|296:68|344:72,1,82.6500006936264,8|0,0:0|0:0,0:0:0:0:
436,80,59735,6,0,L|432:260,1,165.300001387253,2|0,0:0|0:0,0:0:0:0:
336,348,60154,2,0,L|339:182,1,165.300001387253,2|2,0:0|0:0,0:0:0:0:
256,72,60572,1,8,0:0:0:0:
256,72,60712,1,0,0:0:0:0:
40,24,60852,6,0,L|36:200,1,165.300001387253,2|0,0:0|0:0,0:0:0:0:
48,288,61270,2,0,B|128:300|128:300|212:288,1,165.300001387253,2|0,0:0|0:0,0:0:0:0:
304,272,61689,2,0,L|300:364,1,82.6500006936264,8|0,0:0|0:0,0:0:0:0:
188,192,61968,6,0,P|156:120|184:40,1,165.300001387253,2|0,0:0|0:0,0:0:0:0:
329,41,62386,2,0,P|356:117|324:192,1,165.300001387253,2|0,0:0|0:0,0:0:0:0:
256,112,62805,1,8,0:0:0:0:
256,112,62945,1,0,0:0:0:0:
208,332,63084,6,0,L|36:324,1,165.300001387253,2|0,0:0|0:0,0:0:0:0:
304,272,63503,2,0,L|476:264,1,165.300001387253,2|0,0:0|0:0,0:0:0:0:
212,188,63921,2,0,L|100:180,1,82.6500006936264,8|0,0:0|0:0,0:0:0:0:
44,136,64200,6,0,P|32:176|40:220,1,82.6500006936264,2|0,0:0|0:0,0:0:0:0:
124,96,64479,2,0,P|136:56|128:12,1,82.6500006936264,8|0,0:0|0:0,0:0:0:0:
0,288,64759,2,0,P|40:296|80:288,1,82.6500006936264,2|0,0:0|0:0,0:0:0:0:
160,228,65038,1,8,0:0:0:0:
256,204,65177,1,8,0:0:0:0:
432,288,65317,6,0,L|436:116,1,165.300001387253,6|0,0:0|0:0,0:0:0:0:
492,40,65735,2,0,P|408:48|332:24,1,165.300001387253,2|0,0:0|0:0,0:0:0:0:
256,88,66154,2,0,P|216:80|172:80,1,82.6500006936264,8|0,0:0|0:0,0:0:0:0:
52,148,66433,6,0,L|60:324,1,165.300001387253,2|0,0:0|0:0,0:0:0:0:
152,352,66852,2,0,P|232:328|312:348,1,165.300001387253,2|0,0:0|0:0,0:0:0:0:
372,272,67270,2,0,P|412:276|456:272,1,82.6500006936264,8|0,0:0|0:0,0:0:0:0:
304,200,67549,6,0,P|276:276|320:356,1,165.300001387253,2|0,0:0|0:0,0:0:0:0:
404,172,67968,2,0,P|352:109|260:107,1,165.300001387253,2|0,0:0|0:0,0:0:0:0:
200,172,68386,2,0,L|204:264,1,82.6500006936264,8|0,0:0|0:0,0:0:0:0:
476,248,68666,6,0,P|508:164|476:96,1,165.300001387253,2|0,0:0|0:0,0:0:0:0:
384,76,69084,2,0,L|208:68,1,165.300001387253,2|2,0:0|0:0,0:0:0:0:
128,112,69503,1,8,0:0:0:0:
128,112,69642,1,0,0:0:0:0:
140,276,69782,6,0,L|316:268,1,165.300001387253,2|0,0:0|0:0,0:0:0:0:
372,196,70200,2,0,P|400:256|368:348,1,165.300001387253,2|0,0:0|0:0,0:0:0:0:
272,360,70619,1,8,0:0:0:0:
188,40,70898,6,0,L|16:32,1,165.300001387253,2|0,0:0|0:0,0:0:0:0:
324,108,71317,2,0,L|496:100,1,165.300001387253,2|0,0:0|0:0,0:0:0:0:
196,184,71735,1,8,0:0:0:0:
196,200,72014,5,6,0:0:0:0:
324,108,72154,1,8,0:0:0:0:
324,108,72224,1,0,0:0:0:0:
324,108,72293,1,8,0:0:0:0:
188,40,72433,1,8,0:0:0:0:
416,152,72572,2,0,P|424:112|416:68,1,82.6500006936264,2|2,0:0|0:0,0:0:0:0:
94,71,72852,2,0,P|87:111|96:152,1,82.6500006936264,8|2,0:0|0:0,0:0:0:0:
256,352,73131,5,4,0:0:0:0:
256,252,73270,1,0,0:0:0:0:
256,152,73410,1,4,0:0:0:0:
256,352,73689,6,0,L|360:344,1,82.6500006936264
256,152,73968,2,0,L|152:144,1,82.6500006936264
472,336,74247,6,0,L|480:124,1,190,4|8,0:0|0:0,0:0:0:0:
404,60,74666,1,0,0:0:0:0:
256,152,74805,2,0,P|304:164|352:152,1,95,0|0,0:0|0:0,0:0:0:0:
164,104,75084,2,0,P|152:152|164:200,1,95,8|0,0:0|0:0,0:0:0:0:
248,44,75363,6,0,P|164:2|80:44,1,190,0|8,0:0|0:0,0:0:0:0:
64,152,75782,1,0,0:0:0:0:
348,328,75921,2,0,P|368:276|364:224,1,95
144,237,76200,2,0,P|145:284|164:328,1,95,8|0,0:0|0:0,0:0:0:0:
460,184,76479,6,0,P|380:132|296:160,1,190,0|8,0:0|0:0,0:0:0:0:
256,268,76898,1,0,0:0:0:0:
348,328,77038,2,0,L|456:320,2,95,0|0|8,0:0|0:0|0:0,0:0:0:0:
164,328,77456,6,0,P|78:299|59:204,1,190,4|0,0:0|0:0,0:0:0:0:
108,92,77875,1,8,0:0:0:0:
348,328,78014,2,0,P|434:299|453:204,1,190,4|0,0:0|0:0,0:0:0:0:
404,92,78433,1,8,0:0:0:0:
256,268,78572,6,0,L|148:264,1,95,4|0,0:0|0:0,0:0:0:0:
308,88,78852,2,0,L|416:92,1,95,0|8,0:0|0:0,0:0:0:0:
348,192,79131,1,0,0:0:0:0:
164,192,79270,2,0,P|124:112|164:24,1,190,8|8,0:0|0:0,0:0:0:0:
349,25,79689,6,0,P|388:109|348:192,1,190,4|0,0:0|0:0,0:0:0:0:
256,260,80107,1,8,0:0:0:0:
164,192,80247,1,0,0:0:0:0:
160,304,80386,1,8,0:0:0:0:
272,144,80526,1,0,0:0:0:0:
76,128,80666,1,8,0:0:0:0:
364,328,80805,6,0,L|384:128,1,190,4|0,0:0|0:0,0:0:0:0:
440,40,81224,2,0,P|344:60|256:36,1,190,8|0,0:0|0:0,0:0:0:0:
144,36,81642,1,0,0:0:0:0:
76,128,81782,1,8,0:0:0:0:
192,248,81921,6,0,P|204:200|196:156,2,95,4|0|0,0:0|0:0|0:0,0:0:0:0:
124,340,82340,2,0,B|180:336|180:336|244:352|244:352|312:348,1,190,8|8,0:0|0:0,0:0:0:0:
424,340,82759,1,8,0:0:0:0:
492,164,82898,1,8,0:0:0:0:
492,164,82968,1,0,0:0:0:0:
492,164,83038,6,0,P|400:184|300:160,1,190,4|0,0:0|0:0,0:0:0:0:
200,44,83456,2,0,L|192:144,1,95,8|0,0:0|0:0,0:0:0:0:
116,280,83735,2,0,L|108:185,1,95
296,56,84014,2,0,L|288:156,1,95,8|0,0:0|0:0,0:0:0:0:
20,292,84293,6,0,L|8:96,1,190,0|8,0:0|0:0,0:0:0:0:
116,64,84712,1,0,0:0:0:0:
209,283,84852,2,0,P|165:291|116:280,1,95
304,132,85131,2,0,P|348:124|397:135,1,95,8|0,0:0|0:0,0:0:0:0:
117,280,85410,6,0,L|105:84,1,190,0|8,0:0|0:0,0:0:0:0:
208,40,85828,1,0,0:0:0:0:
396,136,85968,2,0,L|388:260,1,95
380,344,86247,1,8,0:0:0:0:
116,280,86386,6,0,P|48:216|48:120,1,190,4|0,0:0|0:0,0:0:0:0:
132,32,86805,1,8,0:0:0:0:
465,124,86945,2,0,P|463:216|396:280,1,190,4|0,0:0|0:0,0:0:0:0:
276,308,87363,1,8,0:0:0:0:
164,120,87503,6,0,B|256:100|256:100|352:120,1,190,4|0,0:0|0:0,0:0:0:0:
400,220,87921,2,0,L|392:328,1,95,8|0,0:0|0:0,0:0:0:0:
119,314,88200,2,0,L|112:220,1,95,8|0,0:0|0:0,0:0:0:0:
256,100,88479,1,8,0:0:0:0:
256,100,88619,5,4,0:0:0:0:
256,192,88689,12,4,89875,0:0:0:0:
404,128,90154,6,0,L|496:124,1,82.6500006936264,8|0,0:0|0:0,0:0:0:0:
312,92,90433,2,0,P|308:136|320:180,2,82.6500006936264,0|0|8,0:0|0:0|0:0,0:0:0:0:
404,228,90852,6,0,P|336:272|256:252,1,165.300001387253,4|0,0:0|0:0,0:0:0:0:
164,220,91270,2,0,P|120:212|80:220,1,82.6500006936264,8|0,0:0|0:0,0:0:0:0:
40,308,91549,2,0,P|84:316|124:308,1,82.6500006936264
240,156,91828,1,8,0:0:0:0:
316,336,91968,6,0,P|396:344|460:288,1,165.300001387253,4|0,0:0|0:0,0:0:0:0:
480,156,92386,2,0,L|488:56,2,82.6500006936264,8|0|0,0:0|0:0|0:0,0:0:0:0:
396,208,92805,1,0,0:0:0:0:
396,208,92945,1,8,0:0:0:0:
332,72,93084,6,0,P|256:52|172:72,1,165.300001387253,4|0,0:0|0:0,0:0:0:0:
92,128,93503,2,0,L|100:300,1,165.300001387253,8|0,0:0|0:0,0:0:0:0:
188,340,93921,1,0,0:0:0:0:
276,292,94061,2,0,P|316:284|356:292,1,82.6500006936264,8|0,0:0|0:0,0:0:0:0:
184,248,94340,6,0,P|100:252|44:188,1,165.300001387253,4|8,0:0|0:0,0:0:0:0:
140,156,94759,1,0,0:0:0:0:
276,212,94898,2,0,P|284:256|276:292,2,82.6500006936264,0|0|8,0:0|0:0|0:0,0:0:0:0:
256,72,95317,6,0,P|336:92|420:72,1,165.300001387253,4|0,0:0|0:0,0:0:0:0:
488,144,95735,2,0,L|484:260,1,82.6500006936264,8|0,0:0|0:0,0:0:0:0:
372,308,96014,2,0,L|376:212,2,82.6500006936264,0|0|8,0:0|0:0|0:0,0:0:0:0:
140,308,96433,6,0,L|132:124,1,165.300001387253,4|0,0:0|0:0,0:0:0:0:
132,44,96852,2,0,P|172:36|216:44,2,82.6500006936264,8|0|0,0:0|0:0|0:0,0:0:0:0:
44,92,97270,1,0,0:0:0:0:
44,92,97410,1,8,0:0:0:0:
256,160,97549,6,0,L|432:152,1,165.300001387253,4|0,0:0|0:0,0:0:0:0:
504,208,97968,1,8,0:0:0:0:
504,208,98107,1,0,0:0:0:0:
400,256,98247,1,8,0:0:0:0:
400,256,98386,1,0,0:0:0:0:
496,320,98526,1,8,0:0:0:0:
496,320,98666,1,0,0:0:0:0:
388,360,98805,5,4,0:0:0:0:
368,352,99363,2,0,L|204:348,1,142.500005435944,8|0,0:0|0:0,0:0:0:0:
256,196,99921,2,0,L|420:200,2,142.500005435944,0|0|0,0:0|0:0|0:0,0:0:0:0:
112,256,100759,2,0,P|120:216|112:184,1,71.2500027179719
76,116,101038,6,0,L|224:108,1,142.500005435944,2|0,0:0|0:0,0:0:0:0:
256,40,101456,1,2,0:0:0:0:
256,344,101735,1,0,0:0:0:0:
256,192,102014,1,0,0:0:0:0:
312,136,102154,6,0,L|392:124,2,71.2500027179719,2|0|0,0:0|0:0|0:0,0:0:0:0:
256,80,102572,1,2,0:0:0:0:
200,136,102712,2,0,L|116:124,2,71.2500027179719,2|0|2,0:0|0:0|0:0,0:0:0:0:
388,244,103270,6,0,P|472:172|416:24,1,285.000010871888,2|8,0:0|0:0,0:0:0:0:
124,244,104386,2,0,P|40:172|96:24,1,285.000010871888
256,188,105224,2,0,L|256:272,1,71.2500027179719
308,316,105503,6,0,P|376:332|456:316,2,142.500005435944,2|0|0,0:0|0:0|0:0,0:0:0:0:
184,220,106340,1,0,0:0:0:0:
312,32,106619,5,0,0:0:0:0:
328,36,106898,1,0,0:0:0:0:
340,40,107177,1,0,0:0:0:0:
352,44,107456,1,0,0:0:0:0:
364,48,107735,6,0,L|468:40,1,82.6500006936264,6|2,0:0|0:0,0:0:0:0:
400,132,108014,2,0,L|296:124,1,82.6500006936264,0|2,0:0|0:0,0:0:0:0:
208,36,108293,2,0,P|132:16|48:40,1,165.300001387253,8|2,0:0|0:0,0:0:0:0:
4,128,108712,1,0,0:0:0:0:
4,228,108852,2,0,L|12:320,1,82.6500006936264,0|2,0:0|0:0,0:0:0:0:
176,260,109131,6,0,L|168:164,2,82.6500006936264,8|0|2,0:0|0:0|0:0,0:0:0:0:
256,316,109549,1,2,0:0:0:0:
348,280,109689,2,0,P|388:272|432:280,1,82.6500006936264,8|0,0:0|0:0,0:0:0:0:
164,360,109968,6,0,P|96:324|80:240,1,165.300001387253,2|0,0:0|0:0,0:0:0:0:
104,148,110386,1,2,0:0:0:0:
144,56,110526,2,0,L|312:48,1,165.300001387253,8|2,0:0|0:0,0:0:0:0:
400,88,110945,2,0,P|424:172|396:244,1,165.300001387253,0|2,0:0|0:0,0:0:0:0:
256,324,111363,6,0,L|156:316,1,82.6500006936264,8|0,0:0|0:0,0:0:0:0:
96,256,111642,1,2,0:0:0:0:
96,256,111782,1,2,0:0:0:0:
268,220,111921,2,0,L|168:212,1,82.6500006936264,8|0,0:0|0:0,0:0:0:0:
64,100,112200,6,0,L|232:92,1,165.300001387253,2|0,0:0|0:0,0:0:0:0:
320,136,112619,1,2,0:0:0:0:
428,48,112759,2,0,P|408:128|432:208,1,165.300001387253,8|2,0:0|0:0,0:0:0:0:
472,296,113177,2,0,B|412:292|412:292|372:272|372:272|304:268,1,165.300001387253,0|2,0:0|0:0,0:0:0:0:
148,288,113596,6,0,L|156:376,2,82.6500006936264,8|0|2,0:0|0:0|0:0,0:0:0:0:
220,220,114014,1,2,0:0:0:0:
92,160,114154,2,0,L|0:156,1,82.6500006936264,8|0,0:0|0:0,0:0:0:0:
220,220,114433,6,0,L|396:212,1,165.300001387253,2|0,0:0|0:0,0:0:0:0:
480,244,114852,1,2,0:0:0:0:
488,104,114991,2,0,P|420:120|332:76,1,165.300001387253,8|2,0:0|0:0,0:0:0:0:
256,20,115410,1,0,0:0:0:0:
36,192,115689,5,2,0:0:0:0:
72,284,115828,2,0,P|112:292|156:284,1,82.6500006936264,8|0,0:0|0:0,0:0:0:0:
256,188,116107,1,8,0:0:0:0:
340,136,116247,1,0,0:0:0:0:
420,196,116386,1,8,0:0:0:0:
384,288,116526,1,0,0:0:0:0:
256,188,116666,6,0,L|64:172,1,165.300001387253,4|0,0:0|0:0,0:0:0:0:
256,88,117084,2,0,L|448:72,1,165.300001387253,2|0,0:0|0:0,0:0:0:0:
476,156,117503,2,0,L|472:248,1,82.6500006936264,8|0,0:0|0:0,0:0:0:0:
336,336,117782,6,0,P|256:356|176:336,1,165.300001387253,2|0,0:0|0:0,0:0:0:0:
164,240,118200,2,0,L|172:56,1,165.300001387253,2|0,0:0|0:0,0:0:0:0:
79,112,118619,2,0,L|73:218,1,82.6500006936264,8|0,0:0|0:0,0:0:0:0:
348,240,118898,6,0,L|340:56,1,165.300001387253,2|0,0:0|0:0,0:0:0:0:
436,48,119317,2,0,L|444:216,1,165.300001387253,2|0,0:0|0:0,0:0:0:0:
416,308,119735,2,0,P|380:332|340:336,1,82.6500006936264,8|0,0:0|0:0,0:0:0:0:
184,292,120014,6,0,L|188:112,1,165.300001387253,2|0,0:0|0:0,0:0:0:0:
96,164,120433,2,0,L|92:248,2,82.6500006936264,2|0|2,0:0|0:0|0:0,0:0:0:0:
36,36,120852,1,8,0:0:0:0:
36,36,121131,6,0,P|112:52|192:24,1,165.300001387253,2|0,0:0|0:0,0:0:0:0:
256,100,121549,2,0,P|332:71|412:87,1,165.300001387253,2|0,0:0|0:0,0:0:0:0:
484,156,121968,2,0,L|480:260,1,82.6500006936264,8|0,0:0|0:0,0:0:0:0:
336,320,122247,6,0,P|256:300|176:320,1,165.300001387253,2|0,0:0|0:0,0:0:0:0:
128,232,122666,2,0,P|185:172|208:93,1,165.300001387253,2|0,0:0|0:0,0:0:0:0:
304,94,123084,2,0,P|308:136|332:176,1,82.6500006936264,8|0,0:0|0:0,0:0:0:0:
468,256,123363,6,0,L|472:84,1,165.300001387253,2|0,0:0|0:0,0:0:0:0:
384,44,123782,2,0,P|304:68|228:44,1,165.300001387253,2|0,0:0|0:0,0:0:0:0:
132,20,124200,2,0,P|92:12|48:20,1,82.6500006936264,8|0,0:0|0:0,0:0:0:0:
120,172,124479,6,0,L|208:168,1,82.6500006936264,2|0,0:0|0:0,0:0:0:0:
392,220,124759,2,0,L|304:216,1,82.6500006936264,8|0,0:0|0:0,0:0:0:0:
276,56,125038,2,0,L|280:144,1,82.6500006936264,2|0,0:0|0:0,0:0:0:0:
232,244,125317,1,8,0:0:0:0:
232,244,125456,1,8,0:0:0:0:
464,148,125596,6,0,P|492:228|456:300,1,165.300001387253,4|0,0:0|0:0,0:0:0:0:
392,220,126014,2,0,P|364:140|400:68,1,165.300001387253,2|0,0:0|0:0,0:0:0:0:
496,52,126433,1,8,0:0:0:0:
496,52,126572,1,0,0:0:0:0:
392,220,126712,6,0,L|212:212,1,165.300001387253,2|0,0:0|0:0,0:0:0:0:
164,136,127131,2,0,P|128:212|156:284,1,165.300001387253,2|0,0:0|0:0,0:0:0:0:
256,308,127549,1,8,0:0:0:0:
256,308,127689,1,0,0:0:0:0:
420,212,127828,6,0,L|412:40,1,165.300001387253,2|0,0:0|0:0,0:0:0:0:
316,64,128247,2,0,L|323:229,1,165.300001387253,2|0,0:0|0:0,0:0:0:0:
256,308,128666,1,8,0:0:0:0:
256,308,128805,1,0,0:0:0:0:
92,212,128945,6,0,L|100:40,1,165.300001387253,2|0,0:0|0:0,0:0:0:0:
196,64,129363,2,0,L|188:229,1,165.300001387253,2|2,0:0|0:0,0:0:0:0:
156,324,129782,2,0,P|116:332|68:324,1,82.6500006936264,8|0,0:0|0:0,0:0:0:0:
256,308,130061,6,0,P|332:296|420:312,1,165.300001387253,2|0,0:0|0:0,0:0:0:0:
504,360,130479,2,0,L|508:188,1,165.300001387253,2|0,0:0|0:0,0:0:0:0:
464,108,130898,2,0,P|420:112|372:104,1,82.6500006936264,8|0,0:0|0:0,0:0:0:0:
256,44,131177,6,0,P|176:24|96:44,1,165.300001387253,2|0,0:0|0:0,0:0:0:0:
12,92,131596,2,0,L|20:268,1,165.300001387253,2|0,0:0|0:0,0:0:0:0:
112,288,132014,1,8,0:0:0:0:
128,284,132293,5,6,0:0:0:0:
240,260,132433,1,8,0:0:0:0:
240,260,132503,1,0,0:0:0:0:
240,260,132572,1,8,0:0:0:0:
160,176,132712,1,8,0:0:0:0:
204,368,132852,1,2,0:0:0:0:
352,236,132991,1,2,0:0:0:0:
160,176,133131,2,0,L|60:168,1,82.6500006936264,2|0,0:0|0:0,0:0:0:0:
240,260,133410,5,4,0:0:0:0:
352,236,133549,1,4,0:0:0:0:
464,208,133689,1,4,0:0:0:0:
240,260,133968,6,0,P|232:304|244:344,1,82.6500006936264
464,208,134247,2,0,P|472:164|460:124,1,82.6500006936264
300,52,134526,6,0,L|104:48,1,190,4|8,0:0|0:0,0:0:0:0:
28,128,134945,1,0,0:0:0:0:
132,252,135084,2,0,P|144:208|132:160,1,95
88,356,135363,2,0,P|132:368|180:356,1,95,8|0,0:0|0:0,0:0:0:0:
332,308,135642,6,8,L|336:100,1,190,0|8,0:0|0:0,0:0:0:0:
256,36,136061,1,0,0:0:0:0:
332,308,136200,2,0,P|376:320|424:308,1,95
180,216,136479,2,0,P|136:204|88:216,1,95,8|0,0:0|0:0,0:0:0:0:
332,308,136759,6,0,P|360:208|320:128,1,190,0|8,0:0|0:0,0:0:0:0:
256,36,137177,1,0,0:0:0:0:
186,133,137317,2,0,L|88:128,2,95,0|0|8,0:0|0:0|0:0,0:0:0:0:
325,133,137735,6,0,L|425:129,1,95,4|0,0:0|0:0,0:0:0:0:
500,48,138014,1,0,0:0:0:0:
500,48,138154,1,8,0:0:0:0:
332,224,138293,2,0,L|432:220,1,95,4|0,0:0|0:0,0:0:0:0:
507,139,138572,1,0,0:0:0:0:
507,139,138712,1,8,0:0:0:0:
344,328,138852,6,0,L|216:324,1,95,4|0,0:0|0:0,0:0:0:0:
168,152,139131,2,0,L|296:156,2,95,0|8|0,0:0|0:0|0:0,0:0:0:0:
340,68,139549,2,0,P|376:148|340:240,1,190,8|8,0:0|0:0,0:0:0:0:
170,238,139968,6,0,P|135:153|172:68,1,190,4|0,0:0|0:0,0:0:0:0:
256,156,140386,1,8,0:0:0:0:
170,238,140526,1,0,0:0:0:0:
342,238,140666,1,8,0:0:0:0:
256,320,140805,1,0,0:0:0:0:
256,64,140945,1,8,0:0:0:0:
480,192,141084,6,0,P|480:292|424:360,1,190,4|0,0:0|0:0,0:0:0:0:
86,358,141503,2,0,P|29:285|32:192,1,190,8|0,0:0|0:0,0:0:0:0:
169,146,141921,2,0,P|181:194|169:242,1,95,0|8,0:0|0:0,0:0:0:0:
67,52,142200,6,0,L|257:42,1,190,4|0,0:0|0:0,0:0:0:0:
368,20,142619,2,0,P|332:104|368:192,1,190,8|8,0:0|0:0,0:0:0:0:
480,164,143038,1,0,0:0:0:0:
352,332,143177,1,8,0:0:0:0:
352,332,143247,1,0,0:0:0:0:
352,332,143317,6,0,B|256:348|256:348|164:332,1,190,4|0,0:0|0:0,0:0:0:0:
336,108,143735,2,0,L|332:232,1,95,8|0,0:0|0:0,0:0:0:0:
179,202,144014,2,0,L|176:108,1,95
408,40,144293,2,0,P|432:84|432:136,1,95,8|0,0:0|0:0,0:0:0:0:
78,128,144572,6,0,P|100:36|192:8,1,190,0|8,0:0|0:0,0:0:0:0:
256,96,144991,1,0,0:0:0:0:
124,228,145131,2,0,P|76:240|28:228,1,95
256,96,145410,2,0,P|304:84|352:96,1,95,8|0,0:0|0:0,0:0:0:0:
476,188,145689,6,0,L|472:320,1,95,0|0,0:0|0:0,0:0:0:0:
380,348,145968,1,8,0:0:0:0:
380,348,146107,1,0,0:0:0:0:
320,252,146247,2,0,L|324:120,1,95
416,92,146526,1,8,0:0:0:0:
256,344,146666,6,0,L|160:340,1,95,4|0,0:0|0:0,0:0:0:0:
256,208,146945,2,0,L|352:212,1,95,0|8,0:0|0:0,0:0:0:0:
88,252,147224,2,0,P|76:208|84:160,1,95,4|0,0:0|0:0,0:0:0:0:
168,80,147503,1,0,0:0:0:0:
168,80,147642,1,8,0:0:0:0:
180,276,147782,6,0,P|116:344|24:324,1,190,4|0,0:0|0:0,0:0:0:0:
344,80,148200,2,0,L|340:200,1,95,8|0,0:0|0:0,0:0:0:0:
171,174,148479,2,0,L|168:80,1,95,8|0,0:0|0:0,0:0:0:0:
332,276,148759,1,8,0:0:0:0:
332,276,148898,5,4,0:0:0:0:
256,192,148968,12,4,150154,0:0:0:0:
256,192,163549,12,0,165503,0:0:0:0:
52,108,165782,6,0,P|128:128|212:108,1,165.300001387253,2|0,0:0|0:0,0:0:0:0:
300,68,166200,2,0,P|379:48|458:68,1,165.300001387253,2|2,0:0|0:0,0:0:0:0:
512,160,166619,2,0,L|508:256,1,82.6500006936264,2|0,0:0|0:0,0:0:0:0:
404,336,166898,5,8,0:0:0:0:
379,334,167038,1,0,0:0:0:0:
354,332,167177,1,8,0:0:0:0:
329,330,167317,1,0,0:0:0:0:
304,328,167456,1,8,0:0:0:0:
279,326,167596,1,0,0:0:0:0:
254,325,167735,1,8,0:0:0:0:
229,323,167875,1,0,0:0:0:0:
204,321,168014,6,0,P|192:276|200:224,1,95,4|0,0:0|0:0,0:0:0:0:
324,124,168293,2,0,P|228:148|156:96,1,190,8|0,0:0|0:0,0:0:0:0:
252,36,168712,1,0,0:0:0:0:
412,16,168852,1,8,0:0:0:0:
444,172,168991,5,0,0:0:0:0:
422,189,169061,1,0,0:0:0:0:
405,212,169131,1,0,0:0:0:0:
391,236,169200,1,0,0:0:0:0:
387,264,169270,1,0,0:0:0:0:
387,292,169340,1,0,0:0:0:0:
398,318,169410,2,0,L|286:314,1,95,8|0,0:0|0:0,0:0:0:0:
164,184,169689,2,0,L|276:180,1,95,0|0,0:0|0:0,0:0:0:0:
76,236,169968,2,0,P|64:188|72:140,1,95,8|0,0:0|0:0,0:0:0:0:
84,116,170177,1,0,0:0:0:0:
104,96,170247,1,0,0:0:0:0:
164,288,170386,5,0,0:0:0:0:
76,340,170526,2,0,P|28:348|-20:340,2,95,8|0|0,0:0|0:0|0:0,0:0:0:0:
164,184,170945,1,0,0:0:0:0:
256,336,171084,2,0,L|360:332,1,95,8|0,0:0|0:0,0:0:0:0:
484,196,171363,6,0,L|380:192,1,95,4|0,0:0|0:0,0:0:0:0:
288,140,171642,1,8,0:0:0:0:
488,92,171782,2,0,L|384:88,1,95,4|0,0:0|0:0,0:0:0:0:
288,140,172061,1,0,0:0:0:0:
288,28,172200,1,8,0:0:0:0:
288,28,172340,6,0,P|200:52|104:28,1,190,4|0,0:0|0:0,0:0:0:0:
16,104,172759,2,0,L|20:236,1,95,8|0,0:0|0:0,0:0:0:0:
172,256,173038,2,0,L|168:124,1,95
40,352,173317,1,8,0:0:0:0:
40,352,173456,1,0,0:0:0:0:
288,368,173596,6,0,L|392:360,1,95,0|0,0:0|0:0,0:0:0:0:
172,256,173875,2,0,L|68:248,1,95,8|0,0:0|0:0,0:0:0:0:
340,208,174154,1,0,0:0:0:0:
268,280,174293,1,0,0:0:0:0:
208,84,174433,1,8,0:0:0:0:
408,128,174572,6,0,P|444:208|396:296,1,190,0|0,0:0|0:0,0:0:0:0:
196,352,174991,2,0,L|76:344,1,95,8|0,0:0|0:0,0:0:0:0:
160,140,175270,2,0,L|280:132,1,95
64,228,175549,1,8,0:0:0:0:
64,228,175689,1,0,0:0:0:0:
344,88,175828,6,0,P|344:184|272:232,1,190,4|8,0:0|0:0,0:0:0:0:
24,60,176247,2,0,L|224:48,1,190,4|0,0:0|0:0,0:0:0:0:
256,352,176666,1,8,0:0:0:0:
256,240,176805,1,0,0:0:0:0:
160,300,176945,6,0,L|108:296,3,47.5,4|0|0|0,0:0|0:0|0:0|0:0,0:0:0:0:
76,252,177224,2,0,L|24:248,3,47.5,4|0|0|0,0:0|0:0|0:0|0:0,0:0:0:0:
12,192,177503,5,0,0:0:0:0:
12,156,177572,1,0,0:0:0:0:
28,124,177642,1,0,0:0:0:0:
56,100,177712,1,0,0:0:0:0:
92,88,177782,1,4,0:0:0:0:
128,92,177852,1,0,0:0:0:0:
164,108,177921,1,0,0:0:0:0:
188,136,177991,1,0,0:0:0:0:
216,160,178061,5,0,0:0:0:0:
252,172,178131,1,0,0:0:0:0:
288,172,178200,1,0,0:0:0:0:
324,160,178270,1,0,0:0:0:0:
352,136,178340,1,4,0:0:0:0:
368,172,178410,1,0,0:0:0:0:
400,192,178479,1,0,0:0:0:0:
436,196,178549,1,0,0:0:0:0:
472,184,178619,5,0,0:0:0:0:
496,152,178689,1,0,0:0:0:0:
500,116,178759,1,0,0:0:0:0:
488,80,178828,1,0,0:0:0:0:
456,56,178898,1,4,0:0:0:0:
418,50,178968,1,0,0:0:0:0:
381,60,179038,1,0,0:0:0:0:
355,87,179107,1,0,0:0:0:0:
320,100,179177,6,0,P|295:103|269:99,3,47.5,0|0|0|0,0:0|0:0|0:0|0:0,0:0:0:0:
232,88,179456,1,4,0:0:0:0:
192,80,179526,1,0,0:0:0:0:
144,80,179596,1,0,0:0:0:0:
104,88,179666,1,0,0:0:0:0:
68,108,179735,5,0,0:0:0:0:
40,144,179805,1,0,0:0:0:0:
24,184,179875,1,0,0:0:0:0:
24,228,179945,1,0,0:0:0:0:
36,268,180014,1,4,0:0:0:0:
64,304,180084,1,0,0:0:0:0:
104,324,180154,2,0,P|132:332|156:332,1,47.5
256,328,180293,6,0,L|368:324,1,95,4|0,0:0|0:0,0:0:0:0:
428,240,180572,1,8,0:0:0:0:
312,48,180712,2,0,P|272:128|308:220,1,190,4|0,0:0|0:0,0:0:0:0:
388,136,181131,1,8,0:0:0:0:
180,100,181270,6,0,P|88:132|4:104,1,190,4|0,0:0|0:0,0:0:0:0:
256,53,181689,2,0,P|268:101|256:145,2,95,8|0|0,0:0|0:0|0:0,0:0:0:0:
92,16,182107,1,0,0:0:0:0:
92,16,182177,1,0,0:0:0:0:
92,16,182247,1,8,0:0:0:0:
4,152,182386,6,0,L|12:256,1,95
80,340,182666,1,0,0:0:0:0:
164,264,182805,2,0,P|212:256|264:264,1,95,8|0,0:0|0:0,0:0:0:0:
432,340,183084,2,0,P|384:348|332:340,2,95,0|0|8,0:0|0:0|0:0,0:0:0:0:
372,64,183503,6,0,P|340:148|376:236,1,190,0|0,0:0|0:0,0:0:0:0:
404,242,183852,1,0,0:0:0:0:
432,240,183921,1,8,0:0:0:0:
372,64,184061,2,0,L|248:56,1,95
184,192,184340,1,0,0:0:0:0:
280,320,184479,2,0,L|404:312,1,95,8|0,0:0|0:0,0:0:0:0:
476,96,184759,6,0,P|412:168|324:164,1,190,4|8,0:0|0:0,0:0:0:0:
116,28,185177,2,0,L|112:224,1,190,4|8,0:0|0:0,0:0:0:0:
20,288,185596,1,8,0:0:0:0:
20,288,185735,1,0,0:0:0:0:
256,348,185875,6,0,P|304:356|352:348,1,95,4|0,0:0|0:0,0:0:0:0:
404,248,186154,2,0,P|356:240|308:248,1,95,8|0,0:0|0:0,0:0:0:0:
468,348,186433,1,0,0:0:0:0:
508,196,186572,1,0,0:0:0:0:
508,196,186642,1,0,0:0:0:0:
508,196,186712,1,8,0:0:0:0:
352,164,186852,6,0,P|256:184|168:164,1,190,0|0,0:0|0:0,0:0:0:0:
120,60,187270,2,0,P|168:48|216:60,1,95,8|0,0:0|0:0,0:0:0:0:
216,268,187549,2,0,P|168:280|120:268,1,95
100,256,187759,1,0,0:0:0:0:
84,232,187828,1,8,0:0:0:0:
284,184,187968,6,0,P|324:264|284:352,1,190,0|0,0:0|0:0,0:0:0:0:
168,164,188386,2,0,P|156:116|168:72,2,95,8|0|0,0:0|0:0|0:0,0:0:0:0:
216,268,188805,1,0,0:0:0:0:
428,256,188945,2,0,L|526:251,1,95,8|0,0:0|0:0,0:0:0:0:
292,168,189224,5,4,0:0:0:0:
372,352,189363,1,0,0:0:0:0:
372,352,189433,1,0,0:0:0:0:
372,352,189503,1,8,0:0:0:0:
184,344,189642,2,0,L|72:336,2,95,4|0|0,0:0|0:0|0:0,0:0:0:0:
280,284,190061,1,8,0:0:0:0:
172,56,190200,6,0,P|140:140|172:232,1,190,4|0,0:0|0:0,0:0:0:0:
340,231,190619,2,0,P|352:184|340:136,2,95,8|0|0,0:0|0:0|0:0,0:0:0:0:
256,308,191038,1,0,0:0:0:0:
172,232,191177,2,0,L|64:224,1,95,8|0,0:0|0:0,0:0:0:0:
32,328,191456,6,0,L|140:320,1,95,0|0,0:0|0:0,0:0:0:0:
340,231,191735,2,0,P|352:184|340:136,1,95,8|0,0:0|0:0,0:0:0:0:
328,116,191945,1,0,0:0:0:0:
304,100,192014,2,0,L|108:92,1,190,0|8,0:0|0:0,0:0:0:0:
24,300,192433,6,0,L|220:292,1,190,0|0,0:0|0:0,0:0:0:0:
320,332,192852,2,0,L|432:328,1,95,8|0,0:0|0:0,0:0:0:0:
360,148,193131,2,0,P|348:196|360:240,1,95
408,56,193410,2,0,P|360:44|312:56,1,95,8|0,0:0|0:0,0:0:0:0:
500,108,193689,6,0,P|512:60|500:12,2,95,4|0|8,0:0|0:0|0:0,0:0:0:0:
404,272,194107,2,0,L|200:264,1,190,4|8,0:0|0:0,0:0:0:0:
128,340,194526,1,8,0:0:0:0:
12,228,194666,6,0,P|104:220|160:132,1,190,4|0,0:0|0:0,0:0:0:0:
52,28,195084,2,0,P|36:72|48:120,1,95,8|0,0:0|0:0,0:0:0:0:
264,192,195363,2,0,P|280:148|268:100,2,95,0|0|8,0:0|0:0|0:0,0:0:0:0:
172,260,195782,1,0,0:0:0:0:
176,56,195921,6,0,P|256:4|344:32,1,190,0|8,0:0|0:0,0:0:0:0:
436,92,196340,2,0,L|428:296,1,190
320,316,196759,1,8,0:0:0:0:
168,204,196898,6,0,P|256:232|344:200,1,190
64,156,197317,2,0,P|52:204|64:248,1,95,8|0,0:0|0:0,0:0:0:0:
156,316,197596,1,0,0:0:0:0:
156,92,197735,2,0,P|120:60|72:48,2,95,0|8|0,0:0|0:0|0:0,0:0:0:0:
352,204,198154,6,0,L|464:200,2,95,4|0|8,0:0|0:0|0:0,0:0:0:0:
160,204,198572,2,0,L|48:200,2,95,4|0|0,0:0|0:0|0:0,0:0:0:0:
348,308,198991,1,8,0:0:0:0:
168,96,199131,1,0,0:0:0:0:
168,96,199200,1,0,0:0:0:0:
168,96,199270,6,0,P|256:124|348:92,1,190,4|8,0:0|0:0,0:0:0:0:
84,12,199689,2,0,P|48:96|84:184,1,190,0|0,0:0|0:0,0:0:0:0:
428,184,200107,2,0,P|464:97|428:12,1,190,8|0,0:0|0:0,0:0:0:0:
344,94,200526,5,0,0:0:0:0:
384,304,200666,2,0,P|428:316|476:304,1,95,8|0,0:0|0:0,0:0:0:0:
256,212,200945,2,0,L|264:292,2,63.3333333333333,0|0|0,0:0|0:0|0:0,0:0:0:0:
164,168,201224,2,0,L|172:88,2,63.3333333333333,0|0|0,0:0|0:0|0:0,0:0:0:0:
68,208,201503,6,0,P|16:136|56:40,1,190,0|8,0:0|0:0,0:0:0:0:
160,24,201921,1,0,0:0:0:0:
212,124,202061,2,0,P|164:136|120:124,1,95
280,32,202340,2,0,P|328:20|372:32,1,95,8|0,0:0|0:0,0:0:0:0:
496,164,202619,6,0,L|492:268,1,95,4|8,0:0|0:0,0:0:0:0:
412,340,202898,1,8,0:0:0:0:
200,228,203038,2,0,P|288:256|384:228,1,190,4|0,0:0|0:0,0:0:0:0:
468,44,203456,1,0,0:0:0:0:
468,44,203526,1,0,0:0:0:0:
468,44,203596,1,0,0:0:0:0:
468,44,203666,1,0,0:0:0:0:
468,44,203735,6,0,P|380:16|284:44,1,190,4|8,0:0|0:0,0:0:0:0:
212,124,204154,1,0,0:0:0:0:
340,264,204293,2,0,P|364:224|368:168,1,95
142,176,204572,2,0,P|147:223|172:264,1,95,8|0,0:0|0:0,0:0:0:0:
340,360,204852,6,0,P|384:352|420:320,1,95
91,319,205131,2,0,P|125:350|172:360,1,95,8|0,0:0|0:0,0:0:0:0:
436,224,205410,2,0,L|440:120,1,95
468,52,205619,1,0,0:0:0:0:
468,52,205689,2,0,P|420:56|372:44,1,95,8|0,0:0|0:0,0:0:0:0:
216,72,205968,6,0,P|169:61|122:65,1,95
72,128,206177,1,0,0:0:0:0:
72,129,206247,2,0,L|76:224,1,95,8|0,0:0|0:0,0:0:0:0:
232,268,206526,2,0,L|228:173,1,95
128,336,206805,1,8,0:0:0:0:
128,336,206875,1,0,0:0:0:0:
128,336,206945,1,0,0:0:0:0:
320,352,207084,6,0,P|416:344|464:256,1,190,4|8,0:0|0:0,0:0:0:0:
352,156,207503,2,0,L|360:280,2,95,4|0|0,0:0|0:0|0:0,0:0:0:0:
440,84,207921,1,8,0:0:0:0:
256,32,208061,1,4,0:0:0:0:
256,32,208131,1,0,0:0:0:0:
256,32,208200,6,0,L|136:28,1,95,0|0,0:0|0:0,0:0:0:0:
120,136,208479,2,0,L|240:132,1,95,8|0,0:0|0:0,0:0:0:0:
8,92,208759,2,0,P|-4:140|8:184,1,95,0|0,0:0|0:0,0:0:0:0:
168,328,209038,2,0,P|180:280|168:236,1,95,8|0,0:0|0:0,0:0:0:0:
64,280,209317,5,0,0:0:0:0:
272,376,209456,1,0,0:0:0:0:
272,376,209526,1,0,0:0:0:0:
272,376,209596,1,8,0:0:0:0:
256,148,209735,2,0,P|344:160|424:96,1,190
316,52,210154,1,8,0:0:0:0:
332,264,210293,1,0,0:0:0:0:
332,264,210363,1,0,0:0:0:0:
332,264,210433,6,0,L|460:256,2,95,0|0|8,0:0|0:0|0:0,0:0:0:0:
180,184,210852,2,0,L|52:176,1,95,0|0,0:0|0:0,0:0:0:0:
332,104,211131,2,0,L|460:96,1,95,0|8,0:0|0:0,0:0:0:0:
180,24,211410,1,0,0:0:0:0:
180,24,211479,1,0,0:0:0:0:
180,24,211549,6,0,P|84:32|32:112,1,190,4|8,0:0|0:0,0:0:0:0:
140,228,211968,2,0,P|152:180|144:136,1,95,4|0,0:0|0:0,0:0:0:0:
40,304,212247,1,8,0:0:0:0:
156,368,212386,1,8,0:0:0:0:
256,280,212526,1,8,0:0:0:0:
356,368,212666,6,0,B|404:376|404:376|452:368,1,95,4|0,0:0|0:0,0:0:0:0:
396,184,212945,2,0,B|348:176|348:176|300:184,1,95,8|0,0:0|0:0,0:0:0:0:
472,272,213224,2,0,P|512:188|472:100,1,190,0|8,0:0|0:0,0:0:0:0:
364,84,213642,1,0,0:0:0:0:
256,204,213782,6,0,P|300:212|348:200,2,95,0|0|8,0:0|0:0|0:0,0:0:0:0:
152,156,214200,1,0,0:0:0:0:
72,240,214340,2,0,L|76:340,2,95,0|0|8,0:0|0:0|0:0,0:0:0:0:
0,68,214759,6,0,P|80:84|180:40,1,190
256,148,215177,1,8,0:0:0:0:
360,64,215317,1,0,0:0:0:0:
472,132,215456,2,0,L|468:256,1,95
444,304,215666,1,0,0:0:0:0:
444,304,215735,2,0,P|396:312|348:304,1,95,8|0,0:0|0:0,0:0:0:0:
172,184,216014,6,0,P|256:144|340:184,1,190,4|8,0:0|0:0,0:0:0:0:
161,304,216433,2,0,P|114:311|68:304,2,95,4|0|0,0:0|0:0|0:0,0:0:0:0:
256,240,216852,1,8,0:0:0:0:
444,304,216991,1,4,0:0:0:0:
444,304,217061,1,0,0:0:0:0:
444,304,217131,6,0,P|432:256|440:212,1,95
508,64,217410,2,0,P|428:96|344:48,1,190,8|0,0:0|0:0,0:0:0:0:
256,120,217828,1,0,0:0:0:0:
164,48,217968,1,8,0:0:0:0:
80,124,218107,6,0,L|76:196,5,63.3333333333333,0|0|0|0|0|0,0:0|0:0|0:0|0:0|0:0|0:0,0:0:0:0:
124,248,218666,5,0,0:0:0:0:
164,216,218759,1,0,0:0:0:0:
212,204,218852,1,0,0:0:0:0:
264,212,218945,1,0,0:0:0:0:
312,232,219038,1,0,0:0:0:0:
360,244,219131,1,0,0:0:0:0:
412,240,219224,1,0,0:0:0:0:
460,220,219317,1,0,0:0:0:0:
488,180,219410,1,0,0:0:0:0:
500,132,219503,1,0,0:0:0:0:
492,80,219596,1,0,0:0:0:0:
464,36,219689,1,0,0:0:0:0:
416,20,219782,2,0,P|392:16|364:20,1,47.5
288,44,219921,6,0,P|240:52|184:40,1,95,0|0,0:0|0:0,0:0:0:0:
36,8,220200,2,0,L|40:116,1,95,8|0,0:0|0:0,0:0:0:0:
152,352,220479,6,0,L|144:148,1,190,4|8,0:0|0:0,0:0:0:0:
367,162,220898,2,0,L|360:352,1,190,4|0,0:0|0:0,0:0:0:0:
256,308,221317,1,8,0:0:0:0:
256,308,221456,1,8,0:0:0:0:
452,220,221596,6,0,L|448:328,1,95,4|0,0:0|0:0,0:0:0:0:
256,220,221875,2,0,L|256:168,2,47.5,8|0|0,0:0|0:0|0:0,0:0:0:0:
63,314,222154,2,0,L|60:220,1,95,0|0,0:0|0:0,0:0:0:0:
16,64,222433,1,8,0:0:0:0:
43,72,222503,1,0,0:0:0:0:
71,75,222572,1,0,0:0:0:0:
99,71,222642,1,0,0:0:0:0:
126,64,222712,6,0,B|224:36|224:88|312:64,1,190,0|8,0:0|0:0,0:0:0:0:
416,20,223131,1,0,0:0:0:0:
500,156,223270,2,0,P|500:184|492:208,3,47.5,0|0|0|0,0:0|0:0|0:0|0:0,0:0:0:0:
480,228,223549,1,8,0:0:0:0:
460,248,223619,1,0,0:0:0:0:
436,260,223689,1,0,0:0:0:0:
408,268,223759,1,0,0:0:0:0:
380,268,223828,6,0,L|264:256,1,95,0|0,0:0|0:0,0:0:0:0:
132,312,224107,2,0,L|72:304,2,47.5,8|0|0,0:0|0:0|0:0,0:0:0:0:
176,208,224386,2,0,L|172:84,1,95
64,76,224666,2,0,L|67:170,1,95,8|0,0:0|0:0,0:0:0:0:
285,258,224945,6,0,L|488:252,1,190,4|8,0:0|0:0,0:0:0:0:
227,172,225363,2,0,L|24:166,1,190,4|0,0:0|0:0,0:0:0:0:
275,83,225782,1,8,0:0:0:0:
285,271,225921,6,0,L|488:265,1,190,4|0,0:0|0:0,0:0:0:0:
416,168,226340,2,0,L|316:172,1,95,8|0,0:0|0:0,0:0:0:0:
256,368,226619,2,0,L|316:364,2,47.5,0|0|0,0:0|0:0|0:0,0:0:0:0:
148,240,226898,2,0,P|136:192|148:144,1,95,8|0,0:0|0:0,0:0:0:0:
256,192,227177,5,0,0:0:0:0:
256,192,227317,1,0,0:0:0:0:
366,148,227456,2,0,P|375:194|364:240,1,95,8|0,0:0|0:0,0:0:0:0:
324,312,227666,1,0,0:0:0:0:
324,312,227735,2,0,L|208:308,1,95
72,356,228014,1,8,0:0:0:0:
8,208,228154,6,0,P|96:240|184:208,1,190
344,68,228572,2,0,P|256:36|168:68,1,190,8|0,0:0|0:0,0:0:0:0:
328,208,228991,2,0,P|376:216|424:208,2,95,0|8|0,0:0|0:0|0:0,0:0:0:0:
120,160,229410,6,0,L|116:272,1,95,4|0,0:0|0:0,0:0:0:0:
28,324,229689,1,8,0:0:0:0:
31,88,229828,2,0,P|111:44|199:80,1,190,4|8,0:0|0:0,0:0:0:0:
236,188,230247,1,8,0:0:0:0:
344,152,230386,5,4,0:0:0:0:
380,139,230456,1,0,0:0:0:0:
420,140,230526,1,0,0:0:0:0:
456,156,230596,1,0,0:0:0:0:
484,184,230666,1,0,0:0:0:0:
496,220,230735,1,0,0:0:0:0:
492,256,230805,1,4,0:0:0:0:
476,292,230875,1,0,0:0:0:0:
448,316,230945,6,0,L|392:308,3,47.5,0|0|0|0,0:0|0:0|0:0|0:0,0:0:0:0:
360,320,231224,2,0,L|308:312,3,47.5,0|0|4|0,0:0|0:0|0:0|0:0,0:0:0:0:
280,332,231503,6,0,L|224:324,3,47.5,0|0|0|0,0:0|0:0|0:0|0:0,0:0:0:0:
192,336,231782,2,0,L|140:328,3,47.5,0|0|4|0,0:0|0:0|0:0|0:0,0:0:0:0:
108,340,232061,5,0,0:0:0:0:
72,336,232131,1,0,0:0:0:0:
40,316,232200,1,0,0:0:0:0:
24,280,232270,1,0,0:0:0:0:
28,240,232340,1,0,0:0:0:0:
56,212,232410,1,0,0:0:0:0:
92,204,232479,1,4,0:0:0:0:
128,216,232549,1,0,0:0:0:0:
164,220,232619,1,0,0:0:0:0:
200,216,232689,1,0,0:0:0:0:
232,196,232759,5,0,0:0:0:0:
256,164,232828,1,0,0:0:0:0:
264,128,232898,1,0,0:0:0:0:
260,92,232968,1,0,0:0:0:0:
240,60,233038,1,4,0:0:0:0:
212,36,233107,1,0,0:0:0:0:
176,28,233177,1,0,0:0:0:0:
136,28,233247,1,0,0:0:0:0:
100,44,233317,5,0,0:0:0:0:
72,68,233386,1,0,0:0:0:0:
60,104,233456,1,0,0:0:0:0:
64,144,233526,1,0,0:0:0:0:
76,180,233596,2,0,P|80:216|72:240,3,47.5,4|0|0|0,0:0|0:0|0:0|0:0,0:0:0:0:
60,304,233875,6,0,L|172:296,1,95,4|0,0:0|0:0,0:0:0:0:
256,348,234154,1,8,0:0:0:0:
428,228,234293,2,0,P|344:264|256:228,1,190,4|0,0:0|0:0,0:0:0:0:
339,53,234712,2,0,P|351:105|339:145,1,95,8|4,0:0|0:0,0:0:0:0:
156,296,234991,6,0,L|44:288,1,95,0|0,0:0|0:0,0:0:0:0:
16,184,235270,1,4,0:0:0:0:
52,192,235340,1,0,0:0:0:0:
88,188,235410,1,0,0:0:0:0:
124,176,235479,1,0,0:0:0:0:
152,152,235549,6,0,P|168:128|172:100,3,47.5,0|0|0|0,0:0|0:0|0:0|0:0,0:0:0:0:
192,76,235828,2,0,P|204:52|220:40,3,47.5,4|0|0|0,0:0|0:0|0:0|0:0,0:0:0:0:
256,28,236107,5,0,0:0:0:0:
292,24,236177,1,0,0:0:0:0:
328,32,236247,1,0,0:0:0:0:
364,52,236317,1,0,0:0:0:0:
388,80,236386,1,4,0:0:0:0:
400,116,236456,1,0,0:0:0:0:
396,156,236526,1,0,0:0:0:0:
384,188,236596,1,0,0:0:0:0:
352,212,236666,5,0,0:0:0:0:
316,224,236735,1,0,0:0:0:0:
276,224,236805,1,0,0:0:0:0:
244,212,236875,1,0,0:0:0:0:
212,188,236945,1,4,0:0:0:0:
180,168,237014,1,0,0:0:0:0:
144,160,237084,1,0,0:0:0:0:
108,160,237154,1,0,0:0:0:0:
72,176,237224,6,0,L|68:292,1,95
200,364,237503,1,4,0:0:0:0:
232,344,237572,1,0,0:0:0:0:
268,340,237642,1,0,0:0:0:0:
304,344,237712,1,0,0:0:0:0:
340,360,237782,5,0,0:0:0:0:
376,372,237852,1,0,0:0:0:0:
412,376,237921,1,0,0:0:0:0:
448,364,237991,1,0,0:0:0:0:
476,340,238061,2,0,P|484:316|488:288,3,47.5,4|0|0|0,0:0|0:0|0:0|0:0,0:0:0:0:
496,212,238340,6,0,L|492:92,1,95,4|8,0:0|0:0,0:0:0:0:
400,52,238619,1,8,0:0:0:0:
204,160,238759,2,0,P|292:192|384:160,1,190,4|8,0:0|0:0,0:0:0:0:
292,0,239177,2,0,P|280:48|292:92,1,95,8|0,0:0|0:0,0:0:0:0:
380,254,239456,6,0,P|392:206|380:162,2,95,4|0|8,0:0|0:0|0:0,0:0:0:0:
300,336,239875,2,0,L|104:332,1,190,0|0,0:0|0:0,0:0:0:0:
40,244,240293,2,0,P|28:196|40:152,1,95,8|0,0:0|0:0,0:0:0:0:
180,68,240572,6,0,L|60:64,2,95,0|0|8,0:0|0:0|0:0,0:0:0:0:
256,152,240991,1,0,0:0:0:0:
360,108,241131,2,0,P|372:152|360:200,1,95
151,199,241410,2,0,P|139:153|152:108,1,95,8|0,0:0|0:0,0:0:0:0:
384,4,241689,6,0,P|460:64|456:156,1,190,0|8,0:0|0:0,0:0:0:0:
368,220,242107,1,0,0:0:0:0:
172,132,242247,2,0,P|160:88|172:40,1,95
340,40,242526,2,0,P|352:86|340:132,1,95,8|0,0:0|0:0,0:0:0:0:
144,220,242805,6,0,L|32:216,2,95,0|0|8,0:0|0:0|0:0,0:0:0:0:
372,304,243224,2,0,L|484:300,2,95,0|0|0,0:0|0:0|0:0,0:0:0:0:
256,264,243642,2,0,P|248:312|264:360,1,95,8|0,0:0|0:0,0:0:0:0:
456,208,243921,6,0,P|464:160|448:112,2,95,0|0|8,0:0|0:0|0:0,0:0:0:0:
256,264,244340,2,0,L|40:256,1,190
112,360,244759,2,0,L|216:364,1,95,8|0,0:0|0:0,0:0:0:0:
210,155,245038,6,0,L|106:151,1,95,0|0,0:0|0:0,0:0:0:0:
302,198,245317,2,0,P|314:152|302:107,1,95,8|0,0:0|0:0,0:0:0:0:
115,60,245596,2,0,P|103:105|115:151,1,95
302,199,245875,2,0,L|406:195,1,95,8|0,0:0|0:0,0:0:0:0:
208,280,246154,6,0,L|16:268,1,190,0|8,0:0|0:0,0:0:0:0:
304,352,246572,2,0,L|496:340,1,190,0|0,0:0|0:0,0:0:0:0:
512,228,246991,1,8,0:0:0:0:
512,228,247131,1,0,0:0:0:0:
400,112,247270,6,0,L|396:228,1,95,0|0,0:0|0:0,0:0:0:0:
360,20,247549,2,0,P|408:12|460:28,1,95,8|0,0:0|0:0,0:0:0:0:
164,296,247828,2,0,P|118:307|71:299,1,95
108,112,248107,2,0,L|111:206,1,95,8|0,0:0|0:0,0:0:0:0:
392,304,248386,6,0,L|456:300,2,47.5,4|0|0,0:0|0:0|0:0,0:0:0:0:
112,208,248666,2,0,L|48:204,2,47.5,8|0|0,0:0|0:0|0:0,0:0:0:0:
392,116,248945,2,0,L|456:112,2,47.5,4|0|0,0:0|0:0|0:0,0:0:0:0:
112,20,249224,2,0,L|48:16,2,47.5,8|0|0,0:0|0:0|0:0,0:0:0:0:
256,272,249503,5,0,0:0:0:0:
256,112,249642,1,0,0:0:0:0:
396,196,249782,1,8,0:0:0:0:
204,192,249921,1,0,0:0:0:0:
344,112,250061,1,0,0:0:0:0:
348,272,250200,1,0,0:0:0:0:
112,236,250340,2,0,P|100:192|112:144,1,95,8|0,0:0|0:0,0:0:0:0:
120,324,250619,6,0,L|48:320,2,47.5,4|0|0,0:0|0:0|0:0,0:0:0:0:
124,56,250898,2,0,L|128:-16,2,47.5,8|0|0,0:0|0:0|0:0,0:0:0:0:
392,60,251177,2,0,L|464:64,2,47.5,4|0|0,0:0|0:0|0:0,0:0:0:0:
388,328,251456,2,0,L|384:400,2,47.5,8|0|0,0:0|0:0|0:0,0:0:0:0:
168,348,251735,5,0,0:0:0:0:
168,156,251875,1,0,0:0:0:0:
284,304,252014,1,8,0:0:0:0:
100,252,252154,1,0,0:0:0:0:
348,128,252293,1,0,0:0:0:0:
164,72,252433,1,0,0:0:0:0:
284,304,252572,2,0,L|400:296,1,95,8|0,0:0|0:0,0:0:0:0:
228,232,252852,5,4,0:0:0:0:
195,229,252921,1,0,0:0:0:0:
161,227,252991,1,0,0:0:0:0:
284,164,253131,1,8,0:0:0:0:
317,161,253200,1,0,0:0:0:0:
351,159,253270,1,0,0:0:0:0:
224,96,253410,1,4,0:0:0:0:
191,93,253479,1,0,0:0:0:0:
157,91,253549,1,0,0:0:0:0:
280,28,253689,1,8,0:0:0:0:
313,25,253759,1,0,0:0:0:0:
347,23,253828,1,0,0:0:0:0:
48,132,253968,6,0,P|36:84|48:40,1,95
96,224,254247,2,0,P|48:236|4:224,1,95,8|0,0:0|0:0,0:0:0:0:
153,128,254526,2,0,P|199:116|244:128,1,95,0|0,0:0|0:0,0:0:0:0:
196,312,254805,2,0,P|184:266|196:220,1,95,8|0,0:0|0:0,0:0:0:0:
445,69,255084,6,0,L|507:61,2,47.5,4|0|0,0:0|0:0|0:0,0:0:0:0:
291,135,255363,2,0,L|229:127,2,47.5,8|0|0,0:0|0:0|0:0,0:0:0:0:
440,204,255642,1,4,0:0:0:0:
437,227,255712,1,0,0:0:0:0:
436,251,255782,1,0,0:0:0:0:
320,360,255921,1,8,0:0:0:0:
318,336,255991,1,0,0:0:0:0:
316,312,256061,1,0,0:0:0:0:
204,180,256200,5,4,0:0:0:0:
203,203,256270,1,0,0:0:0:0:
202,227,256340,1,0,0:0:0:0:
200,251,256410,1,0,0:0:0:0:
197,274,256479,5,8,0:0:0:0:
164,304,256549,1,0,0:0:0:0:
120,308,256619,1,0,0:0:0:0:
76,300,256689,1,0,0:0:0:0:
44,268,256759,5,0,0:0:0:0:
32,228,256828,1,0,0:0:0:0:
40,184,256898,1,0,0:0:0:0:
68,152,256968,1,0,0:0:0:0:
108,140,257038,2,0,L|168:136,3,47.5,8|0|0|0,0:0|0:0|0:0|0:0,0:0:0:0:
204,72,257317,5,4,0:0:0:0:
244,84,257386,1,0,0:0:0:0:
288,84,257456,1,0,0:0:0:0:
328,72,257526,1,0,0:0:0:0:
364,48,257596,1,8,0:0:0:0:
408,40,257666,1,0,0:0:0:0:
448,44,257735,1,0,0:0:0:0:
484,68,257805,1,0,0:0:0:0:
508,104,257875,5,0,0:0:0:0:
512,152,257945,1,0,0:0:0:0:
496,192,258014,1,0,0:0:0:0:
468,224,258084,1,0,0:0:0:0:
428,236,258154,2,0,L|380:232,3,47.5,8|0|0|0,0:0|0:0|0:0|0:0,0:0:0:0:
308,272,258433,5,4,0:0:0:0:
248,260,258526,2,0,P|216:256|184:260,1,63.3333333333333
44,344,258712,1,4,0:0:0:0:
40,280,258805,2,0,L|36:204,1,63.3333333333333
20,44,258991,5,8,0:0:0:0:
40,48,259084,1,0,0:0:0:0:
60,52,259177,1,0,0:0:0:0:
80,56,259270,1,8,0:0:0:0:
100,60,259363,1,0,0:0:0:0:
120,64,259456,1,0,0:0:0:0:
140,68,259549,6,0,L|312:64,1,165.300001387253,4|8,0:0|0:0,0:0:0:0:
396,20,259968,1,0,0:0:0:0:
432,156,260107,2,0,L|428:240,2,82.6500006936264,0|0|8,0:0|0:0|0:0,0:0:0:0:
492,312,260526,6,0,P|416:336|348:292,1,165.300001387253,4|0,0:0|0:0,0:0:0:0:
256,184,260945,2,0,L|344:180,1,82.6500006936264,8|0,0:0|0:0,0:0:0:0:
168,224,261224,2,0,P|160:184|168:144,1,82.6500006936264
252,88,261503,1,8,0:0:0:0:
248,276,261642,6,0,P|184:320|104:296,1,165.300001387253,4|0,0:0|0:0,0:0:0:0:
72,204,262061,2,0,L|-12:200,2,82.6500006936264,8|0|0,0:0|0:0|0:0,0:0:0:0:
140,136,262479,1,0,0:0:0:0:
140,136,262619,1,8,0:0:0:0:
48,32,262759,6,0,P|128:48|200:12,1,165.300001387253,4|0,0:0|0:0,0:0:0:0:
300,108,263177,2,0,L|208:104,1,82.6500006936264,8|0,0:0|0:0,0:0:0:0:
384,68,263456,2,0,P|392:108|384:148,1,82.6500006936264
264,276,263735,2,0,P|256:236|264:196,1,82.6500006936264,8|0,0:0|0:0,0:0:0:0:
348,312,264014,6,0,P|280:368|204:348,1,165.300001387253,4|8,0:0|0:0,0:0:0:0:
164,264,264433,1,0,0:0:0:0:
428,272,264572,2,0,P|436:312|428:352,2,82.6500006936264,0|0|8,0:0|0:0|0:0,0:0:0:0:
304,164,264991,6,0,L|484:156,1,165.300001387253,4|0,0:0|0:0,0:0:0:0:
216,204,265410,2,0,P|207:163|215:123,2,82.6500006936264,8|0|0,0:0|0:0|0:0,0:0:0:0:
300,260,265828,1,0,0:0:0:0:
300,260,265968,1,8,0:0:0:0:
300,72,266107,6,0,P|236:28|156:48,1,165.300001387253,4|0,0:0|0:0,0:0:0:0:
52,144,266526,2,0,L|60:252,1,82.6500006936264,8|0,0:0|0:0,0:0:0:0:
192,272,266805,2,0,L|184:164,1,82.6500006936264
80,360,267084,1,8,0:0:0:0:
288,372,267224,6,0,L|460:360,1,165.300001387253,4|0,0:0|0:0,0:0:0:0:
504,256,267642,1,8,0:0:0:0:
504,256,267782,1,0,0:0:0:0:
384,204,267921,1,8,0:0:0:0:
384,204,268061,1,0,0:0:0:0:
496,108,268200,1,8,0:0:0:0:
496,108,268340,1,0,0:0:0:0:
344,44,268479,6,0,L|168:40,1,165.300001387253,4|0,0:0|0:0,0:0:0:0:
88,84,268898,2,0,P|64:160|88:240,1,165.300001387253,2|0,0:0|0:0,0:0:0:0:
184,280,269317,2,0,P|192:240|184:200,1,82.6500006936264,8|0,0:0|0:0,0:0:0:0:
108,341,269596,6,0,P|180:373|260:341,1,165.300001387253,2|0,0:0|0:0,0:0:0:0:
328,280,270014,2,0,L|336:96,1,165.300001387253,2|0,0:0|0:0,0:0:0:0:
420,168,270433,2,0,L|416:284,1,82.6500006936264,8|0,0:0|0:0,0:0:0:0:
184,280,270712,6,0,L|176:96,1,165.300001387253,2|0,0:0|0:0,0:0:0:0:
168,16,271131,2,0,P|96:56|88:152,1,165.300001387253,2|0,0:0|0:0,0:0:0:0:
272,208,271549,2,0,L|356:204,1,82.6500006936264,8|0,0:0|0:0,0:0:0:0:
240,324,271828,6,0,L|64:316,1,165.300001387253,2|0,0:0|0:0,0:0:0:0:
272,208,272247,2,0,L|448:200,1,165.300001387253,2|2,0:0|0:0,0:0:0:0:
188,168,272666,2,0,P|180:208|188:248,1,82.6500006936264,8|0,0:0|0:0,0:0:0:0:
264,112,272945,6,0,P|200:76|116:108,1,165.300001387253,2|0,0:0|0:0,0:0:0:0:
60,184,273363,2,0,L|72:352,1,165.300001387253,2|0,0:0|0:0,0:0:0:0:
172,364,273782,1,8,0:0:0:0:
172,364,273921,1,0,0:0:0:0:
336,248,274061,6,0,P|256:272|180:248,1,165.300001387253,2|0,0:0|0:0,0:0:0:0:
156,152,274479,2,0,L|160:64,2,82.6500006936264,2|0|0,0:0|0:0|0:0,0:0:0:0:
60,184,274898,1,8,0:0:0:0:
60,184,275038,1,0,0:0:0:0:
256,120,275177,6,0,P|332:140|416:120,1,165.300001387253,2|0,0:0|0:0,0:0:0:0:
456,192,275596,2,0,P|400:247|376:330,1,165.300001387253,2|0,0:0|0:0,0:0:0:0:
292,332,276014,2,0,P|284:288|260:252,1,82.6500006936264,8|0,0:0|0:0,0:0:0:0:
68,184,276293,6,0,L|164:180,1,82.6500006936264,2|0,0:0|0:0,0:0:0:0:
204,324,276572,2,0,L|108:320,1,82.6500006936264,8|0,0:0|0:0,0:0:0:0:
256,140,276852,2,0,P|264:180|256:220,1,82.6500006936264,2|0,0:0|0:0,0:0:0:0:
168,72,277131,1,8,0:0:0:0:
168,72,277270,1,8,0:0:0:0:
331,284,277410,6,0,P|258:316|184:284,1,165.300001387253,6|0,0:0|0:0,0:0:0:0:
416,244,277828,2,0,P|424:288|416:324,2,82.6500006936264,2|0|0,0:0|0:0|0:0,0:0:0:0:
296,52,278247,1,8,0:0:0:0:
308,64,278526,6,0,L|476:56,1,165.300001387253,2|0,0:0|0:0,0:0:0:0:
208,108,278945,2,0,L|108:100,2,82.6500006936264,2|0|0,0:0|0:0|0:0,0:0:0:0:
416,200,279363,1,8,0:0:0:0:
432,204,279642,6,0,L|424:372,1,165.300001387253,2|0,0:0|0:0,0:0:0:0:
400,120,280061,2,0,P|440:116|480:128,2,82.6500006936264,2|0|0,0:0|0:0|0:0,0:0:0:0:
96,200,280479,1,8,0:0:0:0:
80,204,280759,6,0,L|88:372,1,165.300001387253,2|0,0:0|0:0,0:0:0:0:
112,120,281177,2,0,P|72:116|32:128,2,82.6500006936264,2|0|2,0:0|0:0|0:0,0:0:0:0:
256,272,281596,1,8,0:0:0:0:
268,284,281875,6,0,L|364:280,2,82.6500006936264,2|0|0,0:0|0:0|0:0,0:0:0:0:
408,208,282293,2,0,P|444:280|408:352,1,165.300001387253,2|0,0:0|0:0,0:0:0:0:
316,192,282712,1,8,0:0:0:0:
300,184,282991,6,0,L|204:180,2,82.6500006936264,2|0|0,0:0|0:0|0:0,0:0:0:0:
160,108,283410,2,0,P|124:180|160:252,1,165.300001387253,2|0,0:0|0:0,0:0:0:0:
256,96,283828,1,8,0:0:0:0:
272,88,284107,6,0,L|364:92,1,82.6500006936264,6|2,0:0|0:0,0:0:0:0:
512,172,284386,2,0,L|420:176,1,82.6500006936264,2|2,0:0|0:0,0:0:0:0:
436,12,284666,2,0,L|432:104,1,82.6500006936264,2|2,0:0|0:0,0:0:0:0:
352,252,284945,2,0,L|348:160,1,82.6500006936264,2|2,0:0|0:0,0:0:0:0:
76,12,285224,6,0,L|80:104,1,82.6500006936264,2|2,0:0|0:0,0:0:0:0:
160,252,285503,2,0,L|164:160,1,82.6500006936264,2|2,0:0|0:0,0:0:0:0:
0,172,285782,2,0,L|92:176,1,82.6500006936264,2|2,0:0|0:0,0:0:0:0:
240,88,286061,2,0,L|148:92,1,82.6500006936264,2|2,0:0|0:0,0:0:0:0:
256,341,286340,5,6,0:0:0:0:
256,201,286479,1,8,0:0:0:0:
256,201,286549,1,0,0:0:0:0:
256,201,286619,1,8,0:0:0:0:
376,272,286759,1,0,0:0:0:0:
136,272,286898,2,0,P|120:232|120:188,1,82.6500006936264,2|2,0:0|0:0,0:0:0:0:
392,192,287177,2,0,P|391:233|376:272,1,82.6500006936264,8|0,0:0|0:0,0:0:0:0:
136,108,287456,5,4,0:0:0:0:
256,32,287596,1,4,0:0:0:0:
376,108,287735,1,4,0:0:0:0:
136,108,288014,6,0,L|128:12,1,82.6500006936264,0|0,0:0|0:0,0:0:0:0:
382,25,288293,2,0,L|376:108,1,82.6500006936264,0|0,0:0|0:0,0:0:0:0:
256,256,288572,5,2,0:0:0:0:
188,80,297503,6,0,P|256:92|332:80,1,142.500005435944,2|0,0:0|0:0,0:0:0:0:
408,56,297921,1,0,0:0:0:0:
476,108,298061,2,0,L|472:200,1,71.2500027179719,0|0,0:0|0:0,0:0:0:0:
392,212,298340,2,0,L|395:140,1,71.2500027179719,0|0,0:0|0:0,0:0:0:0:
464,268,298619,6,0,P|396:304|332:280,1,142.500005435944,2|0,0:0|0:0,0:0:0:0:
296,208,299038,1,0,0:0:0:0:
224,252,299177,2,0,L|128:248,1,71.2500027179719,0|0,0:0|0:0,0:0:0:0:
116,172,299456,2,0,L|187:174,1,71.2500027179719,0|0,0:0|0:0,0:0:0:0:
64,240,299735,6,0,P|32:168|56:112,1,142.500005435944,2|0,0:0|0:0,0:0:0:0:
116,52,300154,1,0,0:0:0:0:
200,36,300293,2,0,L|352:40,1,142.500005435944,0|0,0:0|0:0,0:0:0:0:
456,120,300712,2,0,L|452:208,1,71.2500027179719,0|0,0:0|0:0,0:0:0:0:
340,240,300991,2,0,L|343:168,1,71.2500027179719
432,312,301270,2,0,P|372:352|300:348,1,142.500005435944,0|0,0:0|0:0,0:0:0:0:
240,292,301689,1,0,0:0:0:0:
240,292,301828,1,0,0:0:0:0:
60,344,301968,6,0,L|52:184,1,142.500005435944,2|0,0:0|0:0,0:0:0:0:
108,136,302386,1,0,0:0:0:0:
192,152,302526,2,0,B|204:188|192:224,2,71.2500027179719,0|0|0,0:0|0:0|0:0,0:0:0:0:
124,52,302945,6,0,P|192:68|264:48,1,142.500005435944,2|0,0:0|0:0,0:0:0:0:
332,100,303363,2,0,P|368:92|404:100,1,71.2500027179719,0|0,0:0|0:0,0:0:0:0:
456,164,303642,2,0,L|452:256,2,71.2500027179719,0|0|0,0:0|0:0|0:0,0:0:0:0:
496,88,304061,1,2,0:0:0:0:
368,180,304200,6,0,L|276:176,1,71.2500027179719,2|0,0:0|0:0,0:0:0:0:
144,248,304479,2,0,L|236:244,1,71.2500027179719,2|0,0:0|0:0,0:0:0:0:
220,96,304759,2,0,L|224:188,1,71.2500027179719,2|0,0:0|0:0,0:0:0:0:
288,320,305038,2,0,L|292:228,1,71.2500027179719,2|0,0:0|0:0,0:0:0:0:
292,34,305317,5,4,0:0:0:0:
220,96,305875,6,0,P|176:104|136:96,1,82.6500006936264
292,34,306154,2,0,P|336:26|376:34,1,82.6500006936264
476,132,306433,6,4,L|472:328,1,190,4|8,0:0|0:0,0:0:0:0:
368,364,306852,1,0,0:0:0:0:
236,272,306991,2,0,P|280:264|332:272,1,95
144,320,307270,2,0,P|136:276|144:224,1,95,8|0,0:0|0:0,0:0:0:0:
204,76,307549,6,0,P|140:136|40:124,1,190,0|8,0:0|0:0,0:0:0:0:
96,24,307968,1,0,0:0:0:0:
332,56,308107,2,0,L|328:176,1,95
180,328,308386,2,0,L|184:208,1,95,8|0,0:0|0:0,0:0:0:0:
444,136,308666,6,0,P|416:236|344:272,1,190,0|8,0:0|0:0,0:0:0:0:
256,200,309084,1,0,0:0:0:0:
332,56,309224,2,0,L|448:52,2,95,0|0|0,0:0|0:0|0:0,0:0:0:0:
180,108,309642,6,0,L|64:104,1,95,4|0,0:0|0:0,0:0:0:0:
12,32,309921,1,0,0:0:0:0:
12,32,310061,1,8,0:0:0:0:
256,56,310200,2,0,P|264:148|192:200,1,190,4|0,0:0|0:0,0:0:0:0:
88,192,310619,1,8,0:0:0:0:
312,328,310759,6,0,L|424:324,2,95,4|0|0,0:0|0:0|0:0,0:0:0:0:
356,92,311177,2,0,P|368:137|356:183,1,95,8|0,0:0|0:0,0:0:0:0:
156,184,311456,2,0,P|144:138|156:92,1,95,8|0,0:0|0:0,0:0:0:0:
256,140,311735,1,8,0:0:0:0:
192,288,311875,6,0,L|96:284,2,95,4|0|0,0:0|0:0|0:0,0:0:0:0:
356,184,312293,1,8,0:0:0:0:
156,184,312433,1,0,0:0:0:0:
320,288,312572,1,8,0:0:0:0:
236,24,312712,1,0,0:0:0:0:
48,228,312852,1,8,0:0:0:0:
320,288,312991,6,0,P|388:288|464:200,1,190,4|0,0:0|0:0,0:0:0:0:
348,88,313410,2,0,L|356:188,2,95,8|0|0,0:0|0:0|0:0,0:0:0:0:
444,28,313828,1,0,0:0:0:0:
444,28,313968,1,8,0:0:0:0:
248,208,314107,6,0,P|160:236|72:192,1,190,4|0,0:0|0:0,0:0:0:0:
168,28,314526,2,0,P|180:72|168:120,1,95,8|0,0:0|0:0,0:0:0:0:
79,290,314805,2,0,L|75:186,1,95,8|0,0:0|0:0,0:0:0:0:
342,120,315084,1,0,0:0:0:0:
342,120,315154,1,0,0:0:0:0:
342,120,315224,6,0,L|336:320,1,190,4|0,0:0|0:0,0:0:0:0:
236,260,315642,2,0,L|240:144,1,95,8|0,0:0|0:0,0:0:0:0:
440,84,315921,2,0,L|436:178,1,95
244,368,316200,2,0,P|196:364|156:336,1,95,8|0,0:0|0:0,0:0:0:0:
200,104,316479,6,0,P|112:156|28:128,1,190,0|8,0:0|0:0,0:0:0:0:
104,44,316898,1,0,0:0:0:0:
320,56,317038,2,0,P|332:108|320:148,1,95
160,312,317317,2,0,P|148:260|160:220,1,95,8|0,0:0|0:0,0:0:0:0:
372,272,317596,6,0,L|260:268,1,95
108,108,317875,2,0,L|220:104,1,95,8|0,0:0|0:0,0:0:0:0:
460,228,318154,2,0,P|472:276|460:320,2,95,0|0|8,0:0|0:0|0:0,0:0:0:0:
312,72,318572,6,0,L|416:68,1,95,4|0,0:0|0:0,0:0:0:0:
512,24,318852,1,0,0:0:0:0:
512,24,318991,1,8,0:0:0:0:
408,192,319131,2,0,L|304:188,1,95,4|0,0:0|0:0,0:0:0:0:
208,144,319410,1,0,0:0:0:0:
208,144,319549,1,8,0:0:0:0:
464,112,319689,6,0,P|504:208|456:276,1,190,4|0,0:0|0:0,0:0:0:0:
152,230,320107,2,0,L|144:126,1,95,8|0,0:0|0:0,0:0:0:0:
368,136,320386,2,0,L|360:230,1,95,8|0,0:0|0:0,0:0:0:0:
256,40,320666,1,8,0:0:0:0:
256,40,320805,5,4,0:0:0:0:
256,192,320875,12,4,322061,0:0:0:0:
256,116,322340,6,0,P|296:120|340:116,1,82.6500006936264,8|0,0:0|0:0,0:0:0:0:
428,72,322619,2,0,L|424:168,2,82.6500006936264,0|0|8,0:0|0:0|0:0,0:0:0:0:
496,224,323038,6,0,P|416:252|344:212,1,165.300001387253,4|0,0:0|0:0,0:0:0:0:
212,248,323456,2,0,P|172:240|128:248,2,82.6500006936264,8|0|0,0:0|0:0|0:0,0:0:0:0:
312,348,323875,1,0,0:0:0:0:
312,348,324014,1,8,0:0:0:0:
92,344,324154,6,0,P|40:296|44:192,1,165.300001387253,4|0,0:0|0:0,0:0:0:0:
168,160,324572,2,0,P|176:200|168:240,2,82.6500006936264,8|0|0,0:0|0:0|0:0,0:0:0:0:
60,72,324991,1,0,0:0:0:0:
60,72,325131,1,8,0:0:0:0:
256,208,325270,6,0,P|336:208|388:144,1,165.300001387253,4|0,0:0|0:0,0:0:0:0:
296,40,325689,2,0,P|288:80|296:120,1,82.6500006936264,8|0,0:0|0:0,0:0:0:0:
472,188,325968,2,0,P|480:148|472:108,1,82.6500006936264,0|0,0:0|0:0,0:0:0:0:
336,316,326247,2,0,L|440:312,1,82.6500006936264,8|0,0:0|0:0,0:0:0:0:
256,184,326526,6,0,L|140:180,1,82.6500006936264,4|0,0:0|0:0,0:0:0:0:
336,144,326805,2,0,P|348:184|336:228,1,82.6500006936264,8|0,0:0|0:0,0:0:0:0:
296,64,327084,2,0,P|336:52|380:64,2,82.6500006936264,0|0|8,0:0|0:0|0:0,0:0:0:0:
432,148,327503,6,0,P|476:64|456:0,1,165.300001387253,4|0,0:0|0:0,0:0:0:0:
296,64,327921,2,0,L|300:176,1,82.6500006936264,8|0,0:0|0:0,0:0:0:0:
364,272,328200,2,0,P|404:280|448:272,2,82.6500006936264,0|0|8,0:0|0:0|0:0,0:0:0:0:
204,136,328619,6,0,P|120:148|84:216,1,165.300001387253,4|0,0:0|0:0,0:0:0:0:
184,312,329038,2,0,L|180:208,1,82.6500006936264,8|0,0:0|0:0,0:0:0:0:
168,44,329317,1,0,0:0:0:0:
104,120,329456,1,0,0:0:0:0:
104,120,329596,1,8,0:0:0:0:
304,148,329735,6,0,L|472:136,1,165.300001387253,4|0,0:0|0:0,0:0:0:0:
492,40,330154,1,8,0:0:0:0:
492,40,330293,1,0,0:0:0:0:
380,240,330433,1,8,0:0:0:0:
380,240,330572,1,0,0:0:0:0:
256,48,330712,1,8,0:0:0:0:
256,48,330852,5,4,0:0:0:0:
