osu file format v12

[General]
AudioFilename: Datealive.mp3
AudioLeadIn: 0
PreviewTime: 66239
Countdown: 0
SampleSet: Soft
StackLeniency: 0.7
Mode: 3
LetterboxInBreaks: 0
SpecialStyle: 0
WidescreenStoryboard: 0

[Editor]
DistanceSpacing: 1
BeatDivisor: 4
GridSize: 4

[Metadata]
Title:Date A Live (TV Size)
TitleUnicode:デート・ア・ライブ(TV Size)
Artist:sweet ARMS
ArtistUnicode:sweet ARMS
Creator:QuanTUM
Version:Hard+
Source:Date A Live
Tags:
BeatmapID:282311
BeatmapSetID:107793

[Difficulty]
HPDrainRate:8
CircleSize:4
OverallDifficulty:8
ApproachRate:5
SliderMultiplier:1.4
SliderTickRate:1

[Events]
//Background and Video events
0,0,"004.JPG",0,0
Video,0,"DAlop.avi"
//Break Periods
//Storyboard Layer 0 (Background)
//Storyboard Layer 1 (Fail)
//Storyboard Layer 2 (Pass)
//Storyboard Layer 3 (Foreground)
//Storyboard Sound Samples
//Background Colour Transformations
3,100,163,162,255

[TimingPoints]
846,337.078651685393,4,2,0,40,1,0
22419,-100,4,2,0,60,0,0
66238,-100,4,2,0,40,0,0
66744,-100,4,2,0,60,0,1
77025,-100,4,2,0,60,0,0
77531,-100,4,2,0,60,0,1
83093,-100,4,2,0,60,0,0
87558,-100,4,2,0,40,0,0
89160,-100,4,2,0,60,0,0

[HitObjects]
64,192,846,128,0,1183:0:0:0:0:
448,192,846,1,0,0:0:0:0:
192,192,1183,128,0,1351:0:0:0:0:
320,192,1183,1,0,0:0:0:0:
448,192,1351,128,0,1857:0:0:0:0:
192,192,1857,128,0,2194:0:0:0:0:
64,192,1857,1,0,0:0:0:0:
320,192,2194,128,0,2362:0:0:0:0:
448,192,2194,1,0,0:0:0:0:
64,192,2362,128,0,2699:0:0:0:0:
192,192,2362,1,0,0:0:0:0:
192,192,2699,128,0,2868:0:0:0:0:
320,192,2699,1,0,0:0:0:0:
448,192,2868,128,0,3205:0:0:0:0:
64,192,2868,1,0,0:0:0:0:
320,192,3205,128,0,3542:0:0:0:0:
64,192,3205,1,0,0:0:0:0:
192,192,3542,128,0,3879:0:0:0:0:
448,192,3542,1,0,0:0:0:0:
64,192,3879,128,0,4048:0:0:0:0:
320,192,3879,1,0,0:0:0:0:
320,192,4048,128,0,4553:0:0:0:0:
448,192,4048,1,0,0:0:0:0:
448,192,4553,128,0,4890:0:0:0:0:
192,192,4553,1,0,0:0:0:0:
192,192,4890,128,0,5059:0:0:0:0:
64,192,4890,1,0,0:0:0:0:
320,192,5059,128,0,5396:0:0:0:0:
448,192,5059,1,0,0:0:0:0:
192,192,5395,128,0,5564:0:0:0:0:
448,192,5396,1,0,0:0:0:0:
448,192,5564,128,0,5901:0:0:0:0:
64,192,5565,1,0,0:0:0:0:
192,192,5902,128,0,6239:0:0:0:0:
320,192,5902,1,0,0:0:0:0:
64,192,6239,128,0,6576:0:0:0:0:
448,192,6239,1,0,0:0:0:0:
320,192,6576,128,0,6744:0:0:0:0:
192,192,6576,1,0,0:0:0:0:
448,192,6744,128,0,7250:0:0:0:0:
64,192,6744,1,0,0:0:0:0:
64,192,7250,128,0,7587:0:0:0:0:
320,192,7250,1,0,0:0:0:0:
448,192,7587,128,0,7756:0:0:0:0:
192,192,7587,1,0,0:0:0:0:
192,192,7756,128,0,8093:0:0:0:0:
320,192,7756,1,0,0:0:0:0:
320,192,8093,128,0,8261:0:0:0:0:
64,192,8093,1,0,0:0:0:0:
64,192,8261,128,0,8598:0:0:0:0:
448,192,8261,1,0,0:0:0:0:
448,192,8598,128,0,8935:0:0:0:0:
320,192,8598,1,0,0:0:0:0:
64,192,8935,128,0,9272:0:0:0:0:
192,192,8935,1,0,0:0:0:0:
320,192,9272,128,0,9441:0:0:0:0:
192,192,9272,1,0,0:0:0:0:
64,192,9441,128,0,9947:0:0:0:0:
448,192,9441,1,0,0:0:0:0:
320,192,9947,128,0,10284:0:0:0:0:
448,192,9947,1,0,0:0:0:0:
448,192,10284,128,0,10452:0:0:0:0:
64,192,10284,1,0,0:0:0:0:
64,192,10451,128,0,10788:0:0:0:0:
320,192,10452,1,0,0:0:0:0:
320,192,10789,128,0,10958:0:0:0:0:
192,192,10789,1,0,0:0:0:0:
448,192,10957,128,0,11294:0:0:0:0:
64,192,10958,1,0,0:0:0:0:
64,192,11295,128,0,11632:0:0:0:0:
320,192,11295,1,0,0:0:0:0:
448,192,11632,1,0,0:0:0:0:
192,192,11632,128,0,12138:0:0:0:0:
320,192,11632,1,0,0:0:0:0:
320,192,11969,1,0,0:0:0:0:
448,192,12138,128,0,12643:0:0:0:0:
64,192,12138,1,0,0:0:0:0:
64,192,12643,128,0,13149:0:0:0:0:
320,192,12643,1,0,0:0:0:0:
192,192,12980,1,0,0:0:0:0:
320,192,13149,128,0,13654:0:0:0:0:
448,192,13149,1,0,0:0:0:0:
192,192,13654,128,0,13992:0:0:0:0:
448,192,13654,1,0,0:0:0:0:
448,192,13992,128,0,14329:0:0:0:0:
64,192,13992,1,0,0:0:0:0:
320,192,14329,1,0,0:0:0:0:
64,192,14329,128,0,14834:0:0:0:0:
192,192,14329,1,0,0:0:0:0:
448,192,14666,1,0,0:0:0:0:
192,192,14834,128,0,15340:0:0:0:0:
320,192,14834,1,0,0:0:0:0:
320,192,15340,128,0,15845:0:0:0:0:
64,192,15340,1,0,0:0:0:0:
448,192,15677,1,0,0:0:0:0:
64,192,15845,128,0,16351:0:0:0:0:
192,192,15845,1,0,0:0:0:0:
448,192,16351,128,0,16688:0:0:0:0:
192,192,16351,1,0,0:0:0:0:
320,192,16688,128,0,17025:0:0:0:0:
192,192,16688,1,0,0:0:0:0:
448,192,17025,128,0,17531:0:0:0:0:
64,192,17025,1,0,0:0:0:0:
320,192,17362,1,0,0:0:0:0:
192,192,17531,128,0,18037:0:0:0:0:
64,192,17531,1,0,0:0:0:0:
320,192,18037,128,0,18542:0:0:0:0:
64,192,18037,1,0,0:0:0:0:
448,192,18374,1,0,0:0:0:0:
192,192,18542,128,0,19048:0:0:0:0:
64,192,18542,1,0,0:0:0:0:
448,192,19048,128,0,19722:0:0:0:0:
64,192,19048,1,0,0:0:0:0:
320,192,19385,128,0,19722:0:0:0:0:
192,192,19385,1,0,0:0:0:0:
64,192,19722,128,0,20228:0:0:0:0:
192,192,19722,1,0,0:0:0:0:
320,192,20059,1,0,0:0:0:0:
320,192,20228,128,0,20733:0:0:0:0:
448,192,20228,1,0,0:0:0:0:
64,192,20733,128,0,21239:0:0:0:0:
192,192,20733,1,0,0:0:0:0:
448,192,21070,1,0,0:0:0:0:
192,192,21239,128,0,21744:0:0:0:0:
320,192,21239,1,0,0:0:0:0:
64,192,21744,1,0,0:0:0:0:
448,192,21744,128,0,22419:0:0:0:0:
320,192,22081,128,0,22419:0:0:0:0:
192,192,22081,1,0,0:0:0:0:
64,192,22419,1,0,0:0:0:0:
192,192,22587,1,0,0:0:0:0:
448,192,22756,1,0,0:0:0:0:
192,192,23093,128,0,23430:0:0:0:0:
448,192,23093,1,0,0:0:0:0:
64,192,23093,1,0,0:0:0:0:
448,192,23261,1,0,0:0:0:0:
320,192,23261,128,0,23430:0:0:0:0:
64,192,23430,1,0,0:0:0:0:
448,192,23598,1,0,0:0:0:0:
64,192,23767,1,0,0:0:0:0:
320,192,23767,1,0,0:0:0:0:
448,192,23767,1,0,0:0:0:0:
192,192,23935,1,0,0:0:0:0:
320,192,24104,1,0,0:0:0:0:
192,192,24104,1,0,0:0:0:0:
448,192,24441,128,0,24778:0:0:0:0:
320,192,24441,1,0,0:0:0:0:
64,192,24610,1,0,0:0:0:0:
192,192,24610,128,0,24778:0:0:0:0:
192,192,24947,1,0,0:0:0:0:
448,192,25115,1,0,0:0:0:0:
192,192,25284,1,0,0:0:0:0:
448,192,25452,1,0,0:0:0:0:
192,192,25789,128,0,26126:0:0:0:0:
320,192,25789,1,0,0:0:0:0:
448,192,25958,128,0,26126:0:0:0:0:
64,192,26126,1,0,0:0:0:0:
320,192,26295,128,0,26632:0:0:0:0:
64,192,26463,1,0,0:0:0:0:
192,192,26632,128,0,26801:0:0:0:0:
64,192,26801,1,0,0:0:0:0:
448,192,26801,128,0,26969:0:0:0:0:
64,192,26969,128,0,27812:0:0:0:0:
320,192,27138,1,0,0:0:0:0:
320,192,27306,1,0,0:0:0:0:
448,192,27475,1,0,0:0:0:0:
192,192,27812,128,0,28149:0:0:0:0:
320,192,27812,1,0,0:0:0:0:
448,192,27812,1,0,0:0:0:0:
448,192,28149,1,0,0:0:0:0:
320,192,28149,128,0,28317:0:0:0:0:
320,192,28486,128,0,28823:0:0:0:0:
448,192,28486,1,0,0:0:0:0:
192,192,28654,128,0,28823:0:0:0:0:
64,192,28823,1,0,0:0:0:0:
64,192,28992,1,0,0:0:0:0:
192,192,29160,1,0,0:0:0:0:
448,192,29160,128,0,29497:0:0:0:0:
64,192,29329,1,0,0:0:0:0:
64,192,29497,128,0,29834:0:0:0:0:
320,192,29497,1,0,0:0:0:0:
320,192,29834,128,0,30171:0:0:0:0:
192,192,29834,1,0,0:0:0:0:
448,192,30171,128,0,30508:0:0:0:0:
64,192,30508,1,0,0:0:0:0:
320,192,30508,128,0,31183:0:0:0:0:
192,192,30845,1,0,0:0:0:0:
448,192,31014,1,0,0:0:0:0:
192,192,31183,128,0,31857:0:0:0:0:
448,192,31351,1,0,0:0:0:0:
64,192,31520,1,0,0:0:0:0:
448,192,31688,1,0,0:0:0:0:
64,192,31857,128,0,32362:0:0:0:0:
448,192,31857,1,0,0:0:0:0:
320,192,32025,1,0,0:0:0:0:
320,192,32194,1,0,0:0:0:0:
192,192,32362,128,0,33205:0:0:0:0:
448,192,32362,1,0,0:0:0:0:
64,192,32531,1,0,0:0:0:0:
320,192,32699,1,0,0:0:0:0:
448,192,32868,128,0,33205:0:0:0:0:
64,192,32868,1,0,0:0:0:0:
320,192,33205,1,0,0:0:0:0:
64,192,33374,1,0,0:0:0:0:
320,192,33542,1,0,0:0:0:0:
192,192,33542,1,0,0:0:0:0:
448,192,33711,1,0,0:0:0:0:
64,192,33879,1,0,0:0:0:0:
320,192,33879,1,0,0:0:0:0:
192,192,34048,1,0,0:0:0:0:
448,192,34216,128,0,34553:0:0:0:0:
320,192,34216,1,0,0:0:0:0:
192,192,34385,1,0,0:0:0:0:
320,192,34553,1,0,0:0:0:0:
64,192,34553,1,0,0:0:0:0:
320,192,34722,1,0,0:0:0:0:
64,192,34890,1,0,0:0:0:0:
192,192,34890,1,0,0:0:0:0:
192,192,35059,1,0,0:0:0:0:
320,192,35228,1,0,0:0:0:0:
448,192,35228,1,0,0:0:0:0:
64,192,35396,1,0,0:0:0:0:
448,192,35565,1,0,0:0:0:0:
320,192,35565,1,0,0:0:0:0:
192,192,35733,1,0,0:0:0:0:
320,192,35902,1,0,0:0:0:0:
64,192,35902,1,0,0:0:0:0:
192,192,36070,1,0,0:0:0:0:
192,192,36239,1,0,0:0:0:0:
448,192,36239,1,0,0:0:0:0:
64,192,36407,1,0,0:0:0:0:
448,192,36576,1,0,0:0:0:0:
320,192,36576,1,0,0:0:0:0:
64,192,36744,1,0,0:0:0:0:
192,192,36913,1,0,0:0:0:0:
320,192,36913,1,0,0:0:0:0:
320,192,37081,1,0,0:0:0:0:
448,192,37250,1,0,0:0:0:0:
64,192,37250,1,0,0:0:0:0:
320,192,37419,1,0,0:0:0:0:
448,192,37587,1,0,0:0:0:0:
320,192,37756,1,0,0:0:0:0:
64,192,37924,1,0,0:0:0:0:
320,192,38093,1,0,0:0:0:0:
448,192,38261,1,0,0:0:0:0:
192,192,38430,1,0,0:0:0:0:
320,192,38598,1,0,0:0:0:0:
64,192,38598,1,0,0:0:0:0:
192,192,38767,1,0,0:0:0:0:
448,192,38935,1,0,0:0:0:0:
64,192,38935,1,0,0:0:0:0:
320,192,39104,1,0,0:0:0:0:
64,192,39272,1,0,0:0:0:0:
320,192,39272,1,0,0:0:0:0:
192,192,39441,1,0,0:0:0:0:
192,192,39610,1,0,0:0:0:0:
448,192,39610,1,0,0:0:0:0:
320,192,39778,1,0,0:0:0:0:
64,192,39947,1,0,0:0:0:0:
320,192,39947,1,0,0:0:0:0:
192,192,39947,1,0,0:0:0:0:
448,192,40115,1,0,0:0:0:0:
448,192,40284,1,0,0:0:0:0:
64,192,40284,1,0,0:0:0:0:
64,192,40452,1,0,0:0:0:0:
192,192,40621,1,0,0:0:0:0:
320,192,40621,1,0,0:0:0:0:
448,192,40789,1,0,0:0:0:0:
320,192,40958,1,0,0:0:0:0:
64,192,40958,1,0,0:0:0:0:
448,192,41126,1,0,0:0:0:0:
64,192,41295,1,0,0:0:0:0:
320,192,41295,1,0,0:0:0:0:
320,192,41463,1,0,0:0:0:0:
192,192,41632,1,0,0:0:0:0:
448,192,41632,1,0,0:0:0:0:
448,192,41801,1,0,0:0:0:0:
320,192,41969,1,0,0:0:0:0:
64,192,41969,1,0,0:0:0:0:
448,192,42138,1,0,0:0:0:0:
64,192,42306,1,0,0:0:0:0:
192,192,42306,1,0,0:0:0:0:
320,192,42475,1,0,0:0:0:0:
320,192,42643,128,0,43317:0:0:0:0:
448,192,42643,1,0,0:0:0:0:
64,192,42643,1,0,0:0:0:0:
192,192,43317,128,0,43992:0:0:0:0:
448,192,43317,1,0,0:0:0:0:
320,192,43992,128,0,44497:0:0:0:0:
64,192,43992,1,0,0:0:0:0:
448,192,44497,128,0,45003:0:0:0:0:
64,192,44497,1,0,0:0:0:0:
192,192,45003,128,0,45340:0:0:0:0:
64,192,45003,1,0,0:0:0:0:
448,192,45340,1,0,0:0:0:0:
64,192,45340,1,0,0:0:0:0:
320,192,45340,1,0,0:0:0:0:
192,192,45508,1,0,0:0:0:0:
64,192,45677,1,0,0:0:0:0:
320,192,45677,1,0,0:0:0:0:
448,192,45845,1,0,0:0:0:0:
320,192,46014,1,0,0:0:0:0:
64,192,46014,1,0,0:0:0:0:
320,192,46183,1,0,0:0:0:0:
448,192,46351,1,0,0:0:0:0:
64,192,46351,1,0,0:0:0:0:
192,192,46520,1,0,0:0:0:0:
64,192,46688,1,0,0:0:0:0:
448,192,46688,1,0,0:0:0:0:
320,192,46857,1,0,0:0:0:0:
448,192,47025,1,0,0:0:0:0:
192,192,47025,1,0,0:0:0:0:
64,192,47194,1,0,0:0:0:0:
320,192,47362,1,0,0:0:0:0:
448,192,47362,1,0,0:0:0:0:
192,192,47531,1,0,0:0:0:0:
64,192,47699,1,0,0:0:0:0:
320,192,47699,1,0,0:0:0:0:
448,192,47868,1,0,0:0:0:0:
64,192,48037,1,0,0:0:0:0:
448,192,48037,1,0,0:0:0:0:
192,192,48205,1,0,0:0:0:0:
320,192,48374,1,0,0:0:0:0:
448,192,48374,1,0,0:0:0:0:
64,192,48542,1,0,0:0:0:0:
448,192,48711,1,0,0:0:0:0:
192,192,48711,1,0,0:0:0:0:
320,192,48879,1,0,0:0:0:0:
64,192,49048,1,0,0:0:0:0:
448,192,49048,1,0,0:0:0:0:
192,192,49216,1,0,0:0:0:0:
64,192,49385,1,0,0:0:0:0:
448,192,49385,128,0,50059:0:0:0:0:
320,192,49385,1,0,0:0:0:0:
192,192,49553,1,0,0:0:0:0:
320,192,49722,1,0,0:0:0:0:
64,192,49890,128,0,50228:0:0:0:0:
192,192,49890,1,0,0:0:0:0:
320,192,50059,1,0,0:0:0:0:
192,192,50228,128,0,50565:0:0:0:0:
448,192,50228,1,0,0:0:0:0:
448,192,50396,1,0,0:0:0:0:
320,192,50565,1,0,0:0:0:0:
64,192,50565,128,0,51407:0:0:0:0:
320,192,50733,1,0,0:0:0:0:
448,192,50733,1,0,0:0:0:0:
192,192,50902,1,0,0:0:0:0:
192,192,51070,1,0,0:0:0:0:
448,192,51070,1,0,0:0:0:0:
320,192,51239,1,0,0:0:0:0:
192,192,51407,1,0,0:0:0:0:
448,192,51407,1,0,0:0:0:0:
64,192,51576,1,0,0:0:0:0:
192,192,51744,1,0,0:0:0:0:
448,192,51744,1,0,0:0:0:0:
320,192,51913,1,0,0:0:0:0:
448,192,52081,1,0,0:0:0:0:
64,192,52081,1,0,0:0:0:0:
320,192,52250,1,0,0:0:0:0:
64,192,52419,1,0,0:0:0:0:
320,192,52419,1,0,0:0:0:0:
192,192,52587,1,0,0:0:0:0:
448,192,52756,1,0,0:0:0:0:
320,192,52756,1,0,0:0:0:0:
320,192,52924,1,0,0:0:0:0:
192,192,53093,1,0,0:0:0:0:
448,192,53093,1,0,0:0:0:0:
64,192,53261,1,0,0:0:0:0:
64,192,53430,128,0,54104:0:0:0:0:
448,192,53430,1,0,0:0:0:0:
192,192,53430,1,0,0:0:0:0:
320,192,53767,1,0,0:0:0:0:
192,192,54104,1,0,0:0:0:0:
448,192,54104,128,0,54778:0:0:0:0:
192,192,54441,1,0,0:0:0:0:
64,192,54778,1,0,0:0:0:0:
192,192,54778,128,0,55284:0:0:0:0:
320,192,55115,1,0,0:0:0:0:
320,192,55284,128,0,56126:0:0:0:0:
64,192,55284,1,0,0:0:0:0:
448,192,55452,1,0,0:0:0:0:
448,192,55958,1,0,0:0:0:0:
64,192,56126,1,0,0:0:0:0:
448,192,56126,128,0,56801:0:0:0:0:
192,192,56126,1,0,0:0:0:0:
320,192,56632,1,0,0:0:0:0:
448,192,57138,1,0,0:0:0:0:
320,192,57306,1,0,0:0:0:0:
320,192,57475,1,0,0:0:0:0:
64,192,57475,1,0,0:0:0:0:
448,192,57643,1,0,0:0:0:0:
192,192,57812,1,0,0:0:0:0:
320,192,57812,1,0,0:0:0:0:
448,192,57980,1,0,0:0:0:0:
64,192,58149,1,0,0:0:0:0:
320,192,58149,1,0,0:0:0:0:
192,192,58317,1,0,0:0:0:0:
64,192,58486,1,0,0:0:0:0:
448,192,58486,1,0,0:0:0:0:
320,192,58654,1,0,0:0:0:0:
448,192,58823,1,0,0:0:0:0:
320,192,58823,1,0,0:0:0:0:
64,192,58823,1,0,0:0:0:0:
192,192,58992,1,0,0:0:0:0:
320,192,59160,1,0,0:0:0:0:
192,192,59160,1,0,0:0:0:0:
192,192,59329,128,0,59666:0:0:0:0:
448,192,59497,1,0,0:0:0:0:
320,192,59666,128,0,59834:0:0:0:0:
64,192,59666,1,0,0:0:0:0:
192,192,59834,128,0,60003:0:0:0:0:
448,192,59834,1,0,0:0:0:0:
64,192,60003,128,0,60508:0:0:0:0:
320,192,60003,1,0,0:0:0:0:
448,192,60171,1,0,0:0:0:0:
192,192,60340,1,0,0:0:0:0:
448,192,60508,1,0,0:0:0:0:
320,192,60677,1,0,0:0:0:0:
64,192,60845,1,0,0:0:0:0:
448,192,60845,1,0,0:0:0:0:
320,192,61014,1,0,0:0:0:0:
448,192,61183,1,0,0:0:0:0:
192,192,61183,1,0,0:0:0:0:
192,192,61351,1,0,0:0:0:0:
448,192,61520,1,0,0:0:0:0:
64,192,61520,128,0,62194:0:0:0:0:
320,192,61520,1,0,0:0:0:0:
192,192,61688,1,0,0:0:0:0:
448,192,61857,1,0,0:0:0:0:
320,192,62025,1,0,0:0:0:0:
448,192,62194,1,0,0:0:0:0:
320,192,62362,1,0,0:0:0:0:
64,192,62531,1,0,0:0:0:0:
192,192,62531,1,0,0:0:0:0:
448,192,62699,1,0,0:0:0:0:
64,192,62868,1,0,0:0:0:0:
320,192,62868,1,0,0:0:0:0:
192,192,63037,1,0,0:0:0:0:
448,192,63205,1,0,0:0:0:0:
320,192,63374,1,0,0:0:0:0:
320,192,63542,1,0,0:0:0:0:
192,192,63542,1,0,0:0:0:0:
64,192,63711,1,0,0:0:0:0:
320,192,63879,1,0,0:0:0:0:
64,192,63879,1,0,0:0:0:0:
448,192,64048,1,0,0:0:0:0:
320,192,64216,128,0,64722:0:0:0:0:
192,192,64216,1,0,0:0:0:0:
64,192,64553,1,0,0:0:0:0:
192,192,64722,128,0,65228:0:0:0:0:
448,192,64722,1,0,0:0:0:0:
320,192,65059,1,0,0:0:0:0:
64,192,65228,128,0,65902:0:0:0:0:
320,192,65228,128,0,65902:0:0:0:0:
448,192,65228,128,0,65902:0:0:0:0:
192,192,65565,1,0,0:0:0:0:
192,192,65733,1,0,0:0:0:0:
192,192,65902,1,0,0:0:0:0:
448,192,66239,1,0,0:0:0:0:
192,192,66239,1,0,0:0:0:0:
64,192,66407,1,0,0:0:0:0:
320,192,66407,1,0,0:0:0:0:
320,192,66576,1,0,0:0:0:0:
192,192,66576,1,0,0:0:0:0:
64,192,66744,1,0,0:0:0:0:
448,192,66744,128,0,68177:0:0:0:0:
192,192,66913,1,0,0:0:0:0:
320,192,66913,1,0,0:0:0:0:
64,192,67081,1,0,0:0:0:0:
320,192,67250,1,0,0:0:0:0:
192,192,67419,1,0,0:0:0:0:
64,192,67587,1,0,0:0:0:0:
320,192,67756,1,0,0:0:0:0:
192,192,67924,1,0,0:0:0:0:
320,192,68093,1,0,0:0:0:0:
192,192,68177,128,0,69104:0:0:0:0:
64,192,68177,1,0,0:0:0:0:
320,192,68261,1,0,0:0:0:0:
448,192,68430,1,0,0:0:0:0:
64,192,68598,1,0,0:0:0:0:
448,192,68767,1,0,0:0:0:0:
320,192,68935,1,0,0:0:0:0:
320,192,69104,128,0,69272:0:0:0:0:
448,192,69104,1,0,0:0:0:0:
64,192,69272,128,0,69525:0:0:0:0:
192,192,69272,1,0,0:0:0:0:
192,192,69441,1,0,0:0:0:0:
448,192,69525,128,0,70958:0:0:0:0:
320,192,69525,1,0,0:0:0:0:
192,192,69610,1,0,0:0:0:0:
320,192,69778,1,0,0:0:0:0:
64,192,69947,1,0,0:0:0:0:
320,192,70115,1,0,0:0:0:0:
192,192,70284,1,0,0:0:0:0:
64,192,70452,1,0,0:0:0:0:
320,192,70621,1,0,0:0:0:0:
192,192,70789,1,0,0:0:0:0:
64,192,70958,1,0,0:0:0:0:
320,192,70958,1,0,0:0:0:0:
192,192,71126,1,0,0:0:0:0:
64,192,71295,1,0,0:0:0:0:
448,192,71295,1,0,0:0:0:0:
192,192,71463,128,0,71716:0:0:0:0:
448,192,71463,1,0,0:0:0:0:
320,192,71716,128,0,72053:0:0:0:0:
448,192,71716,1,0,0:0:0:0:
64,192,72053,128,0,72390:0:0:0:0:
192,192,72053,1,0,0:0:0:0:
448,192,72390,1,0,0:0:0:0:
192,192,72390,128,0,73654:0:0:0:0:
64,192,72643,1,0,0:0:0:0:
448,192,72812,1,0,0:0:0:0:
320,192,72980,1,0,0:0:0:0:
448,192,73149,1,0,0:0:0:0:
64,192,73317,1,0,0:0:0:0:
320,192,73486,1,0,0:0:0:0:
448,192,73654,128,0,75003:0:0:0:0:
64,192,73654,1,0,0:0:0:0:
320,192,73823,1,0,0:0:0:0:
64,192,73992,1,0,0:0:0:0:
192,192,74160,1,0,0:0:0:0:
320,192,74329,1,0,0:0:0:0:
192,192,74497,1,0,0:0:0:0:
64,192,74666,1,0,0:0:0:0:
320,192,74834,1,0,0:0:0:0:
64,192,75003,128,0,76267:0:0:0:0:
192,192,75003,1,0,0:0:0:0:
320,192,75171,1,0,0:0:0:0:
448,192,75340,1,0,0:0:0:0:
192,192,75508,1,0,0:0:0:0:
448,192,75677,1,0,0:0:0:0:
320,192,75845,1,0,0:0:0:0:
192,192,76014,1,0,0:0:0:0:
320,192,76183,1,0,0:0:0:0:
448,192,76267,128,0,76520:0:0:0:0:
192,192,76267,1,0,0:0:0:0:
320,192,76351,1,0,0:0:0:0:
320,192,76520,128,0,76772:0:0:0:0:
64,192,76520,1,0,0:0:0:0:
192,192,76688,1,0,0:0:0:0:
64,192,76772,128,0,76941:0:0:0:0:
448,192,76857,1,0,0:0:0:0:
192,192,76941,128,0,77278:0:0:0:0:
320,192,76941,1,0,0:0:0:0:
448,192,77025,1,0,0:0:0:0:
64,192,77194,1,0,0:0:0:0:
448,192,77278,128,0,77447:0:0:0:0:
320,192,77278,1,0,0:0:0:0:
64,192,77362,1,0,0:0:0:0:
320,192,77447,128,0,77615:0:0:0:0:
192,192,77531,1,0,0:0:0:0:
64,192,77615,128,0,78879:0:0:0:0:
448,192,77615,1,0,0:0:0:0:
192,192,77699,1,0,0:0:0:0:
448,192,77868,1,0,0:0:0:0:
320,192,78037,1,0,0:0:0:0:
192,192,78205,1,0,0:0:0:0:
448,192,78374,1,0,0:0:0:0:
192,192,78542,1,0,0:0:0:0:
448,192,78711,1,0,0:0:0:0:
192,192,78879,128,0,79722:0:0:0:0:
320,192,78879,1,0,0:0:0:0:
448,192,79048,1,0,0:0:0:0:
64,192,79216,1,0,0:0:0:0:
320,192,79385,1,0,0:0:0:0:
448,192,79553,1,0,0:0:0:0:
320,192,79722,128,0,80228:0:0:0:0:
64,192,79722,1,0,0:0:0:0:
448,192,79890,1,0,0:0:0:0:
192,192,80059,1,0,0:0:0:0:
64,192,80228,128,0,81913:0:0:0:0:
448,192,80228,1,0,0:0:0:0:
192,192,80396,1,0,0:0:0:0:
448,192,80565,1,0,0:0:0:0:
320,192,80733,1,0,0:0:0:0:
192,192,80902,1,0,0:0:0:0:
448,192,81070,1,0,0:0:0:0:
320,192,81239,1,0,0:0:0:0:
192,192,81407,1,0,0:0:0:0:
448,192,81576,1,0,0:0:0:0:
320,192,81660,1,0,0:0:0:0:
192,192,81744,1,0,0:0:0:0:
192,192,81913,128,0,82166:0:0:0:0:
448,192,81913,1,0,0:0:0:0:
64,192,82081,1,0,0:0:0:0:
320,192,82166,128,0,82334:0:0:0:0:
64,192,82250,1,0,0:0:0:0:
192,192,82334,128,0,82671:0:0:0:0:
448,192,82334,1,0,0:0:0:0:
64,192,82419,1,0,0:0:0:0:
320,192,82587,1,0,0:0:0:0:
448,192,82671,128,0,82840:0:0:0:0:
64,192,82756,1,0,0:0:0:0:
320,192,82840,128,0,83008:0:0:0:0:
64,192,82924,1,0,0:0:0:0:
64,192,83093,128,0,84947:0:0:0:0:
448,192,83093,128,0,84947:0:0:0:0:
192,192,83093,1,0,0:0:0:0:
192,192,83598,1,0,0:0:0:0:
320,192,83767,1,0,0:0:0:0:
192,192,84104,1,0,0:0:0:0:
320,192,84272,1,0,0:0:0:0:
192,192,84441,1,0,0:0:0:0:
320,192,84610,1,0,0:0:0:0:
192,192,84778,1,0,0:0:0:0:
192,192,84947,1,0,0:0:0:0:
320,192,85115,1,0,0:0:0:0:
64,192,85368,128,0,85537:0:0:0:0:
192,192,85537,128,0,85705:0:0:0:0:
320,192,85537,1,0,0:0:0:0:
448,192,85705,128,0,85874:0:0:0:0:
64,192,85705,1,0,0:0:0:0:
192,192,85874,128,0,86042:0:0:0:0:
64,192,85874,1,0,0:0:0:0:
448,192,86042,128,0,86379:0:0:0:0:
320,192,86042,1,0,0:0:0:0:
64,192,86379,128,0,86716:0:0:0:0:
192,192,86379,1,0,0:0:0:0:
192,192,86716,128,0,87053:0:0:0:0:
448,192,86716,1,0,0:0:0:0:
448,192,87053,128,0,88992:0:0:0:0:
320,192,87053,128,0,88992:0:0:0:0:
64,192,87053,1,0,0:0:0:0:
64,192,88823,128,0,88992:0:0:0:0:
320,192,89160,1,0,0:0:0:0:
64,192,89160,1,0,0:0:0:0:
448,192,89160,1,0,0:0:0:0:
64,192,89329,1,0,0:0:0:0:
448,192,89329,1,0,0:0:0:0:
192,192,89329,1,0,0:0:0:0:
64,192,89834,1,0,0:0:0:0:
448,192,89834,128,0,90171:0:0:0:0:
192,192,90171,1,0,0:0:0:0:
320,192,90171,128,0,90508:0:0:0:0:
448,192,90508,1,0,0:0:0:0:
192,192,90508,128,0,90845:0:0:0:0:
320,192,90845,128,0,91014:0:0:0:0:
448,192,90845,1,0,0:0:0:0:
64,192,90845,1,0,0:0:0:0:
64,192,91014,128,0,91520:0:0:0:0:
192,192,91183,1,0,0:0:0:0:
448,192,91520,1,0,0:0:0:0:
192,192,91520,128,0,91857:0:0:0:0:
320,192,91520,1,0,0:0:0:0:
448,192,91857,128,0,92194:0:0:0:0:
64,192,92194,1,0,0:0:0:0:
320,192,92194,128,0,92362:0:0:0:0:
192,192,92194,1,0,0:0:0:0:
192,192,92362,128,0,92868:0:0:0:0:
64,192,92531,1,0,0:0:0:0:
64,192,92868,1,0,0:0:0:0:
320,192,92868,128,0,93205:0:0:0:0:
448,192,93037,1,0,0:0:0:0:
192,192,93205,128,0,93542:0:0:0:0:
448,192,93542,1,0,0:0:0:0:
320,192,93542,128,0,93711:0:0:0:0:
64,192,93711,128,0,94048:0:0:0:0:
448,192,93879,1,0,0:0:0:0:
320,192,94048,128,0,94216:0:0:0:0:
64,192,94216,1,0,0:0:0:0:
192,192,94216,128,0,94385:0:0:0:0:
320,192,94385,128,0,95228:0:0:0:0:
448,192,94553,1,0,0:0:0:0:
64,192,94890,1,0,0:0:0:0:
64,192,95228,128,0,95565:0:0:0:0:
448,192,95228,1,0,0:0:0:0:
320,192,95565,128,0,95902:0:0:0:0:
448,192,95902,128,0,96239:0:0:0:0:
192,192,95902,1,0,0:0:0:0:
64,192,96239,128,0,96407:0:0:0:0:
448,192,96407,128,0,96913:0:0:0:0:
192,192,96407,1,0,0:0:0:0:
192,192,96913,1,0,0:0:0:0:
320,192,96913,128,0,97250:0:0:0:0:
192,192,97250,128,0,97587:0:0:0:0:
448,192,97250,1,0,0:0:0:0:
320,192,97587,128,0,97924:0:0:0:0:
64,192,97587,1,0,0:0:0:0:
192,192,97924,1,0,0:0:0:0:
64,192,97924,128,0,98598:0:0:0:0:
448,192,97924,1,0,0:0:0:0:
320,192,98261,1,0,0:0:0:0:
448,192,98598,128,0,99272:0:0:0:0:
192,192,98598,1,0,0:0:0:0:
320,192,98598,1,0,0:0:0:0:
64,192,98935,1,0,0:0:0:0:
192,192,99272,128,0,99778:0:0:0:0:
320,192,99272,1,0,0:0:0:0:
64,192,99610,1,0,0:0:0:0:
320,192,99778,128,0,100284:0:0:0:0:
448,192,99947,1,0,0:0:0:0:
192,192,100284,128,0,100621:0:0:0:0:
64,192,100284,1,0,0:0:0:0:
448,192,100284,1,0,0:0:0:0:
320,192,100452,128,0,100621:0:0:0:0:
