osu file format v12

[General]
AudioFilename: datealive.mp3
AudioLeadIn: 0
PreviewTime: 65509
Countdown: 0
SampleSet: Normal
StackLeniency: 0.7
Mode: 0
LetterboxInBreaks: 0

[Editor]
Bookmarks: 11618,21737
DistanceSpacing: 0.8
BeatDivisor: 4
GridSize: 4

[Metadata]
Title:Date A Live (TV Size)
TitleUnicode:デート・ア・ライブ (TV Size)
Artist:sweet ARMS
ArtistUnicode:sweet ARMS
Creator:NoHitter
Version:Normal
Source:Date A Live
Tags:shidou itsuka tohka yatogami origami tobiichi kotori yoshino yoshinon kurami tokisaki reine Nomizu Iori Sadohara Kaori Togashi Misuzu Misato
BeatmapID:242003
BeatmapSetID:88895

[Difficulty]
HPDrainRate:3
CircleSize:3
OverallDifficulty:3
ApproachRate:5
SliderMultiplier:1.32
SliderTickRate:2

[Events]
//Background and Video events
0,0,"date-a-live.jpg",0,0
Video,802,"DALop.avi"
//Break Periods
//Storyboard Layer 0 (Background)
//Storyboard Layer 1 (Fail)
//Storyboard Layer 2 (Pass)
//Storyboard Layer 3 (Foreground)
//Storyboard Sound Samples
//Background Colour Transformations
3,100,163,162,255

[TimingPoints]
846,337.078651685393,4,1,0,40,1,0
22419,-100,4,1,0,60,0,0
56126,-133.333333333333,4,3,0,60,0,0
64216,-133.333333333333,4,2,0,60,0,0
64722,-120.048019207683,4,2,0,60,0,0
65227,-111.111111111111,4,2,0,60,0,0
66238,-153.846153846154,4,2,0,40,0,0
66744,-100,4,1,0,60,0,1
77025,-100,4,1,0,60,0,0
77531,-100,4,1,0,60,0,1
83093,-100,4,1,0,60,0,0
87475,-200,4,1,0,60,0,0
87558,-100,4,1,0,20,0,0
89160,-100,4,1,0,60,0,0
89834,-100,4,1,0,60,0,0
96184,-100,4,1,0,60,0,0

[Colours]
Combo1 : 0,102,102
Combo2 : 11,115,70
Combo3 : 204,40,0
Combo4 : 206,83,9
Combo5 : 111,21,111

[HitObjects]
175,268,11632,54,0,P|123:188|175:112,1,198,4|0,0:0|0:0,0:0:0:0:
337,112,12643,2,0,P|389:188|337:268,1,198
492,256,13654,2,0,P|508:192|492:124,1,132
428,48,14329,38,0,P|324:72|232:72,1,198,4|0,0:0|0:0,0:0:0:0:
92,144,15340,2,0,P|196:168|288:168,1,198
408,272,16351,2,0,P|344:288|276:280,1,132
176,260,17025,38,0,P|80:256|-4:328,1,198,4|0,0:0|0:0,0:0:0:0:
0,156,18037,2,0,P|96:160|180:88,1,198
316,36,19048,2,0,P|384:52|440:84,1,132
256,192,19722,12,0,21744,0:0:0:0:
160,143,22419,6,0,P|160:75|220:27,1,132,4|8,0:0|0:0,0:0:0:0:
308,32,23093,2,0,P|351:74|351:142,1,132,2|8,0:2|0:0,0:0:0:0:
336,192,23598,1,4,0:0:0:0:
448,304,24104,1,8,0:0:0:0:
352,348,24441,2,0,P|260:380|164:348,1,198,2|4,0:2|0:0,0:0:0:0:
132,252,25284,5,0,0:0:0:0:
132,252,25452,1,8,0:0:0:0:
192,160,25789,2,0,P|256:172|332:160,1,132,2|8,0:2|0:0,0:0:0:0:
360,124,26295,1,2,0:2:0:0:
512,80,26801,1,8,0:0:0:0:
448,164,27138,2,0,P|428:228|448:292,2,132,2|8|4,0:2|0:0|0:0,0:0:0:0:
424,40,28149,5,8,0:0:0:0:
424,40,28317,1,0,0:0:0:0:
424,40,28486,2,0,P|340:28|272:48,2,132,2|8|2,0:2|0:0|0:2,0:0:0:0:
360,124,29497,2,0,L|360:276,2,132,8|4|8,0:0|0:0|0:0,0:0:0:0:
256,128,30508,6,0,B|192:140|192:140|152:180|140:192,1,132,4|8,0:0|0:0,0:0:0:0:
144,293,31183,2,0,B|151:300|191:340|191:340|255:352,1,132,2|8,0:2|0:0,0:0:0:0:
352,312,31857,2,0,B|416:232|416:232|352:160,2,198,4|4|8,0:0|0:0|0:0,0:0:0:0:
272,244,33205,6,0,L|132:244,1,132,4|8,0:0|0:0,0:0:0:0:
204,160,33879,2,4,L|124:160,1,66
20,32,34553,5,4,0:0:0:0:
124,60,34890,1,8,0:0:0:0:
228,60,35228,1,2,0:2:0:0:
328,32,35565,1,8,0:0:0:0:
432,56,35902,6,0,P|484:132|448:228,1,198,4|2,0:0|0:2,0:0:0:0:
352,188,36744,1,2,0:2:0:0:
256,144,37081,2,0,P|223:237|275:313,1,198,2|8,0:2|0:0,0:0:0:0:
184,364,37924,1,2,0:2:0:0:
92,316,38261,1,8,0:0:0:0:
88,212,38598,6,0,B|88:80|88:80|156:96|236:64,1,264,4|2,0:0|0:2,0:0:0:0:
320,44,39610,2,0,P|384:32|452:44,1,132,8|4,0:0|0:0,0:0:0:0:
496,136,40284,1,8,0:0:0:0:
504,292,40789,6,0,L|308:312,1,198,2|4,0:2|0:0,0:0:0:0:
201,312,41632,2,0,L|5:292,1,198,8|4,0:0|0:0,0:0:0:0:
92,164,42643,6,0,P|156:148|204:100,1,132,4|8,0:0|0:0,0:0:0:0:
312,104,43317,2,0,P|358:149|422:165,1,132,2|8,0:2|0:0,0:0:0:0:
352,244,43992,2,0,P|256:268|160:244,2,198,4|2|8,2:0|2:0|2:0,0:0:0:0:
444,192,45340,5,4,0:0:0:0:
448,88,45677,1,8,0:0:0:0:
360,32,46014,1,2,0:2:0:0:
256,56,46351,1,8,0:0:0:0:
204,148,46688,6,0,P|117:107|28:148,1,198,4|2,0:0|0:2,0:0:0:0:
116,208,47531,1,2,0:2:0:0:
28,268,47868,2,0,P|115:309|204:268,1,198,2|8,0:2|0:2,0:0:0:0:
288,208,48711,2,0,P|353:200|420:208,1,132,2|8,0:2|0:0,0:0:0:0:
352,296,49385,6,0,L|352:28,1,264,4|2,0:0|0:2,0:0:0:0:
256,76,50396,2,0,L|108:76,1,132,8|4,0:0|0:0,0:0:0:0:
28,36,51070,1,8,0:0:0:0:
40,192,51576,6,0,P|32:280|124:344,1,198,2|4,0:2|0:0,0:0:0:0:
217,342,52419,2,0,P|296:279|288:191,1,198,8|4,0:1|0:0,0:0:0:0:
164,92,53430,5,4,0:0:0:0:
244,24,53767,1,8,0:0:0:0:
348,16,54104,1,2,0:2:0:0:
447,63,54441,1,8,0:0:0:0:
360,132,54778,2,0,P|324:220|372:304,2,198,4|2|2,0:0|0:2|0:3,0:0:0:0:
360,132,56126,6,0,L|248:132,1,99.0000037765504,4|2,0:2|0:0,0:0:0:0:
224,108,56632,2,0,L|112:108,1,99.0000037765504,2|2,0:2|0:0,0:0:0:0:
28,200,57475,6,0,L|60:316,1,99.0000037765504,4|2,0:2|0:0,0:0:0:0:
100,288,57980,2,0,L|132:404,1,99.0000037765504,2|2,0:2|0:0,0:0:0:0:
256,352,58823,6,0,P|328:332|400:352,2,148.500005664826,4|2|2,0:2|0:2|0:0,0:0:0:0:
212,276,60171,2,0,P|140:296|68:276,2,148.500005664826,4|2|2,0:2|0:2|0:0,0:0:0:0:
256,196,61520,6,0,L|256:88,1,99.0000037765504,4|2,0:2|0:0,0:0:0:0:
300,108,62025,2,0,L|300:4,1,99.0000037765504,2|2,0:2|0:0,0:0:0:0:
416,72,62868,6,0,L|492:160,1,99.0000037765504,4|2,0:2|0:0,0:0:0:0:
440,168,63374,2,0,L|516:252,1,99.0000037765504,2|2,0:2|0:0,0:0:0:0:
436,356,64216,6,0,L|320:356,1,99.0000037765504,4|0,0:0|1:0,0:0:0:0:
296,328,64722,2,0,L|164:328,1,109.955999815443,4|2,0:0|1:2,0:0:0:0:
144,296,65228,2,0,L|8:296,1,118.799996374512,4|4,1:2|1:2,0:0:0:0:
18,249,65733,1,4,0:0:0:0:
12,200,65902,1,4,0:0:0:0:
224,44,66744,6,0,P|312:36|420:48,1,198,4|8,0:0|0:0,0:0:0:0:
504,116,67587,1,2,0:2:0:0:
476,272,68093,6,0,P|388:280|280:268,1,198,4|8,0:0|0:0,0:0:0:0:
192,208,68935,1,2,0:2:0:0:
120,68,69441,6,0,P|72:108|72:184,1,132,4|2,0:0|0:2,0:0:0:0:
88,276,70115,2,0,P|128:324|204:324,1,132,4|2,0:0|0:2,0:0:0:0:
284,272,70789,1,4,0:0:0:0:
372,328,71126,1,4,0:0:0:0:
464,272,71463,1,4,0:0:0:0:
460,112,71969,5,8,0:0:0:0:
368,56,72306,2,0,P|280:64|168:56,1,198,4|4,0:0|0:0,0:0:0:0:
40,144,73317,5,8,0:0:0:0:
132,200,73654,2,0,P|200:196|280:200,1,132,4|8,0:0|0:0,0:0:0:0:
360,240,74329,2,0,P|427:244|492:240,1,132,2|8,0:2|0:0,0:0:0:0:
424,156,75003,5,4,0:0:0:0:
356,76,75340,1,8,0:0:0:0:
256,48,75677,2,0,P|158:55|59:47,1,198,2|4,0:2|0:0,0:0:0:0:
4,192,76688,1,8,0:0:0:0:
8,296,77025,1,2,0:2:0:0:
156,352,77531,6,0,P|256:340|364:356,1,198,4|8,0:0|0:0,0:0:0:0:
456,332,78374,1,2,0:2:0:0:
456,173,78879,6,0,P|356:185|248:169,1,198,4|8,0:0|0:0,0:0:0:0:
156,193,79722,1,2,0:2:0:0:
48,76,80228,6,0,L|176:40,1,132,4|2,0:0|0:2,0:0:0:0:
232,128,80902,2,0,L|364:128,1,132,4|2,0:0|0:2,0:0:0:0:
388,232,81576,2,0,L|512:300,2,132,4|4|4,0:0|0:0|0:0,0:0:0:0:
256,316,82756,1,8,0:0:0:0:
256,192,83093,12,4,85789,0:2:0:0:
256,124,86463,5,4,0:2:0:0:
112,176,86969,1,2,0:2:0:0:
112,281,87306,1,0,0:0:0:0:
112,281,87475,2,0,P|257:349|404:281,1,330,2|4,0:2|0:0,0:0:0:0:
468,348,89834,6,0,P|500:288|472:224,1,132,4|8,0:0|0:0,0:0:0:0:
400,164,90508,2,0,P|379:107|411:47,1,132,2|8,0:2|0:0,0:0:0:0:
460,24,91014,1,4,0:0:0:0:
512,168,91520,1,8,0:0:0:0:
504,272,91857,2,0,P|448:336|344:299,1,198,4|4,0:0|0:0,0:0:0:0:
256,180,92868,5,8,0:0:0:0:
188,96,93205,2,0,P|72:60|8:172,1,264,2|4,0:2|0:0,0:0:0:0:
24,268,94216,1,8,0:0:0:0:
116,324,94553,1,2,0:2:0:0:
216,296,94890,1,8,0:0:0:0:
316,340,95228,6,0,L|512:312,1,198,4|2,0:0|0:2,0:0:0:0:
472,212,96070,1,2,0:2:0:0:
508,112,96407,2,0,L|312:84,1,198,2|8,0:2|0:0,0:0:0:0:
208,56,97250,2,0,P|140:68|76:56,1,132,4|8,0:0|0:0,0:0:0:0:
256,192,97924,12,4,100284,0:0:0:0:
