osu file format v14

[General]
AudioFilename: sweet ARMS - Blade of Hope (TV Size).mp3
AudioLeadIn: 0
PreviewTime: 52648
Countdown: 0
SampleSet: Soft
StackLeniency: 0.7
Mode: 0
LetterboxInBreaks: 0
WidescreenStoryboard: 1

[Editor]
DistanceSpacing: 1.2
BeatDivisor: 4
GridSize: 4
TimelineZoom: 1

[Metadata]
Title:Blade of Hope (TV Size)
TitleUnicode:Blade of Hope (TV Size)
Artist:sweet ARMS
ArtistUnicode:sweet ARMS
Creator:Verlaren
Version:Hard
Source:Shinmai Maou no Testament
Tags:basara tojo, mio naruse, yuki nonaka, kurumi nonaka, maria naruse, jin tojo
BeatmapID:592833
BeatmapSetID:259415

[Difficulty]
HPDrainRate:5
CircleSize:4
OverallDifficulty:5
ApproachRate:6
SliderMultiplier:1.40000000596046
SliderTickRate:1

[Events]
//Background and Video events
Video,0,"Shinmai Maou no Testament - Opening.avi"
0,0,"background_smnt.jpg",0,0
//Break Periods
//Storyboard Layer 0 (Background)
//Storyboard Layer 1 (Fail)
//Storyboard Layer 2 (Pass)
//Storyboard Layer 3 (Foreground)
//Storyboard Sound Samples

[TimingPoints]
-171,319.148936170213,4,2,0,50,1,0
29190,-133.333333333333,4,2,0,50,0,0
30786,-100,4,2,0,50,0,0
53446,-100,4,2,0,50,0,1
77701,-100,4,2,0,50,0,0
89988,-100,4,2,0,5,0,0

[Colours]
Combo1 : 18,124,255
Combo2 : 0,174,0
Combo3 : 234,0,0
Combo4 : 157,60,255

[HitObjects]
144,136,946,5,0,0:0:0:0:
144,136,1105,2,0,P|172:96|180:48,2,70.000000298023,0|0|0,0:0|0:0|0:0,0:0:0:0:
88,196,1584,2,0,P|68:228|60:260,2,70.000000298023,0|0|0,0:0|0:0|0:0,0:0:0:0:
256,192,2063,12,0,3339,0:0:0:0:
340,88,3658,6,0,P|368:156|356:228,1,140.000000596046
224,320,4297,2,0,P|188:304|148:304,1,70.000000298023,0|0,0:0|0:0,0:0:0:0:
80,332,4616,1,0,0:0:0:0:
92,164,4935,2,0,L|80:232,2,70.000000298023,0|0|0,0:0|0:0|0:0,0:0:0:0:
112,84,5414,1,0,0:0:0:0:
188,48,5573,2,0,P|236:36|272:40,1,70.000000298023
383,83,5892,2,0,P|349:94|314:95,1,70.000000298023
460,120,6211,6,0,B|488:200|440:272,1,140.000000596046
285,292,6850,2,0,P|332:280|360:280,2,70.000000298023,0|0|0,0:0|0:0|0:0,0:0:0:0:
124,328,7488,1,0,0:0:0:0:
52,288,7648,1,0,0:0:0:0:
36,208,7807,2,0,P|20:164|20:120,1,70.000000298023,0|0,0:0|0:0,0:0:0:0:
100,152,8126,2,0,P|104:105|122:65,1,70.000000298023,0|0,0:0|0:0,0:0:0:0:
180,132,8446,2,0,P|203:91|237:63,1,70.000000298023,0|0,0:0|0:0,0:0:0:0:
265,159,8765,6,0,P|293:223|285:292,1,140.000000596046,0|0,0:0|0:0,0:0:0:0:
344,232,9243,2,0,P|365:166|417:120,1,140.000000596046,0|0,0:0|0:0,0:0:0:0:
416,120,9722,1,0,0:0:0:0:
276,28,10041,1,0,0:0:0:0:
196,48,10201,1,0,0:0:0:0:
180,132,10360,1,0,0:0:0:0:
320,312,10680,2,0,L|368:368,2,70.000000298023,0|0|0,0:0|0:0|0:0,0:0:0:0:
180,220,11318,6,0,P|128:276|120:352,1,140.000000596046
48,292,11797,2,0,B|32:256|60:232|60:232|40:196|40:196|72:168|72:168|48:132|48:132|80:100|72:52,1,280.000001192092
196,48,12754,5,0,0:0:0:0:
228,76,13073,1,0,0:0:0:0:
260,104,13392,1,0,0:0:0:0:
396,200,13711,1,0,0:0:0:0:
396,200,13791,1,0,0:0:0:0:
396,200,13871,6,0,P|348:264|340:332,1,140.000000596046
279,262,14350,2,0,P|216:224|136:232,1,140.000000596046
151,226,14829,1,0,0:0:0:0:
48,360,15148,2,0,L|32:276,2,70.000000298023,0|0|0,0:0|0:0|0:0,0:0:0:0:
48,192,15786,1,0,0:0:0:0:
107,132,15946,1,0,0:0:0:0:
107,48,16105,1,0,0:0:0:0:
274,48,16424,38,0,P|364:80|384:132,1,140.000000596046
432,276,17063,2,0,L|452:192,2,70.000000298023,0|0|0,0:0|0:0|0:0,0:0:0:0:
276,340,17701,1,0,0:0:0:0:
196,320,17860,1,0,0:0:0:0:
120,280,18020,2,0,P|100:248|96:212,1,70.000000298023,0|0,0:0|0:0,0:0:0:0:
152,156,18339,2,0,P|172:188|176:224,1,70.000000298023,0|0,0:0|0:0,0:0:0:0:
244,168,18658,2,0,P|249:121|265:97,1,70.000000298023
324,156,18977,6,0,P|352:232|336:292,1,140.000000596046
420,312,19456,2,0,P|424:192|392:108,1,210.000000894069
148,48,20414,1,0,0:0:0:0:
16,152,20733,1,0,0:0:0:0:
48,316,21052,1,0,0:0:0:0:
226,137,21531,22,0,P|256:192|264:276,1,140.000000596046
336,312,22009,2,0,P|342:249|384:176,1,140.000000596046
444,128,22488,1,0,0:0:0:0:
388,64,22648,2,0,P|312:72|248:52,1,140.000000596046
251,54,23126,1,0,0:0:0:0:
84,72,23446,1,0,0:0:0:0:
220,172,23765,1,0,0:0:0:0:
64,232,24084,22,0,P|56:308|8:360,1,140.000000596046
100,354,24563,2,0,P|168:324|236:332,1,140.000000596046
409,152,25201,2,0,P|428:224|376:280,1,140.000000596046
320,316,25680,1,0,0:0:0:0:
256,160,25999,1,0,0:0:0:0:
392,64,26318,1,0,0:0:0:0:
224,56,26637,38,0,L|80:72,1,140.000000596046
44,144,27116,2,0,L|183:159,1,140.000000596046
252,208,27594,1,0,0:0:0:0:
300,276,27754,2,0,P|232:292|176:240,1,140.000000596046
340,196,28392,1,0,0:0:0:0:
458,77,28711,1,0,0:0:0:0:
458,245,29031,1,0,0:0:0:0:
420,172,29190,22,0,P|368:116|284:132,1,157.5000066787
182,159,29988,1,0,0:0:0:0:
96,68,30307,2,0,P|144:31|240:47,1,157.5000066787
295,103,30946,1,0,0:0:0:0:
295,103,31025,1,0,0:0:0:0:
294,102,31105,2,0,P|296:137|287:171,1,70.000000298023
371,67,31424,2,0,P|384:28|412:-3,1,70.000000298023
452,72,31743,6,0,P|440:144|392:200,1,140.000000596046
328,240,32222,2,0,P|260:268|220:340,1,140.000000596046
148,352,32701,1,0,0:0:0:0:
76,312,32860,1,0,0:0:0:0:
40,236,33020,2,0,P|36:156|72:104,1,140.000000596046
148,84,33499,1,0,0:0:0:0:
232,92,33658,2,0,L|264:160,1,70.000000298023
336,196,33977,2,0,L|342:126,1,70.000000298023
402,66,34297,6,0,P|424:132|416:200,1,140.000000596046
380,276,34775,2,0,P|324:324|252:324,1,140.000000596046
200,267,35254,1,0,0:0:0:0:
40,320,35573,1,0,0:0:0:0:
144,188,35892,2,0,P|168:120|160:40,1,140.000000596046
79,53,36371,2,0,L|56:128,2,70.000000298023
163,53,36850,6,0,L|308:76,1,140.000000596046
361,134,37329,2,0,P|280:192|236:188,1,140.000000596046
184,249,37807,2,0,L|252:280,1,70.000000298023
196,335,38126,2,0,B|116:308|104:272|112:228,1,140.000000596046
112,156,38605,1,0,0:0:0:0:
80,80,38765,2,0,L|0:88,2,70.000000298023
164,84,39243,1,0,0:0:0:0:
248,96,39403,6,0,P|352:112|384:96,1,140.000000596046
439,39,39882,2,0,P|416:109|432:177,1,140.000000596046
428,340,40520,2,0,P|360:280|304:264,1,140.000000596046
242,310,40999,1,0,0:0:0:0:
242,310,41158,2,0,L|186:263,1,70.000000298023
104,264,41477,2,0,L|94:195,2,70.000000298023
24,240,41956,22,0,P|20:160|64:104,1,140.000000596046
204,40,42594,2,0,L|224:112,1,70.000000298023
282,167,42914,1,0,0:0:0:0:
282,167,43073,1,0,0:0:0:0:
364,148,43233,2,0,L|384:76,1,70.000000298023
452,32,43552,2,0,L|472:128,1,70.000000298023
464,184,43871,1,0,0:0:0:0:
464,184,44031,2,0,P|460:280|424:332,1,140.000000596046
368,360,44509,6,0,P|272:364|228:336,1,140.000000596046
140,204,45148,1,0,0:0:0:0:
21,84,45467,2,0,L|94:45,1,70.000000298023
103,144,45786,2,0,L|149:219,1,70.000000298023
21,174,46105,2,0,L|-51:212,1,70.000000298023
162,96,46584,2,0,P|201:80|234:82,2,70.000000298023
261,287,47063,38,0,P|288:223|286:154,1,140.000000596046
108,357,47701,2,0,P|62:350|22:329,2,70.000000298023
188,332,48180,1,0,0:0:0:0:
269,314,48339,2,0,P|362:315|393:363,1,140.000000596046
448,252,48977,2,0,L|476:188,2,70.000000298023
270,314,49616,38,0,P|259:238|292:182,1,140.000000596046
423,84,50254,22,0,P|395:119|365:133,1,70.000000298023
293,102,50573,2,0,P|321:67|351:53,1,70.000000298023
288,185,50892,6,0,B|212:206|149:196|149:197,1,140.000000596046
27,80,51531,21,0,0:0:0:0:
256,192,51690,12,0,53126,0:0:0:0:
300,140,53446,38,0,P|316:208|288:280,1,140.000000596046
352,213,53924,2,0,P|388:148|448:128,1,140.000000596046
508,188,54403,2,0,P|512:236|504:260,1,70.000000298023
460,328,54722,1,0,0:0:0:0:
296,348,55041,2,0,P|252:332|228:312,1,70.000000298023
107,232,55360,2,0,P|140:242|168:264,1,70.000000298023
96,312,55680,2,0,P|62:301|35:280,1,70.000000298023
20,196,55999,6,0,P|44:120|112:80,1,140.000000596046
172,68,56477,2,0,B|224:68|260:108|308:108,1,140.000000596046
388,100,56956,2,0,P|428:92|456:72,1,70.000000298023
488,152,57275,5,0,0:0:0:0:
412,300,57594,1,0,0:0:0:0:
280,196,57914,1,0,0:0:0:0:
180,328,58233,1,0,0:0:0:0:
154,305,58392,1,0,0:0:0:0:
128,281,58552,5,0,0:0:0:0:
136,112,58871,2,0,L|108:40,2,70.000000298023
280,196,59509,2,0,L|316:120,1,70.000000298023
369,192,59829,2,0,L|297:344,1,140.000000596046
368,377,60307,1,0,0:0:0:0:
444,336,60467,2,0,P|492:288|492:208,1,140.000000596046
