osu file format v13

[General]
AudioFilename: Blade of Hope.mp3
AudioLeadIn: 0
PreviewTime: 52817
Countdown: 0
SampleSet: None
StackLeniency: 0.7
Mode: 3
LetterboxInBreaks: 0
SpecialStyle: 0
WidescreenStoryboard: 1

[Editor]
Bookmarks: 51859
DistanceSpacing: 1.8
BeatDivisor: 4
GridSize: 4
TimelineZoom: 2

[Metadata]
Title:Blade of Hope (TV Size)
TitleUnicode:Blade of Hope (TV Size)
Artist:sweet ARMS
ArtistUnicode:sweet ARMS
Creator:- Yuuto -
Version:4k MX
Source:新妹魔王の契約者
Tags:テスタメント The Testament of Sister New Devil Shinmai Maou no Keiyakusha Opening Theme Genocide Kin
BeatmapID:622229
BeatmapSetID:269449

[Difficulty]
HPDrainRate:8
CircleSize:4
OverallDifficulty:8
ApproachRate:5
SliderMultiplier:1.5
SliderTickRate:1

[Events]
//Background and Video events
0,0,"background.jpg",0,0
//Break Periods
//Storyboard Layer 0 (Background)
//Storyboard Layer 1 (Fail)
//Storyboard Layer 2 (Pass)
//Storyboard Layer 3 (Foreground)
//Storyboard Sound Samples

[TimingPoints]
1115,319.148936170213,4,2,1,25,1,0
3668,-100,4,2,1,25,0,1
8455,-100,4,2,1,25,0,0
13741,-100,4,2,1,25,0,1
21540,-100,4,2,1,25,0,0
53455,-100,4,2,1,25,0,1
63349,-100,4,2,1,25,0,0
63668,-100,4,2,1,25,0,1
77710,-100,4,2,1,25,0,0
86646,-117.647058823529,4,2,1,25,0,0

[HitObjects]
64,192,955,128,0,1354:0:0:0:0:
192,192,1035,128,0,1434:0:0:0:0:
448,192,1115,128,0,1513:0:0:0:0:
320,192,1274,128,0,1673:0:0:0:0:
64,192,1434,128,0,1753:0:0:0:0:
192,192,1513,128,0,1992:0:0:0:0:
448,192,1593,128,0,1833:0:0:0:0:
320,192,1753,128,0,2072:0:0:0:0:
64,192,1833,128,0,2072:0:0:0:0:
448,192,1912,128,0,2072:0:0:0:0:
192,192,2072,128,0,3029:0:0:0:0:
448,192,3029,128,0,3349:0:0:0:0:
64,192,3029,128,0,3349:0:0:0:0:
192,192,3349,1,0,0:0:0:0:
320,192,3349,1,0,0:0:0:0:
64,192,3668,1,4,0:0:0:0:
448,192,3668,1,4,0:0:0:0:
192,192,3668,128,0,4146:0:0:0:0:
320,192,3668,1,0,0:0:0:0:
448,192,3987,1,0,0:0:0:25:drum-hitclap.wav
64,192,3987,1,0,0:0:0:0:
64,192,4146,128,0,4625:0:0:0:50:basskick.wav
320,192,4146,1,0,0:0:0:0:
448,192,4306,1,0,0:0:0:50:basskick.wav
192,192,4466,1,0,0:0:0:50:basskick.wav
448,192,4625,128,0,5263:0:0:0:25:drum-hitclap.wav
192,192,4625,1,0,0:0:0:0:
320,192,4625,1,0,0:0:0:0:
64,192,4785,1,0,0:0:0:50:basskick.wav
320,192,4944,1,0,0:0:0:50:basskick.wav
192,192,5104,1,0,0:0:0:50:basskick.wav
64,192,5104,1,0,0:0:0:0:
64,192,5263,128,0,5902:0:0:0:25:drum-hitclap.wav
320,192,5263,1,0,0:0:0:0:
192,192,5263,1,0,0:0:0:0:
448,192,5583,128,0,6221:0:0:0:50:basskick.wav
192,192,5583,1,0,0:0:0:0:
320,192,5742,1,0,0:0:0:50:basskick.wav
192,192,5902,128,0,6221:0:0:0:25:drum-hitclap.wav
320,192,5902,1,0,0:0:0:0:
320,192,6221,128,0,6540:0:0:0:50:basskick.wav
64,192,6221,1,0,0:0:0:0:
192,192,6380,1,0,0:0:0:0:
64,192,6540,128,0,6700:0:0:0:25:drum-hitclap.wav
192,192,6540,1,0,0:0:0:0:
448,192,6540,1,0,0:0:0:0:
448,192,6700,128,0,8455:0:0:0:50:basskick.wav
320,192,6700,1,0,0:0:0:0:
64,192,6859,1,0,0:0:0:50:basskick.wav
64,192,7019,1,0,0:0:0:50:basskick.wav
320,192,7178,1,0,0:0:0:25:drum-hitclap.wav
192,192,7178,1,0,0:0:0:0:
64,192,7338,1,0,0:0:0:50:basskick.wav
320,192,7497,1,0,0:0:0:50:basskick.wav
64,192,7657,1,0,0:0:0:50:basskick.wav
192,192,7657,1,0,0:0:0:0:
192,192,7817,1,0,0:0:0:25:drum-hitclap.wav
320,192,7817,1,0,0:0:0:0:
64,192,7976,1,0,0:0:0:50:basskick.wav
320,192,8136,1,0,0:0:0:50:basskick.wav
320,192,8295,1,0,0:0:0:50:basskick.wav
64,192,8455,1,0,0:0:0:25:drum-hitclap.wav
192,192,8455,1,0,0:0:0:0:
64,192,8774,128,4,9253:0:0:0:0:
192,192,8774,1,0,0:0:0:0:
448,192,8774,1,0,0:0:0:0:
320,192,8934,1,0,0:0:0:0:
192,192,9093,1,0,0:0:0:25:drum-hitclap.wav
448,192,9093,1,0,0:0:0:0:
448,192,9253,128,0,9732:0:0:0:50:basskick.wav
320,192,9253,1,0,0:0:0:0:
64,192,9412,1,0,0:0:0:50:basskick.wav
320,192,9572,1,0,0:0:0:50:basskick.wav
192,192,9572,1,0,0:0:0:0:
192,192,9732,128,0,10370:0:0:0:25:drum-hitclap.wav
64,192,9732,1,0,0:0:0:0:
320,192,9732,1,0,0:0:0:0:
448,192,9891,1,0,0:0:0:50:basskick.wav
64,192,10051,1,0,0:0:0:50:basskick.wav
448,192,10210,1,0,0:0:0:50:basskick.wav
64,192,10370,128,0,10689:0:0:0:25:drum-hitclap.wav
320,192,10370,1,0,0:0:0:0:
448,192,10370,1,0,0:0:0:0:
320,192,10529,1,0,0:0:0:50:basskick.wav
448,192,10689,128,0,11008:0:0:0:50:basskick.wav
192,192,10689,1,0,0:0:0:0:
320,192,10849,1,0,0:0:0:50:basskick.wav
192,192,10849,1,0,0:0:0:0:
192,192,11008,128,0,11327:0:0:0:25:drum-hitclap.wav
64,192,11008,1,0,0:0:0:0:
320,192,11008,1,0,0:0:0:0:
64,192,11327,128,0,11806:0:0:0:50:basskick.wav
448,192,11327,1,0,0:0:0:0:
320,192,11327,1,0,0:0:0:0:
192,192,11646,1,0,0:0:0:25:drum-hitclap.wav
448,192,11646,1,0,0:0:0:0:
448,192,11806,128,0,12285:0:0:0:50:basskick.wav
320,192,11806,1,0,0:0:0:0:
64,192,11966,1,0,0:0:0:0:
320,192,12125,1,0,0:0:0:50:basskick.wav
64,192,12285,1,0,0:0:0:25:drum-hitclap.wav
320,192,12285,1,0,0:0:0:0:
192,192,12285,1,0,0:0:0:0:
192,192,12444,1,4,0:0:0:0:
320,192,12444,1,4,0:0:0:0:
448,192,12444,1,0,0:0:0:0:
64,192,12763,1,0,0:0:0:0:
192,192,12763,1,0,0:0:0:0:
448,192,12763,1,0,0:0:0:0:
64,192,13083,1,0,0:0:0:0:
320,192,13083,1,0,0:0:0:0:
448,192,13083,1,0,0:0:0:0:
64,192,13402,1,0,0:0:0:0:
320,192,13402,1,0,0:0:0:0:
448,192,13402,1,0,0:0:0:0:
192,192,13402,128,0,13721:0:0:0:0:
64,192,13721,1,0,0:0:0:25:drum-hitclap.wav
448,192,13721,1,0,0:0:0:0:
320,192,13801,1,0,0:0:0:25:drum-hitclap.wav
64,192,13880,1,4,0:0:0:25:drum-hitclap.wav
192,192,13880,128,4,14359:0:0:0:0:
448,192,13880,1,0,0:0:0:0:
448,192,14200,1,0,0:0:0:25:drum-hitclap.wav
64,192,14200,1,0,0:0:0:0:
64,192,14359,128,0,14838:0:0:0:50:basskick.wav
320,192,14359,1,0,0:0:0:0:
448,192,14519,1,0,0:0:0:50:basskick.wav
192,192,14678,1,0,0:0:0:50:basskick.wav
320,192,14838,128,0,15476:0:0:0:25:drum-hitclap.wav
448,192,14838,1,0,0:0:0:0:
192,192,14838,1,0,0:0:0:0:
64,192,14997,1,0,0:0:0:50:basskick.wav
192,192,15157,1,0,0:0:0:50:basskick.wav
64,192,15317,1,0,0:0:0:50:basskick.wav
448,192,15317,1,0,0:0:0:0:
192,192,15476,128,0,16115:0:0:0:25:drum-hitclap.wav
64,192,15476,1,0,0:0:0:0:
448,192,15476,1,0,0:0:0:0:
320,192,15636,1,0,0:0:0:50:basskick.wav
448,192,15795,128,0,16434:0:0:0:50:basskick.wav
64,192,15795,1,0,0:0:0:0:
320,192,15955,1,0,0:0:0:50:basskick.wav
64,192,16115,128,0,16434:0:0:0:25:drum-hitclap.wav
320,192,16115,1,0,0:0:0:0:
320,192,16434,128,0,16753:0:0:0:50:basskick.wav
192,192,16434,1,0,0:0:0:0:
64,192,16753,128,0,16912:0:0:0:25:drum-hitclap.wav
192,192,16753,1,0,0:0:0:0:
448,192,16753,1,0,0:0:0:0:
448,192,16912,128,0,18668:0:0:0:50:basskick.wav
320,192,16912,1,0,0:0:0:0:
64,192,17072,1,0,0:0:0:50:basskick.wav
192,192,17232,1,0,0:0:0:50:basskick.wav
64,192,17391,1,0,0:0:0:25:drum-hitclap.wav
320,192,17391,1,0,0:0:0:0:
192,192,17551,1,0,0:0:0:50:basskick.wav
320,192,17710,1,0,0:0:0:50:basskick.wav
320,192,17870,1,0,0:0:0:50:basskick.wav
64,192,18029,1,4,0:0:0:25:drum-hitclap.wav
192,192,18029,1,4,0:0:0:0:
320,192,18189,1,0,0:0:0:50:basskick.wav
64,192,18349,1,0,0:0:0:50:basskick.wav
192,192,18508,1,0,0:0:0:50:basskick.wav
320,192,18668,1,0,0:0:0:25:drum-hitclap.wav
64,192,18668,1,0,0:0:0:0:
64,192,18987,1,4,0:0:0:0:
448,192,18987,1,4,0:0:0:0:
192,192,18987,128,4,19466:0:0:0:0:
320,192,19146,1,0,0:0:0:0:
64,192,19306,1,0,0:0:0:25:drum-hitclap.wav
448,192,19306,1,0,0:0:0:0:
448,192,19466,128,0,19944:0:0:0:0:
64,192,19466,1,0,0:0:0:0:
320,192,19625,1,0,0:0:0:0:
64,192,19785,1,0,0:0:0:0:
320,192,19944,1,0,0:0:0:25:drum-hitclap.wav
64,192,19944,1,0,0:0:0:0:
192,192,19944,1,0,0:0:0:0:
320,192,20104,1,4,0:0:0:0:
192,192,20104,1,4,0:0:0:0:
448,192,20104,1,4,0:0:0:0:
64,192,20423,1,0,0:0:0:50:basskick.wav
320,192,20423,1,0,0:0:0:0:
448,192,20423,1,0,0:0:0:0:
64,192,20742,1,0,0:0:0:50:basskick.wav
192,192,20742,1,0,0:0:0:0:
448,192,20742,1,0,0:0:0:0:
192,192,21061,1,0,0:0:0:50:basskick.wav
448,192,21061,1,0,0:0:0:0:
64,192,21061,128,0,21540:0:0:0:0:
448,192,21540,1,0,0:0:0:0:
192,192,21540,1,0,0:0:0:0:
320,192,21620,1,0,0:0:0:0:
448,192,22019,1,0,0:0:0:0:
64,192,22019,1,0,0:0:0:0:
64,192,22657,1,0,0:0:0:0:
192,192,22657,1,0,0:0:0:0:
448,192,22697,1,0,0:0:0:0:
448,192,24093,1,0,0:0:0:0:
64,192,24093,1,0,0:0:0:0:
320,192,24133,1,0,0:0:0:0:
64,192,24572,1,0,0:0:0:0:
320,192,24572,1,0,0:0:0:0:
192,192,25210,1,0,0:0:0:0:
320,192,25210,1,0,0:0:0:0:
448,192,25250,1,0,0:0:0:0:
448,192,26367,1,0,0:0:0:0:
320,192,26646,1,0,0:0:0:0:
448,192,26646,1,0,0:0:0:0:
64,192,26686,1,0,0:0:0:0:
64,192,27125,1,0,0:0:0:0:
192,192,27763,1,0,0:0:0:0:
320,192,27763,1,0,0:0:0:0:
448,192,27803,1,0,0:0:0:0:
64,192,28442,1,0,0:0:0:0:
448,192,28880,1,0,0:0:0:0:
64,192,29200,128,0,29519:0:0:0:0:
448,192,29200,128,0,29678:0:0:0:0:
320,192,29678,128,0,30157:0:0:0:0:
64,192,29678,128,0,30317:0:0:0:0:
192,192,30317,128,0,30955:0:0:0:0:
448,192,30317,128,0,30955:0:0:0:0:
64,192,30955,1,0,0:0:0:25:drum-hitclap.wav
320,192,30955,1,0,0:0:0:0:
192,192,31035,1,0,0:0:0:25:drum-hitclap.wav
448,192,31035,1,0,0:0:0:0:
448,192,31194,1,0,0:0:0:25:drum-hitclap.wav
192,192,31194,1,0,0:0:0:0:
64,192,31274,128,0,31753:0:0:0:25:drum-hitclap.wav
320,192,31274,128,0,31753:0:0:0:0:
448,192,31753,1,4,0:0:0:0:
192,192,31753,1,4,0:0:0:0:
64,192,31912,1,0,0:0:0:0:
320,192,31912,1,0,0:0:0:0:
192,192,32072,1,0,0:0:0:25:drum-hitclap.wav
448,192,32072,1,0,0:0:0:0:
64,192,32072,1,0,0:0:0:0:
320,192,32232,1,0,0:0:0:50:basskick.wav
64,192,32391,1,0,0:0:0:0:
448,192,32391,1,0,0:0:0:0:
192,192,32551,128,0,32710:0:0:0:50:basskick.wav
448,192,32710,1,0,0:0:0:25:drum-hitclap.wav
64,192,32710,1,0,0:0:0:0:
320,192,32710,1,0,0:0:0:0:
448,192,32870,1,0,0:0:0:50:basskick.wav
192,192,32870,128,0,33029:0:0:0:0:
64,192,33029,1,0,0:0:0:0:
320,192,33029,1,0,0:0:0:0:
192,192,33189,1,0,0:0:0:50:basskick.wav
64,192,33349,1,0,0:0:0:25:drum-hitclap.wav
320,192,33349,1,0,0:0:0:0:
448,192,33349,1,0,0:0:0:0:
64,192,33508,1,0,0:0:0:0:
192,192,33508,128,0,33588:0:0:0:0:
448,192,33588,128,0,33668:0:0:0:0:
320,192,33588,1,0,0:0:0:0:
192,192,33668,128,0,33747:0:0:0:50:basskick.wav
64,192,33668,1,0,0:0:0:0:
448,192,33747,1,0,0:0:0:0:
320,192,33747,128,0,33827:0:0:0:0:
64,192,33827,1,0,0:0:0:50:basskick.wav
192,192,33987,1,0,0:0:0:25:drum-hitclap.wav
320,192,33987,1,0,0:0:0:0:
448,192,33987,1,0,0:0:0:0:
192,192,34146,128,0,34306:0:0:0:0:
448,192,34146,1,0,0:0:0:0:
64,192,34306,1,0,0:0:0:50:basskick.wav
320,192,34306,1,0,0:0:0:0:
448,192,34466,1,0,0:0:0:0:
64,192,34625,1,0,0:0:0:25:drum-hitclap.wav
192,192,34625,1,0,0:0:0:0:
320,192,34625,128,0,34785:0:0:0:0:
448,192,34785,1,0,0:0:0:50:basskick.wav
64,192,34785,1,0,0:0:0:0:
192,192,34944,1,0,0:0:0:0:
448,192,35104,1,0,0:0:0:50:basskick.wav
64,192,35104,128,0,35263:0:0:0:0:
192,192,35263,1,0,0:0:0:25:drum-hitclap.wav
320,192,35263,1,0,0:0:0:0:
448,192,35423,1,0,0:0:0:50:basskick.wav
64,192,35423,1,0,0:0:0:0:
320,192,35583,1,0,0:0:0:0:
64,192,35742,1,0,0:0:0:50:basskick.wav
448,192,35742,1,0,0:0:0:0:
320,192,35822,1,0,0:0:0:0:
448,192,35902,1,0,0:0:0:25:drum-hitclap.wav
64,192,35902,1,0,0:0:0:0:
192,192,35902,1,0,0:0:0:0:
192,192,36061,1,0,0:0:0:0:
320,192,36061,128,0,36141:0:0:0:0:
448,192,36141,128,0,36221:0:0:0:0:
64,192,36221,1,0,0:0:0:50:basskick.wav
192,192,36380,1,0,0:0:0:50:basskick.wav
448,192,36380,1,0,0:0:0:0:
320,192,36540,1,0,0:0:0:25:drum-hitclap.wav
448,192,36540,1,0,0:0:0:0:
64,192,36540,1,0,0:0:0:0:
64,192,36859,1,0,0:0:0:0:
192,192,36859,1,0,0:0:0:0:
320,192,36859,1,0,0:0:0:0:
448,192,36859,1,0,0:0:0:0:
64,192,37178,128,0,37338:0:0:0:25:drum-hitclap.wav
448,192,37178,1,0,0:0:0:0:
192,192,37178,1,0,0:0:0:0:
320,192,37338,1,0,0:0:0:50:basskick.wav
64,192,37497,1,0,0:0:0:0:
192,192,37497,1,0,0:0:0:0:
448,192,37657,128,0,37817:0:0:0:50:basskick.wav
64,192,37817,1,0,0:0:0:25:drum-hitclap.wav
320,192,37817,1,0,0:0:0:0:
448,192,37976,128,0,38136:0:0:0:50:basskick.wav
192,192,37976,1,0,0:0:0:0:
64,192,38136,1,0,0:0:0:0:
320,192,38295,1,0,0:0:0:50:basskick.wav
192,192,38455,1,0,0:0:0:25:drum-hitclap.wav
448,192,38455,1,0,0:0:0:0:
64,192,38455,1,0,0:0:0:0:
320,192,38615,128,0,38694:0:0:0:0:
448,192,38615,1,0,0:0:0:0:
192,192,38694,1,0,0:0:0:0:
64,192,38694,128,0,38774:0:0:0:0:
320,192,38774,128,0,38854:0:0:0:50:basskick.wav
448,192,38774,1,0,0:0:0:0:
192,192,38854,128,0,38934:0:0:0:0:
64,192,38854,1,0,0:0:0:0:
448,192,38934,1,0,0:0:0:50:basskick.wav
64,192,39093,1,0,0:0:0:25:drum-hitclap.wav
192,192,39093,1,0,0:0:0:0:
320,192,39093,1,0,0:0:0:0:
448,192,39253,1,0,0:0:0:0:
192,192,39412,128,0,39732:0:0:0:50:basskick.wav
320,192,39412,1,0,0:0:0:0:
448,192,39732,1,0,0:0:0:25:drum-hitclap.wav
64,192,39732,1,0,0:0:0:0:
64,192,39891,128,0,40210:0:0:0:50:basskick.wav
320,192,39891,1,0,0:0:0:0:
320,192,40210,1,0,0:0:0:50:basskick.wav
448,192,40370,128,0,41008:0:0:0:25:drum-hitclap.wav
64,192,40370,1,0,0:0:0:0:
192,192,40370,1,0,0:0:0:0:
320,192,40529,1,0,0:0:0:50:basskick.wav
320,192,40849,1,0,0:0:0:50:basskick.wav
64,192,41008,1,0,0:0:0:25:drum-hitclap.wav
320,192,41008,1,0,0:0:0:0:
192,192,41088,1,8,0:3:0:0:
448,192,41088,1,0,0:0:0:0:
64,192,41168,1,8,0:3:0:0:
320,192,41168,1,0,0:0:0:0:
320,192,41327,1,8,0:3:0:0:
448,192,41327,1,0,0:0:0:0:
64,192,41487,1,8,0:3:0:0:
192,192,41487,1,0,0:0:0:0:
320,192,41646,1,8,0:3:0:0:
448,192,41646,1,0,0:0:0:0:
64,192,41806,1,0,0:0:0:25:drum-hitclap.wav
192,192,41806,1,0,0:0:0:0:
192,192,41966,1,4,0:0:0:0:
320,192,41966,1,4,0:0:0:0:
448,192,41966,128,4,42604:0:0:0:0:
64,192,42285,128,0,42923:0:0:0:0:
192,192,42604,128,0,43242:0:0:0:25:drum-hitclap.wav
320,192,42604,1,0,0:0:0:0:
448,192,42923,128,0,43561:0:0:0:0:
64,192,43242,128,0,43880:0:0:0:0:
320,192,43561,128,0,44200:0:0:0:0:
192,192,43880,128,0,44519:0:0:0:25:drum-hitclap.wav
448,192,43880,1,0,0:0:0:0:
448,192,44200,128,0,44838:0:0:0:0:
64,192,44519,128,0,45157:0:0:0:0:
320,192,44838,128,0,45476:0:0:0:0:
192,192,45157,128,0,45795:0:0:0:25:drum-hitclap.wav
448,192,45157,1,0,0:0:0:0:
448,192,45476,128,0,45795:0:0:0:0:
64,192,45795,1,0,0:0:0:0:
320,192,45795,1,0,0:0:0:0:
192,192,45955,1,0,0:0:0:0:
448,192,45955,1,0,0:0:0:0:
64,192,46274,1,4,0:0:0:25:drum-hitclap.wav
192,192,46274,1,0,0:0:0:0:
320,192,46274,1,0,0:0:0:0:
448,192,46274,1,0,0:0:0:0:
64,192,46593,1,0,0:0:0:25:drum-hitclap.wav
448,192,46593,1,0,0:0:0:0:
320,192,46673,1,0,0:0:0:25:drum-hitclap.wav
64,192,46753,1,0,0:0:0:25:drum-hitclap.wav
448,192,46753,1,0,0:0:0:0:
192,192,46833,1,0,0:0:0:25:drum-hitclap.wav
448,192,46912,1,0,0:0:0:25:drum-hitclap.wav
320,192,46912,1,0,0:0:0:0:
192,192,46992,1,0,0:0:0:25:drum-hitclap.wav
448,192,47072,1,4,0:0:0:25:drum-hitclap.wav
320,192,47072,1,0,0:0:0:0:
64,192,47072,128,0,49625:0:0:0:0:
192,192,47232,1,0,0:0:0:0:
320,192,47391,1,0,0:0:0:25:drum-hitclap.wav
448,192,47391,1,0,0:0:0:0:
192,192,47551,1,0,0:0:0:50:basskick.wav
448,192,47710,1,0,0:0:0:0:
448,192,47870,1,0,0:0:0:50:basskick.wav
192,192,48029,1,0,0:0:0:25:drum-hitclap.wav
320,192,48029,1,0,0:0:0:0:
448,192,48189,1,0,0:0:0:50:basskick.wav
192,192,48349,1,0,0:0:0:50:basskick.wav
448,192,48508,1,0,0:0:0:50:basskick.wav
320,192,48508,1,0,0:0:0:0:
192,192,48668,1,0,0:0:0:25:drum-hitclap.wav
448,192,48668,1,0,0:0:0:0:
192,192,48987,1,0,0:0:0:50:basskick.wav
448,192,49146,1,0,0:0:0:50:basskick.wav
320,192,49146,1,0,0:0:0:0:
192,192,49306,1,0,0:0:0:25:drum-hitclap.wav
448,192,49306,1,0,0:0:0:0:
192,192,49625,128,0,50263:0:0:0:25:drum-hitclap.wav
448,192,49625,1,0,0:0:0:0:
320,192,49625,1,0,0:0:0:0:
448,192,50263,128,0,50902:0:0:0:25:drum-hitclap.wav
64,192,50263,1,0,0:0:0:0:
320,192,50263,1,0,0:0:0:0:
64,192,50902,128,0,51859:0:0:0:25:drum-hitclap.wav
192,192,50902,1,0,0:0:0:0:
320,192,50902,1,0,0:0:0:0:
192,192,51221,1,0,0:0:0:25:drum-hitclap.wav
320,192,51221,1,0,0:0:0:0:
448,192,51540,128,0,51859:0:0:0:25:drum-hitclap.wav
192,192,51540,1,0,0:0:0:0:
320,192,51540,1,0,0:0:0:0:
320,192,51859,1,0,0:0:0:25:drum-hitclap.wav
192,192,51859,1,0,0:0:0:0:
448,192,52817,128,0,53136:0:0:0:0:
64,192,53136,1,0,0:0:0:0:
320,192,53136,1,0,0:0:0:0:
192,192,53216,1,0,0:0:0:0:
320,192,53295,1,0,0:0:0:0:
448,192,53295,1,0,0:0:0:0:
64,192,53375,1,0,0:0:0:0:
192,192,53455,1,4,0:0:0:0:
320,192,53455,128,0,54732:0:0:0:0:
448,192,53455,1,0,0:0:0:0:
64,192,53615,1,0,0:0:0:0:
192,192,53774,1,0,0:0:0:25:drum-hitclap.wav
448,192,53774,1,0,0:0:0:0:
64,192,53934,1,0,0:0:0:50:basskick.wav
448,192,54093,1,0,0:0:0:0:
64,192,54253,1,0,0:0:0:50:basskick.wav
192,192,54412,1,0,0:0:0:25:drum-hitclap.wav
448,192,54412,1,0,0:0:0:0:
64,192,54572,1,0,0:0:0:50:basskick.wav
64,192,54732,128,0,56008:0:0:0:0:
448,192,54732,1,0,0:0:0:0:
192,192,54732,1,0,0:0:0:0:
320,192,55051,1,0,0:0:0:25:drum-hitclap.wav
448,192,55051,1,0,0:0:0:0:
192,192,55210,1,0,0:0:0:0:
448,192,55370,1,0,0:0:0:50:basskick.wav
320,192,55370,1,0,0:0:0:0:
448,192,55529,1,0,0:0:0:50:basskick.wav
320,192,55529,1,0,0:0:0:0:
192,192,55689,1,0,0:0:0:25:drum-hitclap.wav
320,192,55689,1,0,0:0:0:0:
448,192,55689,1,0,0:0:0:0:
448,192,55849,1,0,0:0:0:0:
192,192,56008,128,0,57285:0:0:0:50:basskick.wav
320,192,56008,1,0,0:0:0:0:
448,192,56327,1,0,0:0:0:25:drum-hitclap.wav
64,192,56327,1,0,0:0:0:0:
320,192,56487,1,0,0:0:0:50:basskick.wav
64,192,56646,1,0,0:0:0:0:
320,192,56806,1,0,0:0:0:50:basskick.wav
64,192,56966,1,0,0:0:0:25:drum-hitclap.wav
448,192,56966,1,0,0:0:0:0:
320,192,57125,1,0,0:0:0:50:basskick.wav
448,192,57285,128,0,58561:0:0:0:50:basskick.wav
64,192,57285,1,0,0:0:0:0:
320,192,57444,1,0,0:0:0:50:basskick.wav
64,192,57604,1,0,0:0:0:25:drum-hitclap.wav
192,192,57604,1,0,0:0:0:0:
320,192,57763,1,0,0:0:0:50:basskick.wav
192,192,57923,1,0,0:0:0:50:basskick.wav
64,192,57923,1,0,0:0:0:0:
320,192,58083,1,0,0:0:0:50:basskick.wav
192,192,58083,1,0,0:0:0:0:
64,192,58242,1,0,0:0:0:25:drum-hitclap.wav
320,192,58242,1,0,0:0:0:0:
192,192,58242,1,0,0:0:0:0:
320,192,58561,128,0,61115:0:0:0:0:
64,192,58561,1,0,0:0:0:0:
192,192,58561,1,0,0:0:0:0:
64,192,58880,1,0,0:0:0:25:drum-hitclap.wav
448,192,58880,1,0,0:0:0:0:
192,192,59040,1,0,0:0:0:50:basskick.wav
64,192,59200,1,0,0:0:0:0:
192,192,59359,1,0,0:0:0:50:basskick.wav
64,192,59519,1,0,0:0:0:25:drum-hitclap.wav
448,192,59519,1,0,0:0:0:0:
192,192,59678,1,0,0:0:0:50:basskick.wav
64,192,59838,1,0,0:0:0:0:
448,192,59997,1,0,0:0:0:50:basskick.wav
192,192,59997,1,0,0:0:0:0:
448,192,60157,1,0,0:0:0:25:drum-hitclap.wav
64,192,60157,1,0,0:0:0:0:
64,192,60476,1,0,0:0:0:50:basskick.wav
448,192,60476,1,0,0:0:0:0:
192,192,60636,1,0,0:0:0:50:basskick.wav
448,192,60636,1,0,0:0:0:0:
64,192,60795,1,0,0:0:0:25:drum-hitclap.wav
448,192,60795,1,0,0:0:0:0:
64,192,61115,128,0,62391:0:0:0:50:basskick.wav
448,192,61115,1,0,0:0:0:0:
192,192,61115,1,0,0:0:0:0:
192,192,61434,1,0,0:0:0:25:drum-hitclap.wav
448,192,61434,1,0,0:0:0:0:
320,192,61593,1,0,0:0:0:50:basskick.wav
192,192,61753,1,0,0:0:0:0:
448,192,61912,1,0,0:0:0:50:basskick.wav
448,192,62072,1,0,0:0:0:25:drum-hitclap.wav
192,192,62072,1,0,0:0:0:0:
320,192,62232,1,0,0:0:0:50:basskick.wav
192,192,62391,128,0,63029:0:0:0:0:
448,192,62391,1,0,0:0:0:0:
320,192,62551,1,0,0:0:0:50:basskick.wav
64,192,62710,1,0,0:0:0:25:drum-hitclap.wav
448,192,62710,1,0,0:0:0:0:
320,192,63029,128,0,63668:0:0:0:25:drum-hitclap.wav
64,192,63029,1,0,0:0:0:0:
448,192,63029,1,0,0:0:0:0:
192,192,63189,1,0,0:0:0:50:basskick.wav
448,192,63189,1,0,0:0:0:0:
64,192,63349,1,0,0:0:0:25:drum-hitclap.wav
448,192,63349,1,0,0:0:0:0:
64,192,63668,128,4,66221:0:0:0:0:
192,192,63668,1,4,0:0:0:0:
448,192,63668,1,0,0:0:0:0:
320,192,63827,1,0,0:0:0:0:
192,192,63987,1,0,0:0:0:25:drum-hitclap.wav
448,192,63987,1,0,0:0:0:0:
320,192,64146,1,0,0:0:0:50:basskick.wav
448,192,64306,1,0,0:0:0:0:
320,192,64306,1,0,0:0:0:0:
192,192,64466,1,0,0:0:0:50:basskick.wav
192,192,64625,1,0,0:0:0:25:drum-hitclap.wav
448,192,64625,1,0,0:0:0:0:
320,192,64785,1,0,0:0:0:50:basskick.wav
448,192,64944,1,0,0:0:0:0:
320,192,64944,1,0,0:0:0:0:
192,192,65263,1,0,0:0:0:25:drum-hitclap.wav
448,192,65263,1,0,0:0:0:0:
448,192,65583,1,0,0:0:0:50:basskick.wav
320,192,65583,1,0,0:0:0:0:
192,192,65742,1,0,0:0:0:50:basskick.wav
320,192,65742,1,0,0:0:0:0:
192,192,65902,1,0,0:0:0:25:drum-hitclap.wav
448,192,65902,1,0,0:0:0:0:
320,192,65902,1,0,0:0:0:0:
320,192,66221,128,0,67497:0:0:0:50:basskick.wav
448,192,66221,1,0,0:0:0:0:
192,192,66221,1,0,0:0:0:0:
64,192,66540,1,0,0:0:0:25:drum-hitclap.wav
448,192,66540,1,0,0:0:0:0:
192,192,66700,1,0,0:0:0:50:basskick.wav
64,192,66859,1,0,0:0:0:0:
448,192,66859,1,0,0:0:0:0:
64,192,67019,1,0,0:0:0:50:basskick.wav
192,192,67178,1,0,0:0:0:25:drum-hitclap.wav
448,192,67178,1,0,0:0:0:0:
64,192,67338,1,0,0:0:0:50:basskick.wav
64,192,67497,128,0,68136:0:0:0:50:basskick.wav
448,192,67497,1,0,0:0:0:0:
192,192,67657,1,0,0:0:0:50:basskick.wav
320,192,67817,1,0,0:0:0:25:drum-hitclap.wav
448,192,67817,1,0,0:0:0:0:
448,192,68136,128,0,68774:0:0:0:50:basskick.wav
192,192,68136,1,0,0:0:0:0:
320,192,68136,1,0,0:0:0:0:
64,192,68295,1,0,0:0:0:50:basskick.wav
192,192,68295,1,0,0:0:0:0:
64,192,68455,1,0,0:0:0:25:drum-hitclap.wav
320,192,68455,1,0,0:0:0:0:
192,192,68455,1,0,0:0:0:0:
320,192,68774,128,4,70051:0:0:0:0:
64,192,68774,1,4,0:0:0:0:
192,192,68774,1,0,0:0:0:0:
64,192,69093,1,0,0:0:0:25:drum-hitclap.wav
192,192,69093,1,0,0:0:0:0:
448,192,69253,1,0,0:0:0:50:basskick.wav
64,192,69253,1,0,0:0:0:0:
192,192,69412,1,0,0:0:0:25:drum-hitclap.wav
64,192,69572,1,0,0:0:0:50:basskick.wav
448,192,69572,1,0,0:0:0:0:
64,192,69732,1,0,0:0:0:25:drum-hitclap.wav
192,192,69732,1,0,0:0:0:0:
448,192,69891,1,0,0:0:0:0:
64,192,70051,128,0,71327:0:0:0:0:
448,192,70051,1,0,0:0:0:0:
192,192,70051,1,0,0:0:0:0:
192,192,70370,1,0,0:0:0:25:drum-hitclap.wav
448,192,70370,1,0,0:0:0:0:
192,192,70689,1,0,0:0:0:25:drum-hitclap.wav
320,192,70689,1,0,0:0:0:0:
448,192,70849,1,0,0:0:0:50:basskick.wav
320,192,70849,1,0,0:0:0:0:
192,192,71008,1,0,0:0:0:25:drum-hitclap.wav
320,192,71008,1,0,0:0:0:0:
448,192,71008,1,0,0:0:0:0:
192,192,71327,128,0,72604:0:0:0:50:basskick.wav
448,192,71327,1,0,0:0:0:0:
320,192,71327,1,0,0:0:0:0:
64,192,71646,1,0,0:0:0:25:drum-hitclap.wav
448,192,71646,1,0,0:0:0:0:
320,192,71806,1,0,0:0:0:50:basskick.wav
448,192,71966,1,0,0:0:0:0:
64,192,72125,1,0,0:0:0:50:basskick.wav
64,192,72285,1,0,0:0:0:25:drum-hitclap.wav
448,192,72285,1,0,0:0:0:0:
448,192,72604,1,0,0:0:0:25:drum-hitclap.wav
64,192,72604,1,0,0:0:0:0:
320,192,72763,1,0,0:0:0:50:basskick.wav
192,192,72923,1,0,0:0:0:25:drum-hitclap.wav
64,192,72923,1,0,0:0:0:0:
448,192,72923,1,0,0:0:0:0:
448,192,73083,1,0,0:0:0:0:
64,192,73242,1,0,0:0:0:25:drum-hitclap.wav
192,192,73242,1,0,0:0:0:0:
320,192,73349,1,0,0:0:0:0:
448,192,73349,1,0,0:0:0:0:
64,192,73455,1,0,0:0:0:0:
192,192,73455,1,0,0:0:0:0:
320,192,73561,1,0,0:0:0:25:drum-hitclap.wav
448,192,73561,1,0,0:0:0:0:
64,192,73668,1,0,0:0:0:0:
192,192,73668,1,0,0:0:0:0:
192,192,73774,1,0,0:0:0:0:
320,192,73774,1,0,0:0:0:0:
64,192,73880,1,0,0:0:0:25:drum-hitclap.wav
448,192,73880,1,0,0:0:0:0:
320,192,73880,1,0,0:0:0:0:
192,192,74040,1,0,0:0:0:0:
64,192,74200,1,0,0:0:0:25:drum-hitclap.wav
320,192,74200,1,0,0:0:0:0:
448,192,74200,1,0,0:0:0:0:
64,192,74359,1,0,0:0:0:0:
192,192,74519,1,0,0:0:0:25:drum-hitclap.wav
320,192,74519,1,0,0:0:0:0:
448,192,74519,1,0,0:0:0:0:
448,192,74678,1,0,0:0:0:0:
64,192,74838,1,0,0:0:0:25:drum-hitclap.wav
192,192,74838,1,0,0:0:0:0:
320,192,74838,1,0,0:0:0:0:
192,192,74997,1,0,0:0:0:0:
448,192,75157,1,0,0:0:0:25:drum-hitclap.wav
320,192,75157,1,0,0:0:0:0:
64,192,75157,1,0,0:0:0:0:
448,192,75317,1,0,0:0:0:0:
64,192,75476,1,0,0:0:0:25:drum-hitclap.wav
192,192,75476,1,0,0:0:0:0:
320,192,75476,1,0,0:0:0:0:
320,192,75636,1,0,0:0:0:0:
448,192,75795,1,0,0:0:0:25:drum-hitclap.wav
64,192,75795,1,0,0:0:0:0:
192,192,75795,1,0,0:0:0:0:
448,192,75955,1,0,0:0:0:0:
64,192,76115,1,0,0:0:0:25:drum-hitclap.wav
192,192,76115,1,0,0:0:0:0:
320,192,76115,1,0,0:0:0:0:
64,192,76274,1,0,0:0:0:0:
192,192,76434,1,0,0:0:0:25:drum-hitclap.wav
320,192,76434,1,0,0:0:0:0:
448,192,76434,1,0,0:0:0:0:
320,192,76593,1,0,0:0:0:0:
64,192,76753,1,0,0:0:0:25:drum-hitclap.wav
192,192,76753,1,0,0:0:0:0:
448,192,76753,1,0,0:0:0:0:
192,192,76912,1,0,0:0:0:0:
64,192,77072,1,0,0:0:0:25:drum-hitclap.wav
320,192,77072,1,0,0:0:0:0:
448,192,77072,1,0,0:0:0:0:
192,192,77152,1,0,0:0:0:25:drum-hitclap.wav
320,192,77232,1,0,0:0:0:25:drum-hitclap.wav
64,192,77311,1,0,0:0:0:25:drum-hitclap.wav
448,192,77391,1,0,0:0:0:25:drum-hitclap.wav
192,192,77391,1,0,0:0:0:0:
320,192,77471,1,0,0:0:0:25:drum-hitclap.wav
192,192,77551,1,0,0:0:0:25:drum-hitclap.wav
64,192,77630,1,0,0:0:0:25:drum-hitclap.wav
192,192,77710,1,0,0:0:0:25:drum-hitclap.wav
320,192,77710,1,0,0:0:0:0:
448,192,77710,1,0,0:0:0:0:
64,192,78668,1,0,0:0:0:0:
192,192,78668,1,0,0:0:0:0:
448,192,78668,1,0,0:0:0:0:
320,192,78987,128,4,79466:0:0:0:0:
64,192,78987,1,4,0:0:0:0:
192,192,78987,1,0,0:0:0:0:
448,192,78987,1,0,0:0:0:0:
64,192,79306,1,0,0:0:0:25:drum-hitclap.wav
448,192,79306,1,0,0:0:0:0:
64,192,79466,128,0,79944:0:0:0:50:basskick.wav
192,192,79466,1,0,0:0:0:0:
448,192,79625,1,0,0:0:0:50:basskick.wav
192,192,79785,1,0,0:0:0:50:basskick.wav
320,192,79944,128,0,80583:0:0:0:25:drum-hitclap.wav
448,192,79944,1,0,0:0:0:0:
192,192,79944,1,0,0:0:0:0:
64,192,80104,1,0,0:0:0:50:basskick.wav
192,192,80263,1,0,0:0:0:50:basskick.wav
64,192,80423,1,0,0:0:0:50:basskick.wav
448,192,80583,128,0,81221:0:0:0:25:drum-hitclap.wav
64,192,80583,1,0,0:0:0:0:
192,192,80583,1,0,0:0:0:0:
64,192,80902,128,0,81540:0:0:0:50:basskick.wav
320,192,80902,1,0,0:0:0:0:
192,192,81061,1,0,0:0:0:50:basskick.wav
320,192,81221,128,0,81540:0:0:0:25:drum-hitclap.wav
192,192,81221,1,0,0:0:0:0:
192,192,81540,128,0,81859:0:0:0:0:
448,192,81540,1,0,0:0:0:0:
320,192,81700,1,0,0:0:0:0:
448,192,81859,128,0,82019:0:0:0:25:drum-hitclap.wav
64,192,81859,1,0,0:0:0:0:
320,192,81859,1,0,0:0:0:0:
64,192,82019,128,0,83774:0:0:0:50:basskick.wav
192,192,82019,1,0,0:0:0:0:
320,192,82178,1,0,0:0:0:50:basskick.wav
192,192,82338,1,0,0:0:0:50:basskick.wav
448,192,82497,1,0,0:0:0:25:drum-hitclap.wav
320,192,82497,1,0,0:0:0:0:
192,192,82657,1,0,0:0:0:50:basskick.wav
448,192,82817,1,0,0:0:0:50:basskick.wav
192,192,82976,1,0,0:0:0:50:basskick.wav
320,192,83136,1,0,0:0:0:25:drum-hitclap.wav
448,192,83136,1,0,0:0:0:0:
192,192,83295,1,0,0:0:0:50:basskick.wav
320,192,83455,1,0,0:0:0:50:basskick.wav
192,192,83455,1,0,0:0:0:0:
448,192,83615,1,0,0:0:0:50:basskick.wav
320,192,83615,1,0,0:0:0:0:
448,192,83774,1,0,0:0:0:25:drum-hitclap.wav
192,192,83774,1,0,0:0:0:0:
320,192,83774,1,0,0:0:0:0:
448,192,84093,128,4,84572:0:0:0:0:
64,192,84093,1,0,0:0:0:0:
192,192,84093,1,0,0:0:0:0:
320,192,84412,1,0,0:0:0:25:drum-hitclap.wav
64,192,84412,1,0,0:0:0:0:
64,192,84572,128,0,85051:0:0:0:50:basskick.wav
192,192,84572,1,0,0:0:0:0:
448,192,84732,1,0,0:0:0:0:
320,192,84732,1,0,0:0:0:0:
192,192,84891,1,0,0:0:0:0:
448,192,85051,1,0,0:0:0:25:drum-hitclap.wav
320,192,85051,1,0,0:0:0:0:
192,192,85051,1,0,0:0:0:0:
64,192,85210,1,4,0:0:0:0:
192,192,85210,1,4,0:0:0:0:
320,192,85210,1,4,0:0:0:0:
64,192,85529,1,0,0:0:0:50:basskick.wav
192,192,85529,1,0,0:0:0:0:
448,192,85529,1,0,0:0:0:0:
448,192,85849,1,0,0:0:0:50:basskick.wav
320,192,85849,1,0,0:0:0:0:
64,192,85849,1,0,0:0:0:0:
320,192,86168,1,0,0:0:0:50:basskick.wav
64,192,86168,128,0,86646:0:0:0:0:
448,192,86168,128,0,86646:0:0:0:0:
192,192,86168,1,0,0:0:0:0:
192,192,87285,1,0,0:0:0:0:
320,192,87365,1,0,0:0:0:0:
448,192,87444,128,0,89838:0:0:0:0:
