osu file format v14

[General]
AudioFilename: Shinmai.mp3
AudioLeadIn: 0
PreviewTime: 52817
Countdown: 0
SampleSet: Soft
StackLeniency: 0.4
Mode: 0
LetterboxInBreaks: 0
WidescreenStoryboard: 0

[Editor]
DistanceSpacing: 1.1
BeatDivisor: 4
GridSize: 4
TimelineZoom: 1.2

[Metadata]
Title:Blade of Hope
TitleUnicode:Blade of Hope
Artist:sweet ARMS
ArtistUnicode:sweet ARMS
Creator:Minakami Yuki
Version:xxdeathx's Hard
Source:新妹魔王の契約者
Tags:Shinmai Maou no Keiyakusha The Testament of Sister New Devil opening tv size Iori Nomizu Togashi Misuzu Sadohara Kaori Misato xxdeathx mtbbsben
BeatmapID:606407
BeatmapSetID:263073

[Difficulty]
HPDrainRate:6
CircleSize:4
OverallDifficulty:6
ApproachRate:7.7
SliderMultiplier:1.36
SliderTickRate:1

[Events]
//Background and Video events
0,0,"bg.jpg",0,0
//Break Periods
//Storyboard Layer 0 (Background)
//Storyboard Layer 1 (Fail)
//Storyboard Layer 2 (Pass)
//Storyboard Layer 3 (Foreground)
//Storyboard Sound Samples

[TimingPoints]
3669,319.148936170213,4,2,1,60,1,0
21541,-125,4,2,1,35,0,0
31036,-83.3333333333333,4,2,1,50,0,0
31754,-100,4,2,1,60,0,0
41488,-166.666666666667,4,2,1,60,0,0
41966,-125,4,2,1,45,0,0
45796,-100,4,2,1,60,0,0
52817,-125,4,2,1,45,0,0
53137,-100,4,2,1,45,0,0
53456,-83.3333333333333,4,2,1,75,0,1
63669,-83.3333333333333,4,2,1,75,0,1
77073,-83.3333333333333,4,2,1,45,0,1
77711,-100,4,2,1,75,0,0
78509,-125,4,2,1,60,0,0
78988,-83.3333333333333,4,2,1,60,0,1
79067,-100,4,2,1,60,0,0
86169,-125,4,2,1,60,0,0
86567,-100,4,2,1,30,0,0
89839,-100,4,2,1,5,0,0

[Colours]
Combo1 : 128,0,128
Combo2 : 0,255,0
Combo3 : 255,0,0
Combo4 : 0,128,192

[HitObjects]
256,192,956,12,0,3349,0:0:0:0:
348,48,3669,6,0,B|243:39|243:39|276:72,1,136,4|8,0:0|0:0,0:0:0:0:
308,120,4147,2,0,P|336:176|308:244,1,136,2|0,0:0|0:0,0:0:0:0:
244,204,4626,2,0,L|132:108,1,136,8|0,0:0|0:0,0:0:0:0:
88,168,5105,2,0,P|72:200|80:260,1,68,2|8,0:0|0:0,0:0:0:0:
176,336,5583,1,2,0:0:0:0:
244,204,5903,1,8,0:0:0:0:
364,292,6222,6,0,B|452:280|452:280|496:252,1,136,2|8,0:0|0:0,0:0:0:0:
460,188,6700,2,0,P|404:136|316:136,1,136,2|0,0:0|0:0,0:0:0:0:
280,164,7179,2,0,P|236:168|196:152,1,68,8|0,0:0|0:0,0:0:0:0:
140,144,7498,2,0,L|148:224,1,68,2|0,0:0|0:0,0:0:0:0:
72,200,7817,2,0,L|65:132,1,68,8|0,0:0|0:0,0:0:0:0:
104,272,8137,2,0,P|144:288|188:272,1,68,2|0,0:0|0:0,0:0:0:0:
256,268,8456,2,0,L|272:332,3,34,8|0|0|0,0:0|0:0|0:0|0:0,0:0:0:0:
232,332,8775,6,0,P|152:364|80:344,1,136,4|8,0:0|0:0,0:0:0:0:
36,328,9254,2,0,B|0:296|0:296|8:228|40:200,1,136,2|0,0:0|0:0,0:0:0:0:
68,152,9732,2,0,B|156:148|156:148|220:168,1,136,8|0,0:0|0:0,0:0:0:0:
264,204,10211,1,2,0:0:0:0:
160,248,10371,2,0,P|128:304|168:376,1,136,8|2,0:0|0:0,0:0:0:0:
264,204,11009,1,8,0:0:0:0:
212,64,11328,6,0,P|168:24|92:40,1,136,2|8,0:0|0:0,0:0:0:0:
144,96,11807,2,0,B|144:168|144:168|144:200|160:224|196:224|216:200|208:164|176:176,1,204,2|8,0:0|0:0,0:0:0:0:
4,320,12764,5,4,0:0:0:0:
16,312,13083,1,4,0:0:0:0:
104,240,13403,2,0,B|207:235|207:235|252:252,1,136,4|8,0:0|0:0,0:0:0:0:
264,272,13801,1,8,0:0:0:0:
264,272,13881,6,0,P|312:244|316:160,1,136,4|8,0:0|0:0,0:0:0:0:
252,140,14360,2,0,B|196:136|196:136|168:152|168:152|96:148,1,136,2|0,0:0|0:0,0:0:0:0:
28,104,14839,2,0,B|44:44|108:48|108:48|132:104,1,136,8|0,0:0|0:0,0:0:0:0:
121,149,15317,1,2,0:0:0:0:
80,212,15477,2,0,L|84:304,1,68,8|0,0:0|0:0,0:0:0:0:
140,328,15796,2,0,P|192:284|280:292,1,136,2|8,0:0|0:0,0:0:0:0:
396,340,16434,6,0,B|420:304|420:304|428:200,1,136,2|8,0:0|0:0,0:0:0:0:
380,152,16913,2,0,P|424:136|468:144,2,68,2|0|0,0:0|0:0|0:0,0:0:0:0:
320,196,17392,2,0,L|280:264,1,68,8|0,0:0|0:0,0:0:0:0:
212,244,17711,2,0,L|168:168,1,68,2|0,0:0|0:0,0:0:0:0:
220,124,18030,2,0,L|304:128,1,68,8|0,0:0|0:0,0:0:0:0:
152,64,18349,2,0,B|112:64|112:64|60:88,1,68,2|0,0:0|0:0,0:0:0:0:
52,144,18669,2,0,L|40:192,3,34,8|0|0|0,0:0|0:0|0:0|0:0,0:0:0:0:
40,208,18988,6,4,P|104:192|176:216,1,136,4|8,0:0|0:0,0:0:0:0:
224,268,19466,2,0,P|304:288|360:260,1,136,2|0,0:0|0:0,0:0:0:0:
401,192,19945,2,8,B|429:260|369:284|369:284|345:264,1,136,12|0,0:0|0:0,0:0:0:0:
280,176,20424,5,4,0:0:0:0:
268,188,20743,1,4,0:0:0:0:
152,344,21062,2,0,B|56:344|56:344|88:312,1,136,4|0,0:0|0:0,0:0:0:0:
140,272,21541,6,0,P|168:224|144:160,1,108.8,2|0,0:0|0:0,0:0:0:0:
96,212,22020,2,0,B|80:185|80:185|172:172,1,108.8,2|0,0:0|0:0,0:0:0:0:
224,196,22498,1,2,0:0:0:0:
284,232,22658,2,0,P|344:228|376:188,1,108.8,0|0,0:0|0:0,0:0:0:0:
392,120,23137,1,2,0:0:0:0:
132,60,24094,6,0,P|116:100|136:180,1,108.8,2|0,0:0|0:0,0:0:0:0:
196,168,24573,2,0,P|264:148|316:164,1,108.8,2|0,0:0|0:0,0:0:0:0:
396,260,25211,2,0,P|328:280|276:264,1,108.8,2|0,0:0|0:0,0:0:0:0:
224,260,25690,2,0,B|140:224|76:276|76:276|76:316|132:332,1,217.6,2|2,0:0|0:0,0:0:0:0:
248,344,26647,6,0,P|320:316|364:320,1,108.8,2|0,0:0|0:0,0:0:0:0:
416,348,27126,2,0,B|436:272|436:272|428:232,1,108.8,2|0,0:0|0:0,0:0:0:0:
388,184,27605,1,0,0:0:0:0:
356,248,27764,2,0,P|312:264|232:240,1,108.8,2|0,0:0|0:0,0:0:0:0:
188,228,28243,1,0,0:0:0:0:
188,228,28403,2,0,B|80:220|80:220|48:168,1,163.2,2|2,0:0|0:0,0:0:0:0:
24,36,29200,6,0,P|84:20|136:32,1,108.8,2|0,0:0|0:0,0:0:0:0:
164,92,29679,2,0,B|192:128|248:116|248:116|244:88,1,108.8,2|0,0:0|0:0,0:0:0:0:
216,36,30158,1,0,0:0:0:0:
296,32,30317,2,0,B|312:52|312:52|328:144,1,108.8,2|0,0:0|0:0,0:0:0:0:
264,176,30796,2,0,P|232:200|212:244,1,81.6,0|8,0:0|0:0,0:0:0:0:
204,272,31115,1,8,0:0:0:0:
140,216,31275,2,0,B|64:232|80:308|80:308|116:300,1,163.199995019531,8|0,0:3|0:0,0:0:0:0:
204,272,31754,6,0,P|264:248|336:268,1,136,4|8,0:0|0:0,0:0:0:0:
388,320,32232,2,0,B|420:284|420:284|436:192,1,136,2|0,0:0|0:0,0:0:0:0:
424,116,32711,1,8,0:0:0:0:
328,208,32871,2,0,B|233:189|233:189|192:148,1,136,2|0,0:0|0:0,0:0:0:0:
128,180,33349,2,0,P|108:208|108:252,1,68,8|0,0:0|0:0,0:0:0:0:
206,162,33669,2,0,P|226:134|226:90,1,68,2|0,0:0|0:0,0:0:0:0:
88,130,33988,2,0,P|102:161|140:183,1,68,8|0,0:0|0:0,0:0:0:0:
244,236,34307,6,0,B|288:196|300:140|300:140|312:172,1,136,2|8,0:0|0:0,0:0:0:0:
320,264,34786,2,0,P|272:312|192:296,1,136,2|0,0:0|0:0,0:0:0:0:
148,264,35264,1,8,0:0:0:0:
244,236,35424,2,0,B|256:144|256:144|232:80,1,136,2|0,0:0|0:0,0:0:0:0:
196,44,35903,1,8,0:0:0:0:
176,152,36062,2,0,P|132:160|88:136,1,68,0|2,0:0|0:0,0:0:0:0:
320,84,36541,2,0,L|396:76,1,68,8|0,0:0|0:0,0:0:0:0:
304,156,36860,6,0,B|293:254|293:254|312:312,1,136,4|8,0:0|0:0,0:0:0:0:
348,352,37339,2,0,P|408:332|416:244,1,136,2|0,0:0|0:0,0:0:0:0:
412,196,37817,1,8,0:0:0:0:
356,280,37977,2,0,L|216:272,1,136,2|0,0:0|0:0,0:0:0:0:
156,312,38456,1,8,0:0:0:0:
104,256,38615,1,0,0:0:0:0:
132,188,38775,2,0,P|164:172|220:172,1,68,2|0,0:0|0:0,0:0:0:0:
104,256,39094,2,0,L|44:312,1,68,8|0,0:0|0:0,0:0:0:0:
156,312,39413,6,0,P|228:284|240:216,1,136,2|8,0:0|0:0,0:0:0:0:
216,164,39892,2,0,B|196:120|224:68|224:68|272:84,1,136,2|0,0:0|0:0,0:0:0:0:
300,144,40371,1,8,0:0:0:0:
244,232,40530,2,0,B|304:230|304:230|322:217|322:217|403:214,1,136,2|0,0:0|0:0,0:0:0:0:
416,280,41009,1,8,0:0:0:0:
344,304,41169,2,0,L|324:364,2,34,8|0|8,0:0|0:0|0:0,0:0:0:0:
376,216,41488,6,0,P|420:204|468:224,1,81.5999975097657,8|0,0:3|0:0,0:0:0:0:
344,304,41966,6,0,P|260:324|168:292,1,163.2,4|2,0:0|0:0,0:0:0:0:
128,264,42605,2,0,B|96:284|92:344|92:344|120:332,1,108.8,8|2,0:0|0:0,0:0:0:0:
188,304,43083,1,0,0:0:0:0:
248,240,43243,2,0,B|292:216|340:240|340:240|364:200|352:160,1,163.2,2|2,0:0|0:0,0:0:0:0:
336,104,43881,2,0,P|284:84|220:100,1,108.8,8|2,0:0|0:0,0:0:0:0:
447,203,44520,6,0,B|472:152|452:96|452:96|424:112|400:144,1,163.2,2|2,0:0|0:0,0:0:0:0:
356,184,45158,2,0,P|296:204|248:176,1,108.8,8|2,0:0|0:0,0:0:0:0:
188,152,45637,1,0,0:0:0:0:
108,76,45796,6,0,B|104:132|104:132|112:148|112:148|108:224,1,136,4|0,0:0|0:0,0:0:0:0:
36,300,46275,2,0,B|40:244|40:244|32:228|32:228|36:152,1,136,4|8,0:0|0:0,0:0:0:0:
36,144,46674,1,8,0:0:0:0:
36,144,46754,1,2,0:0:0:0:
108,212,46913,1,8,0:0:0:0:
108,212,46993,1,8,0:0:0:0:
108,212,47073,6,0,P|168:232|252:188,1,136,4|8,0:0|0:0,0:0:0:0:
288,148,47551,1,0,0:0:0:0:
336,216,47711,1,2,0:0:0:0:
336,216,47871,1,0,0:0:0:0:
392,128,48030,2,0,L|472:124,1,68,8|0,0:0|0:0,0:0:0:0:
324,72,48349,2,0,P|280:64|236:84,1,68,2|0,0:0|0:0,0:0:0:0:
192,120,48669,2,0,L|184:200,1,68,8|0,0:0|0:0,0:0:0:0:
116,84,48988,1,2,0:0:0:0:
116,84,49147,1,0,0:0:0:0:
104,164,49307,2,0,L|96:244,1,68,8|0,0:0|0:0,0:0:0:0:
192,120,49626,5,2,0:0:0:0:
368,328,50264,1,8,0:0:0:0:
468,76,50903,1,8,0:0:0:0:
340,184,51222,1,8,0:0:0:0:
272,124,51381,1,0,0:0:0:0:
272,124,51461,1,0,0:0:0:0:
272,124,51541,2,0,B|240:144|240:144|266:166|266:166|244:176|244:176|244:205|258:227,1,136,8|8,0:0|0:0,0:0:0:0:
268,220,52817,6,0,P|260:252|264:288,1,54.4,2|0,0:0|0:0,0:0:0:0:
320,328,53137,6,0,L|372:312,3,34,8|8|8|8,0:0|0:0|0:0|0:0,0:0:0:0:
392,288,53456,6,0,B|440:240|408:180|408:180|348:200,1,163.199995019531,4|8,0:0|0:0,0:0:0:0:
268,220,53934,2,0,P|224:236|172:224,1,81.5999975097657,2|0,0:0|0:0,0:0:0:0:
296,140,54254,2,0,L|352:76,1,81.5999975097657,0|8,0:0|0:0,0:0:0:0:
284,8,54573,2,0,B|216:84|216:84|216:148,1,163.199995019531,2|0,0:0|0:0,0:0:0:0:
268,220,55051,2,0,P|316:220|360:196,1,81.5999975097657,8|0,0:0|0:0,0:0:0:0:
416,148,55371,1,2,0:0:0:0:
380,68,55530,1,0,0:0:0:0:
296,140,55690,2,0,P|256:148|208:144,1,81.5999975097657,8|0,0:0|0:0,0:0:0:0:
144,76,56009,6,0,B|136:152|136:152|132:180|100:192|80:164|92:140|124:148,1,163.199995019531,2|8,0:0|0:0,0:0:0:0:
116,252,56488,2,0,B|124:308|124:308|104:352,1,81.5999975097657,2|0,0:0|0:0,0:0:0:0:
32,216,56807,2,0,B|24:156|24:156|36:128,1,81.5999975097657,0|8,0:0|0:0,0:0:0:0:
136,168,57126,2,0,B|200:176|236:108|236:108|260:140|256:176,1,163.199995019531,2|0,0:0|0:0,0:0:0:0:
232,228,57605,2,0,P|232:276|268:316,1,81.5999975097657,8|0,0:0|0:0,0:0:0:0:
368,312,57924,1,2,0:0:0:0:
424,256,58083,1,0,0:0:0:0:
360,204,58243,2,0,P|324:216|300:256,1,81.5999975097657,8|0,0:0|0:0,0:0:0:0:
304,356,58562,5,4,0:0:0:0:
168,279,58881,1,8,0:0:0:0:
232,228,59041,1,0,0:0:0:0:
89,249,59200,2,0,L|104:335,1,81.5999975097657,2|0,0:0|0:0,0:0:0:0:
155,194,59520,5,8,0:0:0:0:
78,165,59680,1,0,0:0:0:0:
168,279,59839,2,0,L|240:224,1,81.5999975097657,2|0,0:0|0:0,0:0:0:0:
372,224,60158,5,8,0:0:0:0:
372,224,60317,1,0,0:0:0:0:
372,224,60477,2,0,L|307:273,1,81.5999975097657,2|0,0:0|0:0,0:0:0:0:
456,208,60796,1,8,0:0:0:0:
352,96,61115,6,0,P|284:124|244:224,1,163.199995019531,2|8,0:0|0:0,0:0:0:0:
220,276,61594,2,0,B|112:268|112:268|60:240,1,163.199995019531,2|0,0:0|0:0,0:0:0:0:
12,180,62073,1,8,0:0:0:0:
136,192,62232,2,0,B|184:156|176:92|176:92|216:112|228:144,1,163.199995019531,2|0,0:0|0:0,0:0:0:0:
276,208,62711,2,0,P|340:228|424:176,1,163.199995019531,8|2,0:0|0:0,0:0:0:0:
360,32,63349,2,0,P|312:32|272:60,1,81.5999975097657,8|0,0:0|0:0,0:0:0:0:
188,120,63669,6,0,B|180:184|180:184|188:204|188:204|172:300,1,163.199995019531,4|8,0:0|0:0,0:0:0:0:
228,344,64147,2,0,P|276:364|320:348,1,81.5999975097657,2|0,0:0|0:0,0:0:0:0:
176,280,64466,2,0,L|88:264,1,81.5999975097657,0|8,0:0|0:0,0:0:0:0:
32,144,64786,2,0,B|100:108|152:156|152:156|136:200,1,163.199995019531,2|0,0:0|0:0,0:0:0:0:
96,268,65264,2,0,P|80:308|96:364,1,81.5999975097657,8|0,0:0|0:0,0:0:0:0:
176,280,65583,2,0,L|220:200,1,81.5999975097657,2|0,0:0|0:0,0:0:0:0:
268,104,65903,2,0,L|300:208,1,81.5999975097657,8|0,0:0|0:0,0:0:0:0:
316,276,66222,6,0,P|400:260|420:184,1,163.199995019531,2|8,0:0|0:0,0:0:0:0:
384,104,66700,2,0,B|348:88|316:92|316:92|300:72|280:60|280:60|264:120,1,163.199995019531,2|0,0:0|0:0,0:0:0:0:
324,176,67179,1,8,0:0:0:0:
316,276,67339,2,0,B|210:281|210:281|164:224,1,163.199995019531,2|0,0:0|0:0,0:0:0:0:
140,152,67817,2,0,P|96:144|48:172,1,81.5999975097657,8|0,0:0|0:0,0:0:0:0:
176,236,68137,2,0,L|156:332,1,81.5999975097657,2|0,0:0|0:0,0:0:0:0:
228,168,68456,2,0,P|240:128|220:76,1,81.5999975097657,8|0,0:0|0:0,0:0:0:0:
156,20,68775,5,4,0:0:0:0:
312,120,69094,1,8,0:0:0:0:
378,169,69254,1,0,0:0:0:0:
320,33,69413,2,0,L|239:69,1,81.5999975097657,2|0,0:0|0:0,0:0:0:0:
386,85,69732,5,8,2:0:0:0:
394,2,69892,1,0,2:0:0:0:
312,120,70051,2,0,L|382:172,1,81.5999975097657,2|0,0:0|0:0,2:0:0:0:
456,260,70371,5,8,0:0:0:0:
456,260,70530,1,0,0:0:0:0:
456,260,70690,2,0,P|420:280|381:280,1,81.5999975097657,2|0,0:0|0:0,0:0:0:0:
512,200,71009,1,8,0:0:0:0:
436,52,71328,6,0,B|408:92|408:92|400:208,1,163.199995019531,2|8,0:0|0:0,0:0:0:0:
324,248,71807,2,0,P|276:280|176:244,1,163.199995019531,2|0,0:0|0:0,0:0:0:0:
124,192,72286,1,8,0:0:0:0:
248,184,72445,2,0,L|256:88,2,81.5999975097657,2|0|0,0:0|0:0|0:0,0:0:0:0:
212,260,72924,1,8,0:0:0:0:
28,284,73243,1,12,0:0:0:0:
136,136,73562,1,8,0:0:0:0:
288,232,73881,6,0,L|384:248,1,81.5999975097657,12|0,0:0|0:0,0:0:0:0:
436,152,74200,2,0,L|344:172,1,81.5999975097657,8|0,0:0|0:0,0:0:0:0:
280,240,74520,6,0,L|376:256,1,81.5999975097657,8|0,0:0|0:0,0:0:0:0:
444,140,74839,2,0,L|352:160,1,81.5999975097657,8|0,0:0|0:0,0:0:0:0:
188,252,75158,6,0,P|197:291|225:319,1,81.5999975097657,8|0,0:0|0:0,0:0:0:0:
388,344,75477,2,0,P|378:304|350:276,1,81.5999975097657,8|0,0:0|0:0,0:0:0:0:
176,244,75796,6,0,P|185:283|213:311,1,81.5999975097657,8|0,0:0|0:0,0:0:0:0:
400,344,76115,2,0,P|390:304|362:276,1,81.5999975097657,8|0,0:0|0:0,0:0:0:0:
256,176,76434,6,0,P|296:152|352:152,1,81.5999975097657,8|0,0:0|0:0,0:0:0:0:
444,116,76754,2,0,P|396:88|340:84,1,81.5999975097657,8|0,0:0|0:0,0:0:0:0:
272,44,77073,2,0,L|264:4,2,40.7999987548829,8|0|0,0:0|0:0|0:0,0:0:0:0:
192,108,77392,2,0,L|184:160,2,40.7999987548829,8|0|0,0:3|0:0|0:0,0:0:0:0:
120,28,77711,1,8,0:0:0:0:
296,212,78669,6,0,P|252:196|220:200,1,54.4,2|0,0:0|0:0,0:0:0:0:
172,248,78988,6,0,P|216:292|312:300,1,163.199995019531,4|8,0:0|0:0,0:0:0:0:
372,256,79466,2,0,B|408:208|386:157|386:157|360:132,1,136,2|0,0:0|0:0,0:0:0:0:
304,88,79945,2,0,B|212:68|212:68|152:80,1,136,8|0,0:0|0:0,0:0:0:0:
108,116,80424,1,2,0:0:0:0:
208,144,80583,2,0,P|220:180|208:232,1,68,8|0,0:0|0:0,0:0:0:0:
172,268,80903,2,0,P|80:268|36:288,1,136,2|8,0:0|0:0,0:0:0:0:
312,320,81541,6,2,P|336:248|312:176,1,136,2|8,0:0|0:0,0:0:0:0:
280,108,82020,2,0,B|268:68|268:68|324:64|376:112,1,136,2|0,0:0|0:0,0:0:0:0:
384,164,82498,2,0,P|336:188|300:192,1,68,8|0,0:0|0:0,0:0:0:0:
248,188,82817,2,0,P|176:180|112:216,1,136,2|8,0:0|0:0,0:0:0:0:
204,332,83456,1,2,0:0:0:0:
252,276,83615,1,0,0:0:0:0:
316,316,83775,2,0,L|376:316,3,34,8|0|0|0,0:0|0:0|0:0|0:0,0:0:0:0:
380,296,84094,6,0,P|404:212|384:160,1,136,4|8,0:0|0:0,0:0:0:0:
296,68,84573,2,0,P|272:152|292:204,1,136,2|0,0:0|0:0,0:0:0:0:
252,276,85051,2,0,P|196:328|128:304,1,136,8|0,0:0|0:0,0:0:0:0:
64,256,85530,5,4,0:0:0:0:
160,152,85849,1,4,0:0:0:0:
287,209,86169,2,0,P|319:273|251:273,1,163.2,4|0,0:0|0:0,0:0:0:0:
256,192,87445,12,0,89839,0:0:0:0:
