osu file format v14

[General]
AudioFilename: Shinmai.mp3
AudioLeadIn: 0
PreviewTime: 52817
Countdown: 0
SampleSet: Soft
StackLeniency: 0.4
Mode: 0
LetterboxInBreaks: 0
WidescreenStoryboard: 0

[Editor]
DistanceSpacing: 1
BeatDivisor: 4
GridSize: 4
TimelineZoom: 1.6

[Metadata]
Title:Blade of Hope
TitleUnicode:Blade of Hope
Artist:sweet ARMS
ArtistUnicode:sweet ARMS
Creator:Minakami Yuki
Version:Normal
Source:新妹魔王の契約者
Tags:Shinmai Maou no Keiyakusha The Testament of Sister New Devil opening tv size Iori Nomizu Togashi Misuzu Sadohara Kaori Misato xxdeathx mtbbsben
BeatmapID:604769
BeatmapSetID:263073

[Difficulty]
HPDrainRate:3.5
CircleSize:3.7
OverallDifficulty:4
ApproachRate:5
SliderMultiplier:1.2
SliderTickRate:1

[Events]
//Background and Video events
0,0,"bg.jpg",0,0
//Break Periods
//Storyboard Layer 0 (Background)
//Storyboard Layer 1 (Fail)
//Storyboard Layer 2 (Pass)
//Storyboard Layer 3 (Foreground)
//Storyboard Sound Samples

[TimingPoints]
3669,319.148936170213,4,2,1,60,1,0
21541,-166.666666666667,4,2,1,20,0,0
31115,-166.666666666667,4,1,1,40,0,0
31754,-100,4,2,1,60,0,0
41966,-100,4,2,1,45,0,0
45796,-100,4,2,1,60,0,0
52817,-100,4,2,1,45,0,0
53137,-100,4,3,1,45,0,0
53456,-100,4,2,1,75,0,1
77073,-100,4,3,1,45,0,1
77711,-100,4,2,1,75,0,0
78988,-100,4,2,1,60,0,1
79067,-100,4,2,1,60,0,0
86647,-100,4,2,1,30,0,0
89839,-100,4,2,1,5,0,0

[Colours]
Combo1 : 128,0,128
Combo2 : 0,255,0
Combo3 : 255,0,0
Combo4 : 0,128,192

[HitObjects]
120,163,3669,6,0,P|129:220|95:268,2,120,4|8|0,0:0|0:0|0:0,0:0:0:0:
39,74,4626,2,0,P|98:44|168:55,1,120,8|0,0:0|0:0,0:0:0:0:
198,83,5105,2,0,L|327:73,1,120,2|0,0:0|0:0,0:0:0:0:
369,44,5583,2,0,P|405:90|402:149,1,120,0|8,0:0|0:0,0:0:0:0:
341,252,6222,6,0,L|221:261,1,120,2|8,0:0|0:0,0:0:0:0:
198,317,6700,2,0,P|148:344|87:335,1,120,0|0,0:0|0:0,0:0:0:0:
39,299,7179,1,8,0:0:0:0:
97,194,7498,2,0,L|90:56,1,120,0|8,0:0|0:0,0:0:0:0:
211,69,8137,2,0,L|207:9,2,60,0|0|8,0:0|0:0|0:0,0:0:0:0:
287,161,8775,6,0,L|280:280,2,120,4|8|0,0:0|0:0|0:0,0:0:0:0:
323,46,9732,2,0,P|377:68|435:55,1,120,8|0,0:0|0:0,0:0:0:0:
483,19,10211,2,0,L|489:138,1,120,2|0,0:0|0:0,0:0:0:0:
470,196,10690,2,0,P|456:253|477:308,1,120,0|8,0:0|0:0,0:0:0:0:
373,367,11328,6,0,P|387:309|366:254,1,120,2|8,0:0|0:0,0:0:0:0:
310,228,11807,2,0,P|263:263|204:263,1,120,0|0,0:0|0:0,0:0:0:0:
150,236,12286,2,0,L|128:171,1,60,8|2,0:0|0:0,0:0:0:0:
89,66,12764,5,4,0:0:0:0:
207,87,13083,1,4,0:0:0:0:
306,19,13403,2,0,B|348:14|348:14|382:22|382:22|424:18,1,120,4|0,0:0|3:0,0:0:0:0:
478,43,13881,6,0,P|511:92|502:170,2,120,4|8|0,0:0|0:0|0:0,0:0:0:0:
396,131,14839,2,0,B|354:134|354:134|320:126|320:126|277:131,1,120,8|0,0:0|0:0,0:0:0:0:
235,174,15317,2,0,P|171:189|115:155,1,120,2|0,0:0|0:0,0:0:0:0:
84,121,15796,2,0,L|95:253,1,120,0|8,0:0|0:0,0:0:0:0:
206,283,16434,6,0,P|270:268|326:302,1,120,2|8,0:0|0:0,0:0:0:0:
345,343,16913,2,0,L|473:332,1,120,0|0,0:0|0:0,0:0:0:0:
510,294,17392,1,8,0:0:0:0:
458,184,17711,2,0,P|450:126|479:75,1,120,0|8,0:0|0:0,0:0:0:0:
368,30,18349,2,0,L|288:23,2,60,0|0|8,0:0|0:0|0:0,0:0:0:0:
319,139,18988,6,0,L|178:126,1,120,4|8,0:0|0:0,0:0:0:0:
171,75,19466,2,0,P|109:59|46:96,1,120,2|0,0:0|0:0,0:0:0:0:
30,133,19945,2,0,L|42:259,1,120,12|0,0:0|0:0,0:0:0:0:
50,311,20424,5,4,0:0:0:0:
154,369,20743,1,4,0:0:0:0:
261,316,21062,2,0,L|272:196,1,120,4|0,0:0|0:0,0:0:0:0:
301,143,21541,6,0,P|424:108|476:203,1,251.999992309571,2|2,0:0|0:0,0:0:0:0:
476,199,24094,6,0,P|410:295|300:255,1,251.999992309571,2|2,0:0|0:0,0:0:0:0:
164,43,26328,1,2,0:0:0:0:
164,43,26647,6,0,B|100:26|100:26|-8:79|41:191,1,251.999992309571,2|2,0:0|0:0,0:0:0:0:
78,316,28403,2,0,B|119:302|119:302|195:316,1,107.999996704102,2|0,0:0|0:0,0:0:0:0:
226,370,29200,6,0,L|338:359,1,107.999996704102,2|0,0:0|0:0,0:0:0:0:
459,290,30317,2,0,B|465:218|465:218|441:153|441:153|449:66,1,215.999993408203,2|4,0:0|0:0,0:0:0:0:
278,130,31754,6,0,P|257:182|288:247,1,120,4|8,0:0|0:0,0:0:0:0:
323,280,32232,2,0,L|187:295,1,120,0|0,0:0|0:0,0:0:0:0:
85,272,32871,2,0,P|42:232|39:173,1,120,2|0,0:0|0:0,0:0:0:0:
89,141,33349,2,0,B|98:90|98:90|80:17,2,120,8|0|8,0:0|0:0|0:0,0:0:0:0:
207,160,34307,6,0,P|266:161|315:128,1,120,2|8,0:0|0:0,0:0:0:0:
348,78,34786,2,0,L|478:89,1,120,0|0,0:0|0:0,0:0:0:0:
490,205,35424,2,0,P|518:256|509:314,1,120,2|0,0:0|0:0,0:0:0:0:
462,352,35903,2,0,L|342:341,2,120,8|0|8,0:0|0:0|0:0,0:0:0:0:
401,248,36860,6,0,L|281:237,1,120,2|8,0:0|0:0,0:0:0:0:
231,271,37339,2,0,P|194:309|113:314,1,120,0|0,0:0|0:0,0:0:0:0:
72,301,37817,1,8,0:0:0:0:
39,250,37977,2,0,B|52:200|52:200|48:125,1,120,0|0,0:0|0:0,0:0:0:0:
41,71,38456,1,8,0:0:0:0:
145,12,38775,2,0,L|213:6,2,60,0|0|8,0:0|0:0|0:0,0:0:0:0:
205,115,39413,6,0,L|341:103,1,120,2|8,0:0|0:0,0:0:0:0:
357,54,39892,2,0,P|413:36|469:56,1,120,0|0,0:0|0:0,0:0:0:0:
502,105,40371,1,8,0:0:0:0:
480,160,40530,2,0,L|473:292,1,120,0|0,0:0|0:0,0:0:0:0:
431,322,41009,2,0,L|442:383,2,60,8|0|0,0:0|3:0|3:0,0:0:0:0:
384,283,41488,2,0,P|337:275|273:322,1,120,0|0,0:0|0:0,0:0:0:0:
227,342,41966,6,0,B|141:332|141:332|95:352,2,120,4|0|0,0:0|3:0|3:0,0:0:0:0:
196,225,42924,2,0,P|200:190|213:164,1,60,0|0,0:0|3:0,0:0:0:0:
260,134,43243,2,0,L|244:72,1,60,0|0,0:0|3:0,0:0:0:0:
284,30,43562,6,0,P|340:13|399:25,2,120,0|0|0,0:0|3:0|3:0,0:0:0:0:
166,56,44520,2,0,P|109:73|50:61,2,120,0|0|0,3:0|3:0|3:0,0:0:0:0:
192,172,45477,2,0,L|124:186,1,60,0|0,3:0|0:0,0:0:0:0:
85,220,45796,6,0,B|72:268|72:268|89:346,1,120,4|8,0:0|0:0,0:0:0:0:
135,371,46275,1,4,0:0:0:0:
249,337,46594,2,0,L|316:344,2,60,0|0|0,0:0|0:0|0:0,0:0:0:0:
221,282,47073,6,0,P|275:259|302:207,1,120,4|8,0:0|0:0,0:0:0:0:
253,98,47711,2,0,P|280:45|334:22,1,120,0|8,0:0|0:0,0:0:0:0:
445,66,48349,2,0,P|475:61|511:73,2,60,0|0|8,0:0|0:0|0:0,0:0:0:0:
418,119,48828,1,0,0:0:0:0:
459,162,48988,2,0,P|471:224|439:279,1,120,0|8,0:0|0:0,0:0:0:0:
347,340,49626,6,0,B|272:326|272:326|211:339,1,120,2|0,0:0|0:0,0:0:0:0:
271,222,50264,2,0,B|196:236|196:236|135:223,1,120,2|0,0:0|0:0,0:0:0:0:
47,169,50903,2,0,P|42:206|27:234,2,60,0|0|8,0:0|0:0|0:0,0:0:0:0:
16,117,51381,1,0,0:0:0:0:
35,59,51541,2,0,P|88:33|146:41,1,120,0|8,0:0|0:0,0:0:0:0:
413,323,52817,6,0,P|402:288|404:256,1,60,0|0,0:0|0:0,0:0:0:0:
449,227,53137,2,0,L|461:146,1,60,0|0,0:0|0:0,0:0:0:0:
435,111,53456,6,0,P|381:90|323:104,1,120,4|8,0:0|0:0,0:0:0:0:
277,144,53934,2,0,L|287:280,1,120
246,309,54413,1,8,0:0:0:0:
246,309,54573,2,0,P|186:327|116:304,1,120,2|0,0:0|0:0,0:0:0:0:
86,274,55051,1,8,0:0:0:0:
27,168,55371,2,0,L|22:104,1,60,2|0,0:0|0:0,0:0:0:0:
66,67,55690,2,0,P|95:49|112:24,1,60,8|0,0:0|0:0,0:0:0:0:
169,21,56009,6,0,P|219:36|284:19,1,120,2|8,0:0|0:0,0:0:0:0:
343,20,56488,2,0,P|375:60|368:138,1,120,0|0,0:0|0:0,0:0:0:0:
335,171,56966,1,8,0:0:0:0:
335,171,57126,2,0,L|480:155,1,120,2|0,0:0|0:0,0:0:0:0:
508,183,57605,1,8,0:0:0:0:
495,302,57924,2,0,L|375:315,1,120,2|8,0:0|0:0,0:0:0:0:
271,374,58562,5,4,0:0:0:0:
255,255,58881,2,0,P|198:273|161:319,1,120,8|2,0:0|0:0,0:0:0:0:
108,347,59360,1,0,0:0:0:0:
49,331,59520,2,0,B|31:291|31:291|20:191,1,120,8|0,0:0|0:0,0:0:0:0:
115,139,60158,2,0,L|174:128,2,60,8|0|2,0:0|0:0|0:0,0:0:0:0:
196,51,60796,2,0,P|225:66|247:93,1,60,8|0,0:0|0:0,0:0:0:0:
288,125,61115,6,0,P|353:128|402:85,1,120,2|8,0:0|0:0,0:0:0:0:
437,53,61594,2,0,L|428:197,1,120,0|0,0:0|0:0,0:0:0:0:
465,220,62073,1,8,0:0:0:0:
465,220,62232,2,0,P|484:284|455:339,1,120,2|0,0:0|0:0,0:0:0:0:
405,344,62711,2,0,B|355:335|355:335|277:355,2,120,8|0|8,0:0|0:0|0:0,0:0:0:0:
377,226,63669,6,0,P|399:163|457:132,1,120,4|8,0:0|0:0,0:0:0:0:
476,86,64147,2,0,B|440:82|440:82|393:62|393:62|349:58,1,120,0|0,0:0|0:0,0:0:0:0:
308,30,64626,1,8,0:0:0:0:
251,50,64786,2,0,P|207:83|139:74,1,120,2|0,0:0|0:0,0:0:0:0:
93,47,65264,1,8,0:0:0:0:
32,150,65583,2,0,P|42:192|38:222,1,60,2|0,0:0|0:0,0:0:0:0:
22,266,65903,2,0,L|94:271,1,60,8|0,0:0|0:0,0:0:0:0:
137,247,66222,6,0,P|195:240|242:275,1,120,2|8,0:0|0:0,0:0:0:0:
268,329,66700,2,0,P|330:345|401:318,1,120,0|0,0:0|0:0,0:0:0:0:
425,288,67179,1,8,0:0:0:0:
425,288,67339,2,0,B|415:242|415:242|432:150,1,120,2|0,0:0|0:0,0:0:0:0:
456,117,67817,1,8,0:0:0:0:
344,72,68137,2,0,B|354:118|354:118|337:210,1,120,2|8,0:0|0:0,0:0:0:0:
307,304,68775,5,4,0:0:0:0:
200,360,69094,2,0,P|184:303|204:243,1,120,8|2,0:0|0:0,0:0:0:0:
233,195,69573,1,0,0:0:0:0:
263,143,69732,2,0,L|253:3,1,120,8|0,0:0|0:0,0:0:0:0:
134,33,70371,2,0,P|96:28|74:13,2,60,8|0|2,0:0|0:0|0:0,0:0:0:0:
63,128,71009,2,0,L|20:174,1,60,8|0,0:0|0:0,0:0:0:0:
17,231,71328,6,0,P|32:287|81:319,1,120,2|8,0:0|0:0,0:0:0:0:
142,316,71807,2,0,P|187:292|254:308,1,120,0|0,0:0|0:0,0:0:0:0:
296,346,72286,1,8,0:0:0:0:
296,346,72445,2,0,B|343:307|343:307|368:172,1,180,2|8,0:0|0:0,0:0:0:0:
479,152,73243,2,0,P|485:94|456:42,1,120,2|8,0:0|0:0,0:0:0:0:
338,24,73881,6,0,B|281:39|281:39|204:33,1,120,12|8,0:0|0:0,0:0:0:0:
165,58,74360,1,0,0:0:0:0:
165,58,74520,2,0,P|131:115|149:174,1,120,8|8,0:0|0:0,0:0:0:0:
232,242,75158,2,0,L|301:233,2,60,8|0|8,0:0|0:0|0:0,0:0:0:0:
202,294,75637,1,0,0:0:0:0:
202,294,75796,2,0,P|125:315|74:289,1,120,8|8,0:0|0:0,0:0:0:0:
32,196,76434,6,0,L|22:63,1,120,8|8,0:0|0:0,0:0:0:0:
137,39,77073,2,0,L|145:158,1,120,0|8,0:0|0:0,0:0:0:0:
232,242,77711,1,4,0:0:0:0:
232,242,78988,6,0,P|181:272|123:264,2,120,4|8|0,0:0|0:0|0:0,0:0:0:0:
195,127,79945,2,0,P|253:119|303:149,1,120,8|0,0:0|0:0,0:0:0:0:
334,201,80424,2,0,P|390:219|459:192,1,120,2|0,0:0|0:0,0:0:0:0:
495,167,80903,2,0,L|502:31,1,120,0|8,0:0|0:0,0:0:0:0:
384,20,81541,6,0,P|331:54|261:38,1,120,2|8,0:0|0:0,0:0:0:0:
218,33,82020,2,0,B|175:28|175:28|73:55,1,120,0|0,0:0|0:0,0:0:0:0:
44,67,82498,1,8,0:0:0:0:
94,175,82817,2,0,L|80:323,1,120,0|8,0:0|0:0,0:0:0:0:
202,281,83456,2,0,L|195:355,2,60,0|0|8,0:0|0:0|0:0,0:0:0:0:
311,329,84094,6,0,P|373:341|426:309,1,120,4|8,0:0|0:0,0:0:0:0:
468,277,84573,2,0,L|480:141,1,120,2|0,0:0|0:0,0:0:0:0:
460,100,85051,2,0,B|411:109|411:109|324:92,1,120,12|0,0:0|0:0,0:0:0:0:
283,82,85530,5,4,0:0:0:0:
175,28,85849,1,4,0:0:0:0:
60,64,86169,2,0,P|38:138|129:122,1,180,4|0,0:0|0:0,0:0:0:0:
256,192,87445,12,0,89839,0:0:0:0:
