osu file format v14

[General]
AudioFilename: Shinmai.mp3
AudioLeadIn: 0
PreviewTime: 52817
Countdown: 0
SampleSet: Soft
StackLeniency: 0.4
Mode: 0
LetterboxInBreaks: 0
WidescreenStoryboard: 0

[Editor]
DistanceSpacing: 0.5
BeatDivisor: 4
GridSize: 4
TimelineZoom: 1.2

[Metadata]
Title:Blade of Hope
TitleUnicode:Blade of Hope
Artist:sweet ARMS
ArtistUnicode:sweet ARMS
Creator:Minakami Yuki
Version:Insane
Source:新妹魔王の契約者
Tags:Shinmai Maou no Keiyakusha The Testament of Sister New Devil opening tv size Iori Nomizu Togashi Misuzu Sadohara Kaori Misato xxdeathx mtbbsben
BeatmapID:600101
BeatmapSetID:263073

[Difficulty]
HPDrainRate:6.5
CircleSize:4
OverallDifficulty:7.5
ApproachRate:9
SliderMultiplier:1.8
SliderTickRate:1

[Events]
//Background and Video events
0,0,"bg.jpg",0,0
//Break Periods
//Storyboard Layer 0 (Background)
//Storyboard Layer 1 (Fail)
//Storyboard Layer 2 (Pass)
//Storyboard Layer 3 (Foreground)
//Storyboard Sound Samples

[TimingPoints]
3669,319.148936170213,4,2,1,60,1,0
21541,-166.666666666667,4,2,1,20,0,0
31036,-100,4,1,1,40,0,0
31754,-100,4,2,1,60,0,0
41966,-125,4,2,1,45,0,0
45796,-100,4,2,1,60,0,0
52817,-166.666666666667,4,2,1,45,0,0
53137,-100,4,3,1,45,0,0
53456,-100,4,2,1,75,0,1
77073,-100,4,3,1,45,0,1
77711,-100,4,2,1,75,0,0
78509,-100,4,2,1,60,0,0
78988,-100,4,2,1,60,0,1
79067,-100,4,2,1,60,0,0
86567,-100,4,2,1,30,0,0
89839,-100,4,2,1,5,0,0

[Colours]
Combo1 : 128,0,128
Combo2 : 0,255,0
Combo3 : 255,0,0
Combo4 : 0,128,192

[HitObjects]
256,192,956,12,0,3349,0:0:0:0:
180,225,3669,6,0,B|239:219|239:219|289:191|289:191|357:185,1,180,4|8,0:0|0:0,0:0:0:0:
448,310,4147,2,0,P|367:335|315:267,1,180,2|0,0:0|0:0,0:0:0:0:
214,139,4626,2,0,L|34:157,1,180,8|0,0:0|0:0,0:0:0:0:
165,60,5105,6,0,P|251:54|305:122,1,180,2|0,0:0|0:0,0:0:0:0:
180,313,5583,2,0,B|171:274|171:274|180:225,1,90
34,157,5903,2,0,B|43:196|43:196|34:245,1,90,8|0,0:0|0:0,0:0:0:0:
269,352,6222,6,0,B|250:272|250:272|269:173,1,180,2|8,0:0|0:0,0:0:0:0:
319,4,6700,2,0,P|376:69|355:152,1,180,2|0,0:0|0:0,0:0:0:0:
200,118,7179,1,8,0:0:0:0:
287,92,7339,1,0,0:0:0:0:
355,152,7498,6,0,L|459:145,1,90
251,264,7817,2,0,L|147:256,1,90,8|0,0:0|0:0,0:0:0:0:
287,92,8137,1,0,0:0:0:0:
338,241,8297,1,0,0:0:0:0:
444,146,8456,2,0,L|449:92,3,45,8|0|0|0,0:0|0:0|0:0|0:0,0:0:0:0:
435,57,8775,6,0,P|352:35|287:92,1,180,4|8,0:0|0:0,0:0:0:0:
338,241,9254,2,0,B|379:276|379:276|354:153,1,180,2|0,0:0|0:0,0:0:0:0:
307,329,9732,2,0,P|373:365|465:302,1,180,8|0,0:0|0:0,0:0:0:0:
269,182,10211,6,0,B|205:187|205:187|155:215|155:215|96:221,1,180,2|0,0:0|0:0,0:0:0:0:
202,344,10690,2,0,P|230:310|240:267,1,90
166,55,11009,2,0,P|137:88|128:132,1,90,8|0,0:0|0:0,0:0:0:0:
327,250,11328,6,0,P|272:184|186:194,1,180,2|8,0:0|0:0,0:0:0:0:
316,340,11807,2,0,L|515:328,1,180,2|0,0:0|0:0,0:0:0:0:
415,234,12286,1,8,0:0:0:0:
240,267,12445,2,0,L|144:261,1,90,0|0,0:0|0:0,0:0:0:0:
6,252,12764,5,4,0:0:0:0:
316,340,13083,1,4,0:0:0:0:
237,25,13403,2,0,L|135:34,1,90,4|0,0:0|0:0,0:0:0:0:
76,193,13722,1,0,3:0:0:0:
76,193,13801,1,0,3:0:0:0:
76,193,13881,6,0,P|94:274|25:342,1,180,4|8,0:0|0:0,0:0:0:0:
18,125,14360,2,0,B|65:106|65:106|192:124,1,180,2|0,0:0|0:0,0:0:0:0:
253,190,14839,2,0,P|339:194|388:124,1,180,8|0,0:0|0:0,0:0:0:0:
253,190,15317,6,0,B|258:253|258:253|242:299|242:299|248:367,1,180,2|0,0:0|0:0,0:0:0:0:
165,214,15796,2,0,L|157:124,1,90,2|0,0:0|0:0,0:0:0:0:
292,22,16115,2,0,L|300:112,1,90,8|0,0:0|0:0,0:0:0:0:
90,264,16434,6,0,L|75:84,1,180,2|8,0:0|0:0,0:0:0:0:
165,214,16913,2,0,P|175:286|87:354,1,180,2|0,0:0|0:0,0:0:0:0:
83,174,17392,1,8,0:0:0:0:
165,214,17551,1,0,0:0:0:0:
253,190,17711,6,0,L|260:100,1,90
90,264,18030,2,0,L|97:354,1,90,8|0,0:0|0:0,0:0:0:0:
335,229,18349,1,0,0:0:0:0:
259,100,18509,1,0,0:0:0:0:
165,214,18669,2,0,L|169:268,3,45,8|0|0|0,0:0|0:0|0:0|0:0,0:0:0:0:
199,291,18988,6,0,P|285:299|334:229,1,180,4|8,0:0|0:0,0:0:0:0:
340,139,19466,2,0,B|397:115|397:115|522:137,1,180,2|0,0:0|0:0,0:0:0:0:
311,17,19945,2,0,P|252:87|161:67,1,180,12|0,0:0|0:0,0:0:0:0:
108,11,20424,5,4,0:0:0:0:
419,100,20743,1,4,0:0:0:0:
186,325,21062,2,0,B|136:317|136:317|100:330|100:330|56:324|56:324|6:345,1,180,4|0,0:0|0:0,0:0:0:0:
92,244,21541,6,0,P|120:191|58:221,1,161.999995056153,2|0,0:0|0:0,0:0:0:0:
56,209,22658,1,2,0:0:0:0:
318,333,24094,6,0,P|375:280|452:295,1,161.999995056153
452,295,25211,1,2,0:0:0:0:
452,295,26328,1,2,0:0:0:0:
492,196,26647,6,0,B|500:83|500:83|478:104|442:116,1,161.999995056153,2|0,0:0|0:0,0:0:0:0:
459,109,27764,1,2,0:0:0:0:
459,109,28403,2,0,B|407:118|407:118|367:70|299:83,1,161.999995056153,2|0,0:0|0:0,0:0:0:0:
82,131,29200,6,0,P|148:173|223:150,1,161.999995056153,2|0,0:0|0:0,0:0:0:0:
222,150,30317,1,2,0:0:0:0:
222,150,31036,6,0,L|228:100,1,45,0|0,0:0|0:0,0:0:0:0:
125,71,31275,2,0,B|144:115|144:115|138:159|138:159|151:195|151:195|143:245,1,180,4|0,0:0|0:0,0:0:0:0:
328,138,31754,6,0,L|338:48,1,90,4|0,0:0|0:0,0:0:0:0:
233,238,32073,2,0,L|243:328,1,90,8|0,0:0|0:0,0:0:0:0:
222,150,32392,1,0,0:0:0:0:
150,203,32551,1,0,0:0:0:0:
211,62,32711,1,8,0:0:0:0:
233,237,32871,6,0,P|164:290|82:262,1,180,2|0,0:0|0:0,0:0:0:0:
232,354,33349,2,0,L|331:358,1,90,8|0,0:0|0:0,0:0:0:0:
484,319,33669,1,0,0:0:0:0:
411,371,33828,1,0,0:0:0:0:
437,159,33988,1,8,0:0:0:0:
495,229,34147,1,0,0:0:0:0:
462,72,34307,6,0,B|406:62|406:62|339:74|339:74|276:63,1,180,2|8,0:0|0:0,0:0:0:0:
197,88,34786,2,0,P|152:92|111:74,1,90
7,221,35105,2,0,P|47:203|92:207,1,90,0|8,0:0|0:0,0:0:0:0:
304,215,35424,6,0,P|220:200|162:264,1,180,2|0,0:0|0:0,0:0:0:0:
252,375,35903,2,0,B|259:327|259:327|249:286,1,90,8|0,0:0|0:0,0:0:0:0:
65,293,36222,1,0,0:0:0:0:
249,286,36381,1,0,0:0:0:0:
150,130,36541,1,8,0:0:0:0:
81,308,36700,1,0,0:0:0:0:
253,264,36860,6,0,L|355:271,1,90,2|0,0:0|0:0,0:0:0:0:
232,105,37179,2,0,P|194:128|150:130,1,90,8|0,0:0|0:0,0:0:0:0:
281,180,37498,1,0,0:0:0:0:
250,16,37657,1,0,0:0:0:0:
281,180,37817,2,0,L|370:174,1,90,8|0,0:0|0:0,0:0:0:0:
495,100,38137,5,0,0:0:0:0:
426,246,38296,1,0,0:0:0:0:
281,180,38456,2,0,L|191:175,1,90,8|0,0:0|0:0,0:0:0:0:
77,297,38775,1,0,0:0:0:0:
108,138,38934,1,0,0:0:0:0:
253,264,39094,1,8,0:0:0:0:
54,210,39254,1,0,0:0:0:0:
157,340,39413,6,0,P|165:296|154:253,1,90,2|0,0:0|0:0,0:0:0:0:
92,121,39732,1,8,0:0:0:0:
92,121,39892,2,0,L|-10:132,1,90
172,164,40211,2,0,P|220:159|260:130,1,90,0|8,0:0|0:0,0:0:0:0:
473,196,40530,6,0,P|397:155|320:196,1,180,2|0,0:0|0:0,0:0:0:0:
424,124,41009,2,0,L|429:34,1,90,8|0,0:0|3:0,0:0:0:0:
429,34,41248,1,0,0:0:0:0:
429,34,41328,1,0,3:0:0:0:
320,196,41488,1,8,3:0:0:0:
396,245,41647,2,0,L|401:335,1,90,8|0,0:0|0:0,0:0:0:0:
335,108,41966,6,0,P|270:119|209:53,2,144,4|0|0,0:0|3:0|3:0,0:0:0:0:
335,108,42924,1,0,0:0:0:0:
341,116,43083,1,0,0:0:0:0:
274,245,43243,6,0,L|279:174,1,72,2|0,0:0|3:0,0:0:0:0:
169,239,43562,2,0,B|195:276|195:276|204:374,2,144,0|0|0,0:0|3:0|3:0,0:0:0:0:
55,149,44520,6,0,B|29:112|29:112|20:14,2,144,2|0|0,0:0|3:0|3:0,0:0:0:0:
55,149,45477,2,0,L|145:143,1,72,0|0,3:0|0:0,0:0:0:0:
324,58,45796,6,0,B|197:34|197:34|155:62,1,180,4|0,0:0|0:0,0:0:0:0:
346,145,46275,2,0,P|432:148|482:77,1,180,4|0,0:0|0:0,0:0:0:0:
482,77,46674,1,0,0:0:0:0:
482,77,46754,1,0,0:0:0:0:
482,306,46913,1,0,0:0:0:0:
468,288,46993,1,0,0:0:0:0:
453,270,47073,6,0,L|363:280,1,90,4|0,0:0|0:0,0:0:0:0:
130,250,47392,2,0,L|220:261,1,90,8|0,0:0|0:0,0:0:0:0:
420,185,47711,2,0,L|309:198,1,90
96,335,48030,2,0,L|186:346,1,90,8|0,0:0|0:0,0:0:0:0:
363,280,48349,5,0,0:0:0:0:
220,261,48509,1,0,0:0:0:0:
327,109,48669,2,0,P|339:151|330:195,1,90,8|0,0:0|0:0,0:0:0:0:
130,250,48988,1,0,0:0:0:0:
248,158,49147,1,0,0:0:0:0:
71,98,49307,2,0,P|58:141|68:185,1,90,8|0,0:0|0:0,0:0:0:0:
284,324,49626,5,8,0:0:0:0:
284,324,49786,2,0,P|341:259|428:263,1,180
228,60,50264,1,8,0:0:0:0:
227,60,50424,2,0,P|170:125|83:121,1,180
228,255,50903,5,0,0:0:0:0:
319,220,51062,1,0,0:0:0:0:
284,129,51222,1,8,0:0:0:0:
193,164,51381,1,0,0:0:0:0:
170,159,51461,1,0,0:0:0:0:
147,154,51541,5,2,0:0:0:0:
365,230,51700,1,2,0:0:0:0:
294,83,51860,1,8,0:0:0:0:
218,301,52020,1,2,0:0:0:0:
218,301,52817,6,0,L|149:310,1,53.9999983520508
76,213,53137,1,0,0:0:0:0:
122,228,53216,1,0,0:0:0:0:
170,221,53296,1,0,0:0:0:0:
210,192,53376,1,0,0:0:0:0:
231,147,53456,6,0,P|218:105|225:61,1,90,4|0,0:0|0:0,0:0:0:0:
304,17,53775,1,8,0:0:0:0:
232,148,53934,2,0,L|142:140,1,90,0|0,0:0|0:0,0:0:0:0:
358,88,54254,2,0,L|447:80,1,90,0|8,0:0|0:0,0:0:0:0:
272,239,54573,6,0,L|92:223,1,180,2|0,0:0|0:0,0:0:0:0:
31,352,55051,1,8,0:0:0:0:
31,352,55371,2,0,P|33:307|15:267,1,90,2|0,0:0|0:0,0:0:0:0:
201,181,55690,2,0,P|182:221|185:266,1,90,8|0,0:0|0:0,0:0:0:0:
138,36,56009,6,0,L|48:43,1,90,2|0,0:0|0:0,0:0:0:0:
94,193,56328,1,8,0:0:0:0:
207,91,56488,2,0,P|252:93|291:71,1,90
494,221,56807,2,0,P|455:199|410:201,1,90,0|8,0:0|0:0,0:0:0:0:
184,265,57126,6,0,P|274:261|325:350,1,180,2|0,0:0|0:0,0:0:0:0:
411,201,57605,2,0,L|404:112,1,90,8|0,0:0|0:0,0:0:0:0:
272,261,57924,1,2,0:0:0:0:
417,291,58083,1,0,0:0:0:0:
314,96,58243,2,0,L|321:186,1,90,8|0,0:0|0:0,0:0:0:0:
234,342,58562,6,0,B|182:346|182:346|144:333|144:333|81:339,1,135,4|0,0:0|0:0,0:0:0:0:
58,325,58881,2,0,P|43:285|56:232,1,90,8|0,0:0|0:0,0:0:0:0:
108,169,59200,1,2,0:0:0:0:
58,325,59360,1,0,0:0:0:0:
183,218,59520,6,0,P|198:177|185:124,1,90,8|0,0:0|0:0,0:0:0:0:
133,62,59839,1,2,0:0:0:0:
183,218,59998,1,0,0:0:0:0:
43,54,60158,6,0,L|133:62,1,90,8|0,0:0|0:0,0:0:0:0:
272,210,60477,2,0,L|183:218,1,90,2|0,0:0|0:0,0:0:0:0:
19,161,60796,2,0,L|108:169,1,90,8|0,0:0|0:0,0:0:0:0:
328,136,61115,6,0,P|364:214|317:287,1,180,2|8,0:0|0:0,0:0:0:0:
238,126,61594,2,0,L|246:33,1,90
451,81,61913,2,0,L|444:171,1,90,0|8,0:0|0:0,0:0:0:0:
317,286,62232,1,2,0:0:0:0:
317,286,62551,5,0,0:0:0:0:
317,286,62711,2,0,L|325:376,1,90,8|0,0:0|0:0,0:0:0:0:
306,197,63030,1,2,0:0:0:0:
409,344,63190,1,0,0:0:0:0:
231,361,63349,2,0,L|223:271,1,90,8|0,0:0|0:0,0:0:0:0:
124,104,63669,6,0,P|82:117|38:111,1,90,4|0,0:0|0:0,0:0:0:0:
174,28,63988,1,8,0:0:0:0:
259,54,64147,2,0,L|348:46,1,90
460,217,64466,2,0,L|371:225,1,90,0|8,0:0|0:0,0:0:0:0:
223,146,64786,6,0,L|402:131,1,180,2|0,0:0|0:0,0:0:0:0:
482,12,65264,1,8,0:0:0:0:
482,12,65583,2,0,P|472:54|487:101,1,90,2|0,0:0|0:0,0:0:0:0:
299,191,65903,2,0,P|312:149|303:106,1,90,8|0,0:0|0:0,0:0:0:0:
456,184,66222,6,0,L|468:295,1,90,2|0,0:0|0:0,0:0:0:0:
465,273,66541,1,8,0:0:0:0:
387,125,66700,2,0,P|421:97|464:92,1,90
444,360,67020,2,0,P|403:344|376:309,1,90,0|8,0:0|0:0,0:0:0:0:
223,252,67339,6,0,B|165:236|165:236|46:253,1,180,2|0,0:0|0:0,0:0:0:0:
152,156,67817,2,0,L|254:140,1,90,8|0,0:0|0:0,0:0:0:0:
294,306,68137,1,2,0:0:0:0:
352,215,68296,1,0,0:0:0:0:
222,252,68456,2,0,P|204:296|211:341,1,90,8|0,0:0|0:0,0:0:0:0:
431,255,68775,6,0,P|434:188|393:137,1,135,4|0,0:0|0:0,0:0:0:0:
351,120,69094,2,0,L|439:102,1,90,8|0,0:0|0:0,0:0:0:0:
351,120,69413,1,2,0:0:0:0:
484,181,69573,1,0,0:0:0:0:
379,35,69732,6,0,L|290:17,1,90,8|0,0:0|0:0,0:0:0:0:
379,35,70051,1,2,0:0:0:0:
246,96,70211,1,0,0:0:0:0:
166,52,70371,6,0,P|154:94|164:137,1,90,8|0,0:0|0:0,0:0:0:0:
314,229,70690,2,0,P|283:196|241:184,1,90,2|0,0:0|0:0,0:0:0:0:
85,266,71009,2,0,P|129:256|162:226,1,90,8|0,0:0|0:0,0:0:0:0:
47,348,71328,6,0,B|111:351|111:351|160:341|160:341|233:343,1,180,2|8,0:0|0:0,0:0:0:0:
388,279,71807,2,0,P|356:309|313:320,1,90
396,189,72126,2,0,P|438:201|469:233,1,90,0|8,0:0|0:0,0:0:0:0:
314,229,72445,6,0,P|298:141|354:68,1,180,2|0,0:0|0:0,0:0:0:0:
215,14,72924,2,0,L|125:8,1,90,8|8,0:0|0:0,0:0:0:0:
208,148,73243,2,0,L|298:143,1,90,2|0,3:2|0:0,0:0:0:0:
92,92,73562,2,0,L|2:86,1,90,8|0,0:0|0:0,0:0:0:0:
122,176,73881,5,12,0:0:0:0:
125,8,74041,1,0,0:0:0:0:
208,148,74200,1,8,0:0:0:0:
36,204,74360,1,0,0:0:0:0:
92,92,74520,5,8,0:0:0:0:
122,176,74679,1,0,0:0:0:0:
21,292,74839,1,8,0:0:0:0:
36,204,74998,1,0,0:0:0:0:
208,148,75158,5,8,0:0:0:0:
185,280,75317,1,0,0:0:0:0:
326,167,75477,1,8,0:0:0:0:
178,64,75637,1,0,0:0:0:0:
201,192,75796,5,8,0:0:0:0:
274,244,75956,1,0,0:0:0:0:
282,154,76115,1,8,0:0:0:0:
201,192,76274,1,0,0:0:0:0:
355,205,76434,5,8,0:0:0:0:
288,66,76594,1,0,0:0:0:0:
399,197,76754,1,8,0:0:0:0:
387,348,76913,1,0,0:0:0:0:
443,189,77073,5,0,0:0:0:0:
462,159,77152,1,0,0:0:0:0:
460,124,77232,1,0,0:0:0:0:
437,97,77312,1,0,0:0:0:0:
402,91,77392,5,8,0:0:0:0:
360,107,77472,1,0,0:0:0:0:
315,102,77551,1,0,0:0:0:0:
288,66,77631,1,0,0:0:0:0:
291,21,77711,5,4,0:0:0:0:
291,21,78669,2,0,L|233:36,3,45,0|0|0|0,0:0|0:0|0:0|0:0,0:0:0:0:
221,68,78988,6,0,P|136:80|88:9,1,180,4|8,0:0|0:0,0:0:0:0:
10,54,79466,2,0,B|4:121|4:121|16:166|16:166|10:234,1,180,2|0,0:0|0:0,0:0:0:0:
115,348,79945,2,0,P|150:270|96:205,1,180,8|0,0:0|0:0,0:0:0:0:
115,348,80424,6,0,B|175:327|175:327|322:350,1,180,2|0,0:0|0:0,0:0:0:0:
439,265,80903,2,0,P|399:285|355:282,1,90,2|0,0:0|0:0,0:0:0:0:
378,121,81222,2,0,P|417:101|462:104,1,90,8|0,0:0|0:0,0:0:0:0:
331,200,81541,6,0,B|271:221|271:221|124:198,1,180,2|8,0:0|0:0,0:0:0:0:
38,144,82020,2,0,P|106:91|188:119,1,180,2|0,0:0|0:0,0:0:0:0:
195,310,82498,1,8,0:0:0:0:
122,180,82658,1,0,0:0:0:0:
277,121,82817,6,0,L|269:31,1,90
122,180,83137,2,0,L|114:269,1,90,8|0,0:0|0:0,0:0:0:0:
286,211,83456,1,0,0:0:0:0:
131,90,83615,1,0,0:0:0:0:
198,265,83775,2,0,L|195:310,3,45,8|0|0|0,0:0|0:0|0:0|0:0,0:0:0:0:
219,348,84094,6,0,B|278:353|278:353|336:338|336:338|400:343,1,180,4|8,0:0|0:0,0:0:0:0:
465,284,84573,2,0,P|496:204|447:133,1,180,2|0,0:0|0:0,0:0:0:0:
269,154,85051,2,0,P|322:222|409:215,1,180,12|0,0:0|0:0,0:0:0:0:
481,47,85530,5,4,0:0:0:0:
391,358,85849,1,4,0:0:0:0:
166,123,86169,2,0,P|98:160|163:133,1,270,4|0,0:0|0:0,0:0:0:0:
256,192,87445,12,0,89839,0:0:0:0:
