osu file format v14

[General]
AudioFilename: Shinmai.mp3
AudioLeadIn: 0
PreviewTime: 52817
Countdown: 0
SampleSet: Soft
StackLeniency: 0.4
Mode: 0
LetterboxInBreaks: 0
WidescreenStoryboard: 0

[Editor]
DistanceSpacing: 1
BeatDivisor: 4
GridSize: 4
TimelineZoom: 1.6

[Metadata]
Title:Blade of Hope
TitleUnicode:Blade of Hope
Artist:sweet ARMS
ArtistUnicode:sweet ARMS
Creator:Minakami Yuki
Version:Easy
Source:新妹魔王の契約者
Tags:Shinmai Maou no Keiyakusha The Testament of Sister New Devil opening tv size Iori Nomizu Togashi Misuzu Sadohara Kaori Misato xxdeathx mtbbsben
BeatmapID:606405
BeatmapSetID:263073

[Difficulty]
HPDrainRate:2
CircleSize:3.5
OverallDifficulty:2
ApproachRate:3
SliderMultiplier:0.9
SliderTickRate:1

[Events]
//Background and Video events
0,0,"bg.jpg",0,0
//Break Periods
//Storyboard Layer 0 (Background)
//Storyboard Layer 1 (Fail)
//Storyboard Layer 2 (Pass)
//Storyboard Layer 3 (Foreground)
//Storyboard Sound Samples

[TimingPoints]
3669,319.148936170213,4,2,1,60,1,0
3908,-100,4,2,2,60,0,0
4067,-100,4,2,1,60,0,0
6461,-100,4,2,2,60,0,0
6621,-100,4,2,1,60,0,0
9014,-100,4,2,2,60,0,0
9174,-100,4,2,1,60,0,0
11567,-100,4,2,2,60,0,0
11727,-100,4,2,1,60,0,0
14121,-100,4,2,2,60,0,0
14280,-100,4,2,1,60,0,0
16674,-100,4,2,2,60,0,0
16833,-100,4,2,1,60,0,0
19227,-100,4,2,2,60,0,0
19387,-100,4,2,1,60,0,0
21541,-166.666666666667,4,2,1,30,0,0
31754,-100,4,2,1,60,0,0
31993,-100,4,2,2,60,0,0
32153,-100,4,2,1,60,0,0
34546,-100,4,2,2,60,0,0
34706,-100,4,2,1,60,0,0
37099,-100,4,2,2,60,0,0
37259,-100,4,2,1,60,0,0
39653,-100,4,2,2,60,0,0
39812,-100,4,2,1,60,0,0
41966,-100,4,2,1,45,0,0
45796,-100,4,2,1,60,0,0
53456,-100,4,2,1,75,0,1
53695,-100,4,2,2,75,0,1
53855,-100,4,2,1,75,0,1
56248,-100,4,2,2,75,0,1
56408,-100,4,2,1,75,0,1
61355,-100,4,2,2,75,0,1
61514,-100,4,2,1,75,0,1
63908,-100,4,2,2,75,0,1
64067,-100,4,2,1,75,0,1
66461,-100,4,2,2,75,0,1
66621,-100,4,2,1,75,0,1
71567,-100,4,2,2,75,0,1
71727,-100,4,2,1,75,0,1
76674,-100,4,2,2,75,0,1
76833,-100,4,2,1,75,0,1
77073,-100,4,2,1,45,0,1
77711,-100,4,2,1,75,0,0
78988,-100,4,2,1,60,0,1
79067,-100,4,2,1,60,0,0
79227,-100,4,2,2,60,0,0
79387,-100,4,2,1,60,0,0
81780,-100,4,2,2,60,0,0
81940,-100,4,2,1,60,0,0
84333,-100,4,2,2,60,0,0
84493,-100,4,2,1,60,0,0
86647,-100,4,2,1,30,0,0
89759,-100,4,2,1,5,0,0

[Colours]
Combo1 : 128,0,128
Combo2 : 0,255,0
Combo3 : 255,0,0
Combo4 : 0,128,192

[HitObjects]
318,218,3669,6,0,P|334:281|304:340,2,135,4|2|8,0:0|0:0|0:0,0:0:0:0:
226,118,5105,2,0,B|278:128|278:128|366:96,1,135,2|0,0:0|0:0,0:0:0:0:
418,35,5903,1,8,0:0:0:0:
490,88,6222,6,0,P|515:136|491:220,1,135,2|2,0:0|0:0,0:0:0:0:
423,324,7179,2,0,L|521:334,2,90,8|0|8,0:0|0:0|0:0,0:0:0:0:
354,265,8137,2,0,P|310:257|268:274,1,90,2|8,0:0|0:0,0:0:0:0:
193,224,8775,6,0,P|178:288|212:344,2,135,4|2|8,0:0|0:0|0:0,0:0:0:0:
297,138,10211,2,0,B|252:118|252:118|159:132,1,135,2|0,0:0|0:0,0:0:0:0:
100,191,11009,1,8,0:0:0:0:
23,143,11328,6,0,P|17:77|61:25,1,135,2|2,0:0|0:0,0:0:0:0:
183,80,12286,2,0,L|328:59,1,135,8|4,0:0|0:0,0:0:0:0:
400,94,13083,2,0,P|447:99|493:79,1,90,4|4,0:0|0:0,0:0:0:0:
471,218,13881,6,0,P|455:281|490:337,2,135,4|2|8,0:0|0:0|0:0,0:0:0:0:
342,261,15317,2,0,B|301:285|301:285|205:276,1,135,2|0,0:0|0:0,0:0:0:0:
152,210,16115,1,8,0:0:0:0:
215,145,16434,6,0,P|232:80|205:16,1,135,2|2,0:0|0:0,0:0:0:0:
95,94,17392,2,0,L|74:0,2,90,8|0|8,0:0|0:0|0:0,0:0:0:0:
38,164,18349,2,0,P|20:204|18:251,1,90,2|8,0:0|0:0,0:0:0:0:
66,325,18988,6,0,B|122:343|122:343|209:336,2,135,4|2|12,0:0|0:0|0:0,0:0:0:0:
140,212,20424,2,0,L|245:203,2,90,4|4|4,0:0|0:0|0:0,0:0:0:0:
83,89,21541,6,0,P|138:116|227:43,1,188.999994232178,2|2,0:0|0:0,0:0:0:0:
469,42,24094,6,0,B|463:106|463:106|482:167|482:167|476:227,1,188.999994232178,2|2,0:0|0:0,0:0:0:0:
264,347,26647,6,0,P|354:355|415:287,1,188.999994232178,2|2,0:0|0:0,0:0:0:0:
397,180,28403,2,0,L|384:95,1,80.9999975280763,2|0,0:0|0:0,0:0:0:0:
376,46,29200,6,0,P|311:24|227:102,1,188.999994232178,2|2,0:0|0:0,0:0:0:0:
119,266,31754,6,0,B|127:216|127:216|91:180|97:134,2,135,4|0|8,0:0|0:0|0:0,0:0:0:0:
174,336,33030,2,0,L|272:328,1,90,0|8,0:0|0:0,0:0:0:0:
346,364,33669,2,0,P|351:310|333:272,1,90,0|8,0:0|0:0,0:0:0:0:
363,191,34307,6,0,P|351:126|386:70,2,135,2|0|8,0:0|0:0|0:0,0:0:0:0:
303,258,35583,2,0,P|259:271|203:255,1,90,0|8,0:0|0:0,0:0:0:0:
136,220,36222,2,0,L|145:119,1,90,0|8,0:0|0:0,0:0:0:0:
198,58,36860,6,0,P|131:42|62:86,2,135,2|0|8,0:0|0:0|0:0,0:0:0:0:
285,79,38137,2,0,L|389:65,1,90,0|8,0:0|0:0,0:0:0:0:
463,81,38775,2,0,P|473:131|457:182,1,90,0|8,0:0|0:0,0:0:0:0:
404,237,39413,6,0,B|376:289|408:334|408:334|448:355,2,135,2|0|8,0:0|0:0|0:0,0:0:0:0:
365,155,40690,2,0,P|320:149|279:166,1,90,0|8,0:0|0:0,0:0:0:0:
219,232,41328,2,0,L|123:227,1,90,0|8,3:0|0:0,0:0:0:0:
95,310,41966,6,0,L|229:317,2,135,4|0|0,0:0|0:0|0:0,0:0:0:0:
32,244,43243,2,0,P|4:179|66:85,1,180,2|0,0:0|3:0,0:0:0:0:
139,119,44200,1,0,0:0:0:0:
209,62,44520,6,0,B|302:73|302:73|356:60,2,135,2|0|0,0:0|0:0|0:0,0:0:0:0:
139,119,45796,2,0,P|160:185|134:244,2,135,4|4|0,0:0|0:0|0:0,0:0:0:0:
209,62,47073,6,0,L|306:55,1,90,4|8,0:0|0:0,0:0:0:0:
297,145,47711,2,0,P|340:158|386:151,1,90,0|8,0:0|0:0,0:0:0:0:
468,120,48349,2,0,L|475:229,1,90,0|8,0:0|0:0,0:0:0:0:
435,291,48988,2,0,P|390:284|348:297,1,90,0|8,0:0|0:0,0:0:0:0:
281,357,49626,5,2,0:0:0:0:
286,177,50264,1,2,0:0:0:0:
127,266,50903,2,0,B|102:243|102:243|89:172,1,90,0|8,0:0|0:0,0:0:0:0:
144,115,51541,2,0,B|169:92|169:92|182:21,1,90,0|8,0:0|0:0,0:0:0:0:
179,36,53456,6,0,L|322:28,1,135,4|0,0:0|0:0,0:0:0:0:
394,68,54254,1,0,0:0:0:0:
478,39,54573,2,0,P|474:107|426:151,1,135,2|8,0:0|0:0,0:0:0:0:
337,139,55371,2,0,L|348:229,1,90,2|8,0:0|0:0,0:0:0:0:
420,282,56009,6,0,P|373:314|291:300,1,135,2|0,0:0|0:0,0:0:0:0:
215,269,56807,1,0,0:0:0:0:
166,344,57126,2,0,L|21:358,1,135,2|8,0:0|0:0,0:0:0:0:
56,270,57924,2,0,B|67:245|67:245|56:175,1,90,2|8,0:0|0:0,0:0:0:0:
122,120,58562,6,0,P|104:76|114:25,2,90,4|8|2,0:0|0:0|0:0,0:0:0:0:
208,146,59520,1,8,0:0:0:0:
283,97,59839,2,0,L|384:101,1,90,0|8,0:0|0:0,0:0:0:0:
448,51,60477,2,0,P|464:92|450:147,1,90,2|8,0:0|0:0,0:0:0:0:
386,193,61115,6,0,B|355:222|355:222|262:218,1,135,2|0,0:0|0:0,0:0:0:0:
208,146,61913,1,0,0:0:0:0:
129,189,62232,2,0,P|109:257|156:321,1,135,2|8,0:0|0:0,0:0:0:0:
221,344,63030,2,0,L|322:348,1,90,2|8,0:0|0:0,0:0:0:0:
401,352,63669,6,0,P|428:292|490:270,1,135,4|0,0:0|0:0,0:0:0:0:
511,183,64466,1,0,0:0:0:0:
447,118,64786,2,0,L|302:129,1,135,2|8,0:0|0:0,0:0:0:0:
241,184,65583,2,0,P|224:144|227:99,1,90,2|8,0:0|0:0,0:0:0:0:
170,29,66222,6,0,B|126:25|126:25|84:37|84:37|29:32,1,135,2|0,0:0|0:0,0:0:0:0:
8,118,67020,1,0,0:0:0:0:
92,147,67339,2,0,P|121:206|104:270,1,135,2|8,0:0|0:0,0:0:0:0:
70,353,68137,2,0,L|173:362,1,90,2|8,0:0|0:0,0:0:0:0:
246,341,68775,6,0,P|289:359|334:353,2,90,4|8|2,0:0|0:0|0:0,0:0:0:0:
200,264,69732,1,8,0:0:0:0:
246,187,70051,2,0,L|240:91,1,90,0|8,0:0|0:0,0:0:0:0:
328,75,70690,2,0,L|333:164,1,90,2|8,0:0|0:0,0:0:0:0:
382,240,71328,6,0,B|438:274|485:246|485:246|502:211,2,135,2|0|8,0:0|0:0|0:0,0:0:0:0:
300,279,72605,2,0,P|258:267|213:271,1,90,0|8,0:0|0:0,0:0:0:0:
161,344,73243,2,0,P|132:311|124:267,1,90,0|8,0:0|0:0,0:0:0:0:
175,194,73881,6,0,B|192:170|192:170|183:106,1,90,12|8,0:0|0:0,0:0:0:0:
233,34,74520,2,0,B|257:51|257:51|321:42,1,90,8|8,0:0|0:0,0:0:0:0:
397,82,75158,2,0,B|380:106|380:106|389:170,1,90,8|8,0:0|0:0,0:0:0:0:
340,242,75796,2,0,B|316:225|316:225|252:234,1,90,8|8,0:0|0:0,0:0:0:0:
193,298,76434,6,0,P|107:307|48:244,2,180,8|0|4,0:0|3:0|0:0,0:0:0:0:
436,32,78988,6,0,B|397:42|397:42|357:11|296:29,2,135,4|2|8,0:0|0:0|0:0,0:0:0:0:
337,124,80424,2,0,P|309:195|340:253,1,135,2|0,0:0|0:0,0:0:0:0:
401,302,81222,1,8,0:0:0:0:
319,340,81541,6,0,L|175:330,1,135,2|2,0:0|0:0,0:0:0:0:
61,276,82498,2,0,P|47:321|52:370,2,90,8|0|8,0:0|0:0|0:0,0:0:0:0:
139,229,83456,2,0,L|134:123,1,90,2|8,0:0|0:0,0:0:0:0:
197,73,84094,6,0,B|155:50|155:50|58:59,2,135,4|2|12,0:0|0:0|0:0,0:0:0:0:
279,180,85530,2,0,L|383:174,1,90,4|4,0:0|0:0,0:0:0:0:
459,167,86169,1,4,0:0:0:0:
256,192,87445,12,0,89839,0:0:0:0:
