osu file format v4

[General]
AudioFilename: supermarioshow.mp3
AudioLeadIn: 0
AudioHash: 01239a12ab14f798fe61d9cf97ea1661
PreviewTime: -1
Countdown: 0
SampleSet: Normal

[Metadata]
Title:Super Mario Bros. Super Show Theme
Artist:
Creator:Mifune24
Version:Hard

[Difficulty]
HPDrainRate:6
CircleSize:6
OverallDifficulty:6
SliderMultiplier: 1.7
SliderTickRate: 1

[Events]
//Background and Video events
1,0,"e0ba66d3404119616a01ebb0360f29ba.avi"
//Break Periods
//Storyboard Layer 0 (Background)
//Storyboard Layer 1 (Failing)
//Storyboard Layer 2 (Passing)
//Storyboard Layer 3 (Foreground)
//Storyboard Sound Samples
//Background Colour Transformations
3,100,163,162,255

[TimingPoints]
5600,605.3308726376,4,1,0,100

[HitObjects]
255,116,7718,2,0,B|255:116|171:149|160:266|275:318,1,255
320,256,8929,5,0
362,203,9231,1,0
362,203,9383,1,0
407,152,9685,1,0
407,152,9837,1,0
323,93,10291,5,0
323,93,10442,1,0
288,32,10745,1,0
256,64,10896,1,0
224,96,11047,1,0
192,64,11199,1,0
160,32,11350,1,0
160,32,11501,1,2
96,32,11804,1,2
32,32,12107,1,2
32,32,12258,1,2
63,102,12561,5,0
63,102,12712,1,0
63,102,12863,1,0
63,102,13015,1,0
63,102,13166,2,0,B|63:102|63:218,1,85
64,220,13620,2,0,B|64:220|64:289,7,42.5
128,192,15133,5,0
160,192,15285,1,0
192,192,15436,1,0
224,192,15587,1,0
256,192,15739,1,0
288,192,15890,1,0
352,192,16193,1,0
352,192,16344,1,0
352,192,16495,1,0
352,256,16798,2,0,B|352:256|192:256,1,127.5
256,160,17706,5,4
256,256,18160,1,0
256,352,18614,1,0
160,256,19219,1,0
128,256,19371,1,0
128,192,19673,1,0
160,192,19825,1,0
128,128,20127,1,0
128,96,20279,1,0
192,96,20581,1,0
192,128,20733,1,0
192,192,21035,1,2
224,192,21187,1,2
288,192,21489,1,2
352,192,21792,1,2
352,192,21943,1,2
352,192,22095,1,2
352,192,22246,1,2
192,320,22549,5,0
288,256,23003,1,0
384,320,23457,1,0
384,192,24062,1,0
416,160,24213,1,0
352,160,24516,1,0
320,192,24667,1,0
256,192,24970,1,0
256,160,25121,1,0
256,128,25273,1,0
256,96,25424,1,0
160,96,25878,1,0
160,128,26029,1,0
160,160,26181,1,0
160,192,26332,1,0
224,256,26786,5,4
224,160,27240,2,0,B|224:160|224:96,4,42.5
185,104,28148,2,0,B|185:104|220:69|269:110,1,85
224,32,28753,1,0
288,32,29056,1,0
320,32,29207,1,0
352,128,29661,5,0
320,128,29813,1,0
288,128,29964,1,0
256,128,30115,1,0
224,128,30267,1,0
192,128,30418,1,0
160,128,30569,1,0
160,160,30721,2,0,B|160:160|160:221|164:319|271:337,1,212.5
320,320,31780,5,0
352,288,31931,1,0
288,256,32234,1,2
256,288,32385,1,2
192,256,32688,1,2
224,224,32839,1,2
256,192,32991,1,2
224,128,33293,1,0
192,96,33445,1,0
224,64,33596,1,0
192,32,33747,1,0
160,64,33899,1,0
160,64,34050,1,0
160,64,34201,1,0
96,64,34504,6,0,B|96:64|64:96,9,42.5
96,160,36169,1,0
96,192,36320,1,0
96,224,36471,1,0
96,256,36623,1,0
128,256,36774,1,0
128,224,36925,1,0
128,192,37077,5,0
128,160,37228,1,0
175,111,37531,1,0
224,160,37833,1,0
256,160,37985,1,0
288,224,38287,1,0
320,256,38439,1,0
384,256,38741,1,0
416,224,38893,1,0
352,96,39498,5,0
352,96,39649,1,0
288,64,39952,1,0
224,96,40255,1,0
224,96,40406,1,0
288,128,40709,1,0
288,192,41011,2,2,B|288:192|288:288,2,85
224,192,41919,5,0
224,224,42071,1,0
160,256,42373,1,0
96,224,42676,1,0
96,192,42827,1,0
160,160,43130,1,0
160,128,43281,1,0
160,64,43584,1,0
160,64,43735,1,0
288,128,44341,5,2
320,96,44492,1,2
256,64,44795,1,2
224,0,45097,1,2
192,32,45249,1,2
224,96,45551,1,2
352,32,46157,1,4
352,160,46762,5,0
320,192,46913,2,0,B|320:192|256:256,1,85
192,224,47519,1,0
160,192,47670,1,0
224,160,47973,1,0
224,160,48124,2,0,B|224:160|320:64,1,127.5
256,32,48881,1,0
211,83,49183,1,0
189,108,49335,1,0
149,163,49637,1,0
124,139,49789,1,0
99,162,49940,1,0
147,210,50243,1,0
122,232,50394,1,0
95,211,50545,1,0
29,193,50848,1,0
29,193,50999,1,0
32,64,51605,5,0
64,32,51756,1,0
128,64,52059,1,0
64,96,52361,1,0
96,128,52513,1,0
160,96,52815,1,0
128,128,52967,1,0
192,128,53269,1,0
224,96,53421,1,0
192,32,53723,5,0
128,32,54026,1,2
160,64,54177,1,2
128,128,54480,1,2
96,96,54631,1,2
64,64,54783,1,2
32,128,55085,1,2
64,160,55237,1,2
64,224,55539,1,2
96,192,55691,1,2
160,224,55993,1,2
128,192,56145,1,2
256,192,56447,12,4,58263
