osu file format v9

[General]
AudioFilename: Kimi no Shiranai Monogatari - Nico Nico Douga Chorus.mp3
AudioLeadIn: 0
PreviewTime: 65454
Countdown: 0
SampleSet: Normal
StackLeniency: 0.6
Mode: 1
LetterboxInBreaks: 0

[Editor]
Bookmarks: 9656,96928,182383,271110,336201
DistanceSpacing: 1.2
BeatDivisor: 4
GridSize: 8

[Metadata]
Title:Kimi no Shiranai Monogatari
Artist:supercell ft. NicoNico Chorus
Creator:Fenya
Version:Taiko Collab
Source:Nico Nico Douga
Tags:Bakemonogatari Collab Collaboration Astom Nerv_Mario Ignacio Matt Shadows Mion-Nya Vicho-kun Vicho Beuchi-chan Kotomi-chan bossandy Lissette TTTTTTTTTTTT H-boy Verdisphena Kurisuchianu DaxMasterix Backfire

[Difficulty]
HPDrainRate:5
CircleSize:5
OverallDifficulty:5
ApproachRate:5
SliderMultiplier:1.4
SliderTickRate:1

[Events]
//Background and Video events
0,0,"BG Taiko.png"
//Break Periods
2,66586,66640
//Storyboard Layer 0 (Background)
//Storyboard Layer 1 (Fail)
//Storyboard Layer 2 (Pass)
//Storyboard Layer 3 (Foreground)
Sprite,Foreground,Centre,"SB\Taiko\Verdi.png",320,240 S,0,9272,,0.6 M,0,9272,9636,434,295,434,271 F,2,9272,9636,0,0.5 M,0,9636,96545,434,271 F,0,9636,96545,1 M,0,96545,96908,434,271,434,247 F,1,96545,96908,0.5,0
Sprite,Foreground,Centre,"SB\Taiko\Kuri.png",320,240 S,0,96545,,0.6 M,0,96545,96908,434,295,434,271 F,2,96545,96908,0,0.5 M,0,96908,181999,434,271 F,0,96908,181999,1 M,0,181999,182636,434,271,434,247 F,1,181999,182636,0.5,0
Sprite,Foreground,Centre,"SB\Taiko\Dax.png",320,240 S,0,181999,,0.6 M,0,181999,182636,434,295,434,271 F,2,181999,182636,0,0.5 M,0,182636,270726,434,271 F,0,182636,270726,1 M,0,270726,271090,434,271,434,247 F,1,270726,271090,0.5,0
Sprite,Foreground,Centre,"SB\Taiko\Backfire.png",320,240 S,0,270726,,0.6 M,0,270726,271090,449,295,449,271 F,2,270726,271090,0,0.5 M,0,271090,335454,449,271 F,0,271090,335454,1 M,0,335454,335817,449,271,449,247 F,1,335454,335817,0.5,0
//Storyboard Sound Samples
//Background Colour Transformations
3,100,163,162,255

[TimingPoints]
9659,363.636363636364,4,1,0,90,1,0
67840,-100,4,1,0,90,0,1
85295,-100,4,1,0,90,0,0
102931,-125,4,1,0,100,0,0
114382,-117.647058823529,4,1,0,100,0,0
120200,-111.111111111111,4,1,0,100,0,0
123295,-105.263157894737,4,1,0,100,0,0
126018,-100,4,1,0,100,0,0
129291,-125,4,1,0,100,0,0
139291,-117.647058823529,4,1,0,100,0,0
139473,-111.111111111111,4,1,0,100,0,0
139655,-105.263157894737,4,1,0,100,0,0
139836,-100,4,1,0,100,0,0
140018,-95.2380952380952,4,1,0,100,0,0
140200,-90.9090909090909,4,1,0,100,0,0
140382,-86.9565217391304,4,1,0,100,0,0
140568,-83.3333333333333,4,1,0,100,0,1
158022,-83.3333333333333,4,1,0,100,0,1
158200,-90.9090909090909,4,1,0,100,0,1
158386,-100,4,1,0,100,0,1
169659,-100,4,1,0,100,0,0
202386,363.636363636364,4,1,0,90,1,0
228749,-133.333333333333,4,1,0,100,0,0
240200,-100,4,1,0,100,0,0
295473,-100,4,1,0,100,0,0
298386,-100,4,1,0,100,0,1
304204,-100,4,1,0,100,0,0
315840,-100,4,1,0,100,0,1
327295,-100,4,1,0,100,0,0

[Colours]
Combo1 : 182,91,242
Combo2 : 155,210,255

[HitObjects]
256,192,9659,12,0,10749
256,176,10931,5,0
256,176,11113,1,12
256,176,11477,1,0
256,176,11659,1,0
256,176,11840,1,8
256,176,11931,1,8
256,176,12022,1,0
256,176,12113,1,0
256,176,12204,1,0
256,176,12295,1,0
256,176,12386,1,0
256,176,12477,1,0
256,176,12568,1,0
256,176,12931,1,8
256,176,13295,1,0
256,176,13477,1,0
256,176,13659,1,8
256,176,14022,1,0
256,176,14204,1,0
256,176,14295,1,0
256,176,14386,1,8
256,176,14568,1,8
256,176,14749,1,0
256,176,14931,1,0
256,176,15113,1,8
256,176,15295,1,0
256,176,15477,1,4
256,176,15840,1,8
256,176,16204,1,0
256,176,16386,1,0
256,176,16568,1,8
256,176,16749,1,0
256,176,16840,1,0
256,176,16931,1,0
256,176,17113,1,8
256,176,17204,1,0
256,176,17295,1,8
256,176,17477,1,8
256,176,17659,1,0
256,176,17749,1,0
256,176,17840,1,0
256,176,18022,1,8
256,176,18204,1,0
256,176,18386,1,4
256,176,18749,1,8
256,176,19113,1,0
256,176,19295,1,0
256,176,19477,1,8
256,176,19840,1,0
256,176,20204,1,8
256,176,20386,1,8
256,176,20568,1,0
256,176,20659,1,8
256,176,20749,1,0
256,176,20931,1,8
256,176,21113,1,0
256,176,21295,1,12
256,176,21477,1,0
256,176,21568,1,0
256,176,21659,1,0
256,176,21840,1,12
256,176,22204,1,8
256,176,22386,1,0
256,176,22568,1,12
256,176,22931,1,8
256,176,23113,1,0
256,176,23295,5,4
256,176,23659,1,4
256,176,24022,1,0
256,176,24204,1,0
256,176,24386,1,8
256,176,24477,1,8
256,176,24568,1,8
256,176,24749,1,8
256,176,24931,1,0
256,176,25113,1,0
256,176,25295,1,8
256,176,25477,1,0
256,176,25659,1,0
256,176,25840,1,8
256,176,25931,1,8
256,176,26022,1,8
256,176,26204,1,8
256,176,26386,1,0
256,176,26568,1,0
256,176,26749,1,8
256,176,26931,1,0
256,176,27113,1,0
256,176,27295,1,8
256,176,27386,1,8
256,176,27477,1,8
256,176,27659,1,8
256,176,27840,1,0
256,176,28022,1,8
256,176,28113,1,8
256,176,28204,1,8
256,176,28386,1,0
256,176,28749,1,0
256,176,28931,1,0
256,176,29113,1,0
256,176,29295,1,0
256,176,29477,1,0
256,176,29568,1,0
256,176,29659,1,8
256,176,29840,1,0
256,176,30022,1,0
256,176,30749,1,0
256,176,31477,1,0
256,176,32022,1,0
256,176,32386,1,0
256,176,32749,1,0
256,176,32931,1,0
256,176,33659,1,0
256,176,34386,1,0
256,176,34931,1,0
256,176,35295,1,0
256,176,35659,1,0
256,176,35840,1,0
256,176,36204,1,8
256,176,36568,1,0
256,176,36931,1,8
256,176,37295,1,0
256,176,37659,1,8
256,176,38022,1,0
256,176,38386,1,8
256,176,38749,1,0
256,192,38931,12,0,40749
240,232,40931,5,0
272,192,41113,5,0
272,192,41295,1,6
272,192,41659,1,4
272,192,41840,1,8
272,192,41931,1,8
272,192,42022,1,0
272,136,42204,1,8
120,128,42386,1,0
120,128,42568,1,8
120,128,42658,1,8
120,128,42749,1,0
120,128,42931,1,8
200,208,43113,1,0
200,208,43204,1,0
200,208,43295,1,8
200,208,43477,1,0
200,208,43568,1,0
200,208,43658,1,8
200,208,43840,1,0
200,208,43931,1,0
200,208,44022,1,8
200,208,44113,1,8
200,208,44204,1,0
200,208,44386,1,8
200,208,44568,1,0
200,208,44749,1,8
200,208,44840,1,8
200,208,44931,1,0
200,208,45113,1,8
200,208,45295,1,0
200,208,45477,1,8
200,208,45568,1,8
200,208,45658,1,0
200,208,45840,1,8
200,208,46022,1,0
200,208,46113,1,0
200,208,46204,1,8
200,208,46386,1,0
200,208,46477,1,0
200,208,46568,1,0
200,208,46658,1,0
200,208,46749,1,8
200,208,46840,1,0
200,208,46931,1,0
200,208,47113,1,0
200,208,47295,1,8
200,208,47477,1,0
200,208,47840,1,8
200,208,48022,1,0
200,208,48113,1,0
200,208,48204,1,0
200,208,48386,1,0
200,208,48568,1,8
200,208,48931,1,0
200,208,49295,1,8
200,208,49477,1,8
200,208,49568,1,8
200,208,49658,1,8
200,208,49840,1,8
200,208,50022,1,0
200,208,50204,1,8
200,208,50295,1,0
200,208,50386,1,0
200,208,50568,1,0
200,208,50658,1,0
200,208,50749,1,8
200,208,50931,1,0
200,208,51022,1,0
200,208,51113,1,8
200,208,51295,1,0
200,208,51386,1,0
200,208,51477,1,8
200,208,51658,1,0
200,208,51749,1,0
200,208,51840,1,8
200,208,51931,1,8
200,208,52022,1,8
200,208,52113,1,8
200,208,52204,1,0
200,208,52295,1,0
200,208,52386,1,0
200,208,52477,1,0
200,208,52568,1,8
200,208,52749,1,0
200,208,52840,1,0
200,208,52931,1,0
200,208,53113,1,0
200,208,53295,1,4
200,208,53658,1,0
200,208,53840,1,0
200,208,54022,1,0
200,208,54204,1,0
200,208,54386,1,0
200,208,54568,1,0
200,208,54749,1,0
200,208,54931,1,8
200,208,55022,1,0
200,208,55113,1,8
200,208,55295,1,8
200,208,55477,1,0
200,208,55658,1,0
248,136,55840,1,8
248,136,56204,1,0
272,256,56568,1,8
160,296,56931,1,0
104,168,57295,1,8
104,168,57477,1,8
104,168,57658,1,0
248,152,58022,1,8
248,152,58386,1,0
248,152,58749,1,8
208,240,59113,1,0
280,272,59477,1,8
280,272,59658,1,8
280,272,59840,1,0
280,272,60204,1,8
128,256,60386,1,0
128,256,60477,1,0
128,256,60568,1,0
176,320,60749,1,8
176,320,60840,1,0
176,320,60931,1,8
176,320,61113,1,8
176,320,61295,1,0
176,320,61386,1,0
176,320,61477,1,8
176,320,61568,1,8
176,320,61658,1,0
128,256,61840,1,8
176,320,61931,1,0
176,320,62022,1,0
248,264,62204,1,0
248,264,62386,1,0
248,264,62568,1,0
248,264,62749,1,4
248,264,62931,1,0
248,264,63113,1,0
248,264,63295,1,0
248,264,63477,1,4
248,264,63658,1,0
248,264,63840,1,0
248,264,64022,1,0
248,264,64204,1,4
248,264,64386,1,0
248,264,64568,1,0
248,264,64749,1,0
248,264,64931,1,4
248,264,65113,1,0
248,264,65295,1,4
248,264,65477,1,4
248,264,65658,1,4
248,264,65840,1,0
248,264,66022,1,4
248,264,66204,1,0
248,264,66386,1,4
248,168,67840,5,4
248,168,68204,1,8
248,168,68386,1,0
248,168,68477,1,0
248,168,68568,1,0
248,168,68749,1,0
248,168,68931,1,8
248,168,69113,1,0
248,168,69295,1,0
248,168,69477,1,8
248,168,69568,1,0
248,168,69658,1,8
248,168,69840,1,0
248,168,69931,1,0
248,168,70022,1,0
248,168,70204,1,0
248,168,70386,1,8
256,232,70568,1,0
256,232,70658,1,0
256,232,70749,1,0
256,232,71113,1,8
256,232,71295,1,0
256,232,71386,1,0
256,232,71477,1,0
256,232,71658,1,8
256,232,71749,1,0
256,232,71840,1,8
256,232,72022,1,0
256,232,72204,1,0
256,232,72386,1,0
256,232,72477,1,8
256,232,72568,1,8
256,232,72658,1,8
256,232,72749,1,0
256,232,72931,1,0
256,232,73022,1,0
256,232,73113,1,8
256,232,73295,1,0
256,232,73477,1,8
256,232,73658,1,0
256,232,73840,1,8
256,232,73931,1,8
256,232,74022,1,8
256,232,74204,1,0
256,232,74386,1,0
256,232,74568,1,8
256,232,74658,1,8
256,232,74749,1,8
256,232,74931,1,0
256,232,75113,1,0
256,232,75204,1,8
256,232,75295,1,0
256,232,75477,1,8
256,232,75658,1,8
256,232,75840,1,8
256,232,75931,1,8
256,232,76022,1,8
256,232,76113,1,8
256,232,76204,1,0
256,232,76295,1,0
256,232,76386,1,0
256,232,76477,1,0
104,160,76568,1,8
256,232,76931,1,8
256,232,77113,1,0
256,232,77295,1,0
256,232,77477,1,8
256,232,77568,1,0
256,232,77658,1,8
256,232,77840,1,0
256,232,78022,1,4
256,232,78204,1,8
256,232,78295,1,8
256,232,78386,1,8
256,232,78568,1,8
256,232,78658,1,8
256,232,78749,1,0
256,232,78840,1,8
256,232,78931,1,0
256,232,79022,1,0
256,232,79113,1,8
256,232,79295,1,0
256,232,79477,1,0
256,232,79658,1,0
256,232,79749,1,0
256,232,79840,1,8
256,232,80022,1,0
256,232,80113,1,8
256,232,80204,1,0
256,232,80295,1,8
256,232,80386,1,0
256,232,80568,1,8
256,232,80749,1,0
256,232,80840,1,0
256,232,80931,1,0
256,232,81113,1,0
256,232,81204,1,0
256,232,81295,1,8
256,232,81477,1,0
256,232,81568,1,8
256,232,81658,1,0
256,232,81749,1,8
256,232,81840,1,0
256,232,82022,1,8
256,232,82204,1,0
256,232,82295,1,0
256,232,82386,1,0
256,232,82477,1,8
256,232,82568,1,0
256,232,82658,1,0
256,232,82749,1,8
256,232,82931,1,8
256,232,83022,1,8
256,232,83113,1,0
256,232,83204,1,0
256,232,83295,1,8
256,232,83477,1,8
256,232,83658,1,0
256,232,83749,1,0
256,232,83840,1,0
256,232,84022,1,8
256,232,84113,1,8
256,232,84204,1,8
256,232,84386,1,0
256,232,84568,1,8
256,232,84658,1,8
256,232,84749,1,0
256,232,84840,1,0
256,232,84931,1,0
256,232,85022,1,0
160,136,85113,1,8
256,232,85295,1,4
256,232,85658,1,8
256,232,86022,1,0
256,232,86386,1,8
256,232,86749,2,0,B|264:32|264:32|184:104,1,280
256,232,87658,1,8
256,232,87749,1,8
256,232,87840,1,8
256,232,87931,1,8
256,232,88022,1,8
256,232,88204,1,0
256,232,88568,1,8
256,232,88931,1,0
256,232,89295,1,8
256,232,89658,2,0,B|168:288|24:200|24:200|80:192,1,280
128,112,90568,1,8
128,112,90658,1,8
128,112,90749,1,0
128,112,90840,1,0
280,280,90931,1,8
128,112,91022,1,0
280,280,91113,1,0
264,136,91295,1,8
264,136,91386,1,8
264,136,91477,1,0
264,136,91568,1,8
264,136,91658,1,8
264,136,91749,1,0
264,136,91840,1,0
176,200,92022,1,8
176,200,92113,1,8
176,200,92204,1,0
176,200,92295,1,8
176,200,92386,1,8
176,200,92477,1,0
176,200,92568,1,0
176,200,92658,1,8
176,200,92749,1,0
176,200,92840,1,8
176,200,92931,1,0
176,200,93022,1,0
176,200,93113,1,8
176,200,93204,1,8
176,200,93295,1,0
216,304,93386,1,8
240,264,93477,1,0
240,264,93568,1,0
240,264,93658,1,0
240,264,93749,1,8
240,264,93840,1,0
192,160,93931,1,0
264,192,94022,1,0
192,160,94204,1,8
336,208,94295,1,0
336,208,94386,1,0
192,160,94568,1,8
400,152,94931,1,0
192,160,95022,1,8
48,224,95113,1,0
192,160,95295,1,8
376,96,95477,1,0
256,192,95658,12,0,96568
288,232,96749,5,8
256,192,96931,5,4
256,192,97113,5,0
256,192,97295,1,8
256,192,97477,1,0
256,192,97568,1,0
256,192,97658,1,0
256,192,97840,1,0
256,192,98022,1,8
256,192,98204,1,0
256,192,98295,1,0
256,192,98386,1,0
256,192,98568,1,0
256,192,98749,1,8
256,192,98931,1,0
256,192,99022,1,0
256,192,99113,1,8
256,192,99204,1,8
256,192,99295,1,0
256,192,99477,1,8
256,192,99658,5,0
256,192,99749,1,0
256,192,99840,1,0
256,192,100022,1,0
256,192,100204,1,8
256,192,100386,1,0
256,192,100477,1,0
256,192,100568,1,0
256,192,100749,1,0
256,192,100931,1,8
256,192,101113,1,0
256,192,101477,5,0
256,192,101568,1,0
256,192,101658,1,8
256,192,101840,1,0
256,192,102022,1,8
256,192,102204,1,0
256,192,102386,1,0
256,192,102568,1,8
256,192,102749,5,0
256,192,103113,1,0
256,192,103477,1,0
256,192,103840,1,0
256,192,104022,1,8
256,192,104204,1,0
256,192,104568,1,0
256,192,104931,1,0
256,192,105113,1,8
256,192,105295,1,0
256,192,105477,1,8
256,192,105658,1,0
256,192,106022,5,0
256,192,106386,1,0
256,192,106749,1,0
256,192,107113,1,0
256,192,107477,1,0
256,192,107658,1,8
256,192,107840,1,0
256,192,108022,1,8
256,192,108204,1,0
256,192,108386,1,8
256,192,108568,1,0
256,192,108931,5,0
256,192,109113,1,8
256,192,109295,1,0
256,192,109658,5,0
256,192,109840,1,8
256,192,110022,1,0
256,192,110386,5,0
256,192,110568,1,8
256,192,110749,1,0
256,192,111113,5,8
256,192,111295,1,8
256,192,111477,1,8
256,192,111840,5,0
256,192,112022,1,8
256,192,112204,1,0
256,192,112386,1,8
256,192,112568,1,0
256,192,112749,1,8
256,192,113113,5,0
256,192,113295,1,8
256,192,113477,1,0
256,192,113658,1,8
256,192,113840,1,0
256,192,114022,1,0
256,192,114204,1,8
256,192,114386,1,0
256,192,114568,5,0
256,192,114658,1,0
256,192,114749,1,0
256,192,114931,1,0
256,192,115022,1,0
256,192,115113,1,0
256,192,115295,1,0
256,192,115386,1,0
256,192,115477,1,0
256,192,115658,1,8
256,192,115840,1,0
256,192,116022,5,0
256,192,116113,1,0
256,192,116204,1,0
256,192,116386,1,0
256,192,116477,1,0
256,192,116568,1,0
256,192,116749,1,0
256,192,116840,1,0
256,192,116931,1,0
256,192,117113,1,8
256,192,117295,1,0
256,192,117477,5,0
256,192,117568,1,0
256,192,117658,1,0
256,192,117840,1,0
256,192,117931,1,0
256,192,118022,1,0
256,192,118204,1,0
256,192,118295,1,0
256,192,118386,1,0
256,192,118568,1,8
256,192,118749,1,0
256,192,118931,5,0
256,192,119022,1,0
256,192,119113,1,0
256,192,119295,1,0
256,192,119386,1,0
256,192,119477,1,8
256,192,119658,1,0
256,192,119749,1,0
256,192,119840,1,8
256,192,120022,1,0
256,192,120204,1,4
256,192,120568,5,0
256,192,120749,1,8
256,192,120931,1,0
256,192,121295,1,0
256,192,121477,1,8
256,192,121658,1,0
256,192,122022,1,0
256,192,122204,1,8
256,192,122386,1,0
256,192,122749,1,8
256,192,122931,1,8
256,192,123113,1,0
256,192,123477,5,0
256,192,123658,1,8
256,192,123840,1,0
256,192,124204,1,8
256,192,124386,1,8
256,192,124568,1,0
256,192,124749,1,8
256,192,124931,1,0
256,192,125113,1,8
256,192,125295,1,0
256,192,125477,1,8
256,192,125658,1,0
256,192,125749,1,0
256,192,125840,1,8
256,192,126022,5,8
256,192,126204,1,0
256,192,126386,1,0
256,192,126568,1,0
256,192,126749,1,0
256,192,126931,1,0
256,192,127113,1,0
256,192,127295,1,0
256,192,127477,1,0
256,192,127658,1,0
256,192,127840,1,0
256,192,128022,1,0
256,192,128204,1,0
256,192,128386,1,0
256,192,128568,1,0
256,192,128749,1,0
256,192,128931,1,8
256,192,129295,5,0
256,192,129477,1,8
256,192,129658,1,8
256,192,129840,1,0
256,192,130022,1,8
256,192,130386,5,0
256,192,130568,1,8
256,192,130749,1,0
256,192,131113,1,0
256,192,131295,1,8
256,192,131477,1,0
256,192,131658,1,8
256,192,131840,1,0
256,192,132204,5,8
256,192,132568,1,0
256,192,132931,1,8
256,192,133113,1,8
256,192,133295,1,0
256,192,133477,1,8
256,192,133658,1,0
256,192,133840,1,0
256,192,133931,1,0
256,192,134022,1,8
256,192,134204,1,0
256,192,134386,1,0
256,192,134749,6,0,B|328:192|352:160|352:160|328:104|352:40|352:40|208:48|176:128|176:128|96:24,1,560
256,192,136931,1,0
256,192,137658,5,8
256,192,137840,1,0
256,192,138022,1,0
256,192,138204,1,0
256,192,138386,1,0
256,192,138568,1,0
256,192,138749,1,8
256,192,138931,1,0
256,192,139113,1,8
256,192,139295,1,0
256,192,139477,1,0
256,192,139658,1,8
256,192,139840,1,0
256,192,140022,1,8
256,192,140204,1,0
256,192,140386,1,8
256,192,140568,5,0
256,192,140749,1,0
256,192,140931,1,8
256,192,141113,1,0
256,192,141204,1,0
256,192,141295,1,0
256,192,141477,1,0
256,192,141658,1,8
256,192,141840,1,0
256,192,141931,1,0
256,192,142022,1,8
256,192,142113,1,8
256,192,142204,1,0
256,192,142386,1,8
256,192,142568,1,0
256,192,142658,1,8
256,192,142749,1,0
256,192,142931,1,0
256,192,143113,1,8
256,192,143295,1,0
256,192,143477,5,0
256,192,143658,1,0
256,192,143840,1,8
256,192,144022,1,0
256,192,144204,1,0
256,192,144386,1,0
256,192,144568,1,8
256,192,144749,1,0
256,192,144840,1,0
256,192,144931,1,8
256,192,145113,1,0
256,192,145204,1,0
256,192,145295,1,8
256,192,145477,1,0
256,192,145568,1,0
256,192,145658,1,8
256,192,145749,1,8
256,192,145840,1,0
256,192,146022,1,8
256,192,146113,1,0
256,192,146204,1,8
256,192,146295,1,8
256,192,146386,1,0
256,192,146568,5,0
256,192,146749,1,8
256,192,146931,1,0
256,192,147022,1,0
256,192,147113,1,0
256,192,147295,1,0
256,192,147477,1,8
256,192,147658,1,0
256,192,147749,1,0
256,192,147840,1,0
256,192,148022,1,0
256,192,148204,1,8
256,192,148386,1,8
256,192,148477,1,8
256,192,148568,1,0
256,192,148931,5,0
256,192,149295,1,0
256,192,149477,1,0
256,192,149658,1,8
256,192,150022,1,0
256,192,150113,1,8
256,192,150204,1,0
256,192,150386,1,8
256,192,150749,1,8
256,192,150840,1,8
256,192,150931,1,0
256,192,151113,1,8
256,192,151204,1,8
256,192,151295,1,0
256,192,151477,1,8
256,192,151568,1,8
256,192,151658,1,8
256,192,151749,1,8
256,192,151840,1,8
256,192,151931,1,8
256,192,152022,1,8
256,192,152113,1,8
256,192,152204,1,0
256,192,152386,5,0
256,192,152568,1,8
256,192,152749,1,0
256,192,152840,1,0
256,192,152931,1,0
256,192,153113,1,0
256,192,153295,1,8
256,192,153477,1,0
256,192,153568,1,0
256,192,153658,1,0
256,192,153840,1,0
256,192,154022,1,8
256,192,154204,1,0
256,192,154295,1,0
256,192,154386,1,8
256,192,154477,1,8
256,192,154568,1,0
256,192,154749,1,8
256,192,154931,1,8
256,192,155022,1,8
256,192,155113,1,0
256,192,155295,5,0
256,192,155477,1,8
256,192,155658,1,0
256,192,155749,1,0
256,192,155840,1,0
256,192,156022,1,0
256,192,156204,1,8
256,192,156386,1,0
256,192,156477,1,0
256,192,156568,1,8
256,192,156658,1,8
256,192,156749,1,0
256,192,156931,1,8
256,192,157113,1,0
256,192,157204,1,0
256,192,157295,1,8
256,192,157477,1,0
256,192,157568,1,0
256,192,157658,1,8
256,192,157749,1,0
256,192,157840,1,8
256,192,157931,1,8
256,192,158022,1,0
256,192,158204,5,0
256,192,158386,1,0
256,192,158749,1,8
256,192,158931,1,0
256,192,159295,1,0
256,192,159477,1,0
256,192,159658,1,0
256,192,159840,1,0
256,192,160204,1,8
256,192,160386,1,0
256,192,160749,1,8
256,192,160931,1,0
256,192,161113,1,0
256,192,161295,1,0
256,192,161658,1,8
256,192,162022,5,0
256,192,162204,1,8
256,192,162386,1,0
256,192,162749,1,0
256,192,162931,1,0
256,192,163113,1,8
256,192,163477,1,8
256,192,163658,5,8
256,192,163749,1,8
256,192,163840,1,0
256,192,164022,1,0
256,192,164204,1,0
256,192,164386,1,0
256,192,164568,1,0
256,192,164749,1,0
256,192,164931,1,0
256,192,165113,1,0
256,192,165295,1,0
256,192,165477,1,0
256,192,165658,1,0
256,192,165840,1,0
256,192,166022,1,0
256,192,166204,1,0
256,192,166386,1,0
256,192,166568,1,0
256,192,166749,5,8
256,192,166931,1,0
256,192,167022,1,0
256,192,167113,1,0
256,192,167295,1,8
256,192,167477,1,0
256,192,167568,1,0
256,192,167658,1,0
256,192,167840,1,0
256,192,168022,1,0
256,192,168204,1,8
256,192,168386,1,0
256,192,168568,1,0
256,192,168749,1,8
256,192,169113,1,8
256,192,169477,5,0
256,192,169568,1,0
256,192,169658,1,8
256,192,169840,1,0
256,192,170022,1,0
256,192,170204,1,8
256,192,170386,1,0
256,192,170568,1,0
256,192,170749,1,8
256,192,170931,1,0
256,192,171113,1,0
256,192,171295,1,8
256,192,171477,1,0
256,192,171658,1,0
256,192,171840,1,0
256,192,172022,1,0
256,192,172204,1,0
256,192,172386,1,0
256,192,172568,5,8
256,192,172749,1,0
256,192,172931,1,0
256,192,173113,1,8
256,192,173295,1,0
256,192,173477,1,0
256,192,173658,1,8
256,192,173840,1,0
256,192,174022,1,0
256,192,174204,1,8
256,192,174386,1,0
256,192,174568,1,0
256,192,174749,1,8
256,192,174840,1,8
256,192,174931,1,8
256,192,175022,1,8
256,192,175113,1,8
256,192,175204,1,8
256,192,175295,1,8
256,192,175477,5,12
256,192,175658,1,12
256,192,175840,12,0,178022
256,192,178204,5,4
256,192,178386,1,12
256,192,178568,1,12
256,192,178749,1,12
256,192,178931,12,0,181113
256,192,181295,5,0
256,192,181477,1,0
256,192,181840,5,0
256,192,182022,1,8
256,192,182386,5,0
256,192,182749,1,0
256,192,182931,1,0
256,192,183295,1,0
256,192,183477,1,8
256,192,183840,1,0
256,192,184204,1,0
256,192,184386,1,0
256,192,184568,1,0
256,192,184749,1,0
256,192,184931,1,8
256,192,185295,1,0
256,192,185658,1,0
256,192,185840,1,8
256,192,186022,1,0
256,192,186204,1,0
256,192,186386,1,8
256,192,186749,1,0
256,192,187113,1,4
256,192,187658,1,0
256,192,187749,1,0
256,192,187840,1,8
256,192,188022,1,0
256,192,188386,1,0
256,192,188749,1,0
256,192,188931,1,0
256,192,189113,1,0
256,192,189204,1,0
256,192,189295,1,8
256,192,189477,1,0
256,192,189840,1,0
256,192,190022,1,0
256,192,190204,1,0
256,192,190568,1,0
256,192,190658,1,0
256,192,190749,1,8
256,192,190931,1,0
256,192,191295,1,0
256,192,191477,1,8
256,192,191658,1,0
256,192,191840,1,8
256,192,192022,1,8
256,192,192204,1,0
256,192,192386,1,0
256,192,192568,1,8
256,192,192749,1,0
256,192,192931,1,4
256,192,193295,1,0
256,192,193658,1,0
256,192,194022,1,0
256,192,194386,1,0
256,192,194568,1,8
256,192,194749,1,0
256,192,194931,1,8
256,192,195113,1,8
256,192,195477,1,8
256,192,195840,1,0
256,192,196204,1,0
256,192,196568,1,0
256,192,196749,1,0
256,192,196931,1,0
256,192,197113,1,0
256,192,197295,1,0
256,192,197477,1,0
256,192,197658,1,0
256,192,197840,1,0
256,192,198022,1,0
256,192,198204,1,0
256,192,198386,1,0
256,192,198568,1,0
256,120,198749,6,0,B|416:40|416:40|416:192|416:192|256:360|256:360|96:192|96:192|96:40|96:40|256:120,1,1120
256,192,202022,1,8
256,192,202386,5,0
256,192,202567,1,0
256,192,202749,1,8
256,192,202931,1,0
256,192,203113,1,0
256,192,203204,1,0
256,192,203295,1,0
256,192,203476,1,8
256,192,203658,1,0
256,192,203840,1,0
256,192,204022,1,0
256,192,204113,1,0
256,192,204204,1,8
256,192,204385,1,0
256,192,204567,1,0
256,192,204658,1,0
256,192,204749,1,0
256,192,204840,1,0
256,192,204931,1,8
256,192,205113,1,0
256,192,205295,1,4
256,192,205476,1,0
256,192,205567,1,0
256,192,205658,1,8
256,192,205840,1,0
256,192,206022,1,0
256,192,206113,1,0
256,192,206204,1,8
256,192,206295,1,8
256,192,206385,1,8
256,192,206567,1,0
256,192,206749,1,0
256,192,206840,1,0
256,192,206931,1,8
256,192,207113,1,8
256,192,207295,1,0
256,192,207385,1,8
256,192,207476,1,0
256,192,207658,1,0
256,192,207840,1,8
256,192,208022,1,0
256,192,208204,1,4
256,192,208385,1,0
256,192,208476,1,0
256,192,208567,1,8
256,192,208749,1,0
256,192,208931,1,0
256,192,209022,1,0
256,192,209204,1,0
256,192,209295,1,8
256,192,209476,1,0
256,192,209658,1,0
256,192,209749,1,0
256,192,209840,1,0
256,192,210022,1,8
256,192,210204,1,0
256,192,210295,1,8
256,192,210385,1,0
256,192,210567,1,0
256,192,210749,1,8
256,192,210931,1,0
256,192,211113,1,0
256,192,211204,1,0
256,192,211295,1,0
256,192,211385,1,0
256,192,211476,1,8
256,192,211658,1,0
256,192,211749,1,8
256,192,211840,1,0
256,192,212022,1,0
256,192,212113,1,0
256,192,212204,1,8
256,192,212385,1,0
256,192,212567,1,8
256,192,212749,1,8
256,192,213113,1,0
256,192,213204,1,0
256,192,213295,1,8
256,192,213476,1,8
256,192,214022,1,0
256,192,214204,1,0
256,192,214385,1,8
256,192,214567,1,0
256,192,214749,1,0
256,192,214931,1,0
256,192,215113,1,8
256,192,215295,1,0
256,192,215476,1,0
256,192,215658,1,0
256,192,215840,1,8
256,192,216022,1,0
256,192,216204,1,0
256,192,216385,1,8
256,192,216567,1,0
256,192,216749,1,8
256,192,216931,1,0
256,192,217113,1,0
256,192,217295,1,8
256,192,217476,1,0
256,192,217658,1,0
256,192,217840,1,0
256,192,218022,1,8
256,192,218204,1,0
256,192,218385,1,0
256,192,218567,1,0
256,192,218749,1,8
256,192,218931,1,0
256,192,219113,1,8
256,192,219204,1,0
256,192,219295,1,0
256,192,219385,1,0
256,192,219476,1,0
256,192,219567,1,0
256,192,219658,1,0
256,192,219749,1,0
256,192,219840,1,8
256,192,220204,1,0
256,192,220385,1,8
256,192,220749,1,0
256,192,220840,1,0
256,192,220931,1,8
256,192,221113,1,0
256,192,221295,1,8
256,192,221658,1,0
256,192,221840,1,8
256,192,222204,1,0
256,192,222295,1,0
256,192,222385,1,8
256,192,222567,1,0
256,192,222749,1,8
256,192,222931,1,0
256,192,223113,1,8
256,192,223295,1,0
256,192,223385,1,8
256,192,223476,1,0
256,192,223658,1,0
256,192,223840,1,8
256,192,224022,1,0
256,192,224204,1,0
256,192,224385,1,0
256,192,224567,1,8
256,192,224749,1,0
256,192,224840,1,8
256,192,224931,1,0
256,192,225113,1,0
256,192,225295,1,8
256,192,225476,1,0
256,192,225658,1,8
256,192,225840,1,8
256,192,226022,1,8
256,192,226204,1,8
256,192,226385,1,8
256,192,226567,1,8
256,192,226749,1,8
256,192,226931,1,8
256,192,227113,1,8
256,192,227295,1,8
256,192,227476,1,8
256,192,227658,1,8
256,192,227840,1,8
256,192,228022,1,8
256,192,228204,1,8
256,192,228385,1,8
256,192,228567,1,4
256,192,228931,1,0
256,192,229295,1,8
256,192,230022,1,0
256,192,230385,1,8
256,192,230749,1,0
256,192,231113,1,8
256,192,231476,1,0
256,192,231840,1,0
256,192,232204,1,8
256,192,232931,1,0
256,192,233295,1,8
256,192,233658,1,0
256,192,234022,1,8
256,192,234385,1,0
256,192,234749,1,0
256,192,235113,1,8
256,192,235840,1,0
256,192,236204,1,8
256,192,236567,1,0
256,192,236931,1,8
256,192,237295,1,0
256,192,237658,1,0
256,192,238022,1,8
256,192,238385,1,0
256,192,238749,1,0
256,192,239113,1,8
256,192,239476,1,0
256,192,239840,1,8
256,192,240204,1,0
256,192,240567,1,0
256,192,240931,1,8
256,192,241295,1,0
256,192,241476,1,8
256,192,241658,1,0
256,192,241840,1,8
256,192,242022,1,0
256,192,242385,1,8
256,192,242567,1,0
256,192,242749,1,0
256,192,243113,1,4
256,192,243476,1,0
256,192,243840,1,8
256,192,244204,1,0
256,192,244385,1,8
256,192,244476,1,0
256,192,244567,1,0
256,192,244749,1,8
256,192,244931,1,0
256,192,245113,1,0
256,192,245204,1,0
256,192,245295,1,8
256,192,245476,1,0
256,192,245658,1,0
256,192,246022,1,0
256,192,246385,1,8
256,192,247113,1,8
256,192,247476,1,0
256,192,247840,1,8
256,192,248567,1,8
256,192,248931,12,0,250931
256,192,251113,5,4
256,192,251295,5,4
256,192,251840,1,4
256,192,252022,1,8
256,192,252204,1,0
256,192,252385,1,8
256,192,252476,1,0
256,192,252567,1,0
256,192,252749,1,8
256,192,252931,1,0
256,192,253113,1,8
256,192,253295,1,0
256,192,253476,1,8
256,192,253658,1,0
256,192,253840,1,8
256,192,253931,1,0
256,192,254022,1,0
256,192,254204,1,8
256,192,254385,1,0
256,192,254567,1,8
256,192,254749,1,0
256,192,254931,1,8
256,192,255113,1,0
256,192,255295,1,8
256,192,255385,1,0
256,192,255476,1,0
256,192,255658,1,8
256,192,255840,1,0
256,192,256022,1,8
256,192,256204,1,0
256,192,256385,1,8
256,192,256567,1,0
256,192,256749,1,8
256,192,256840,1,0
256,192,256931,1,0
256,192,257113,1,8
256,192,257295,1,0
256,192,257476,1,8
256,192,257658,1,4
256,192,258022,1,0
256,192,258113,1,0
256,192,258204,1,0
256,192,258295,1,0
256,192,258385,1,8
256,192,258476,1,0
256,192,258567,1,0
256,192,258658,1,0
256,192,258749,1,0
256,192,258840,1,0
256,192,258931,1,0
256,192,259022,1,0
256,192,259113,1,0
256,192,259204,1,0
256,192,259295,1,0
256,192,259385,1,0
256,192,259476,1,0
256,192,259567,1,0
256,192,259658,1,0
256,192,259749,1,0
256,192,259840,1,8
256,192,259931,1,0
256,192,260022,1,0
256,192,260113,1,0
256,192,260204,1,0
256,192,260295,1,0
256,192,260385,1,0
256,192,260476,1,0
256,192,260567,1,0
256,192,260749,1,8
256,192,260840,1,0
256,192,260931,1,0
256,192,261113,1,8
256,192,261295,1,0
256,192,261385,1,8
256,192,261567,1,0
256,192,261658,1,0
256,192,261840,1,0
256,192,262022,1,0
256,192,262113,1,8
256,192,262204,1,0
256,192,262385,1,8
256,192,262567,1,0
256,192,262658,1,8
256,192,262749,1,0
256,192,262931,1,0
256,192,263113,1,8
256,192,263295,1,0
256,192,263476,1,4
256,192,263840,1,0
256,192,264567,1,8
256,192,264931,1,0
256,192,265295,1,8
256,192,266022,1,8
256,192,266385,1,0
256,192,266749,1,8
256,192,267476,1,8
256,192,267840,1,0
256,192,268204,1,8
256,192,268931,1,8
256,192,269295,1,0
256,192,269658,1,8
256,192,270386,1,8
256,192,270749,1,0
256,192,271113,1,8
264,208,271840,5,0
256,120,272567,1,0
256,120,273295,1,0
256,192,273658,12,0,274749
280,216,275113,5,0
280,216,275476,1,8
280,216,275658,1,0
280,216,276204,1,8
280,216,276567,1,0
232,136,276931,1,8
232,136,277113,1,0
232,136,277476,1,0
232,136,277840,1,0
232,136,278022,1,0
232,136,278386,1,8
232,136,279113,1,0
232,136,279840,1,8
232,136,280022,1,0
208,112,280386,1,0
208,112,280567,1,8
208,112,280749,1,0
208,112,280840,1,0
208,112,280931,1,0
232,136,281295,1,8
216,72,281476,1,0
216,72,282022,1,0
216,72,282386,1,0
248,96,282749,1,8
248,96,282931,1,0
248,96,283295,1,0
248,96,283658,1,0
248,96,283840,1,0
248,96,284204,1,8
216,96,284386,1,0
264,224,284931,1,0
224,208,285295,1,8
264,224,285658,1,8
264,224,285840,1,0
264,224,286022,1,0
264,224,286204,1,0
264,224,286386,1,8
264,224,286567,1,0
264,224,286658,1,0
264,224,286749,1,0
232,216,286931,1,0
232,216,287113,1,8
232,216,287295,1,0
232,216,287476,1,0
248,192,287658,1,0
248,192,287840,1,8
248,192,288022,1,0
232,216,288204,1,0
248,192,288295,1,0
232,216,288386,1,0
232,216,288567,1,8
232,216,288749,1,0
248,192,288931,1,0
248,192,289113,1,0
248,192,289295,1,8
232,216,289476,1,0
248,192,289567,1,0
248,192,289658,1,0
232,216,289840,1,0
232,216,290022,1,8
248,192,290204,1,0
248,192,290386,1,0
248,192,290567,1,0
232,216,290749,1,8
232,216,290931,1,0
232,216,291113,1,0
248,192,291204,1,0
232,216,291295,1,0
248,192,291476,1,8
248,192,291658,1,0
248,192,291840,1,0
232,216,292022,1,0
232,216,292204,1,8
232,216,292386,1,0
232,216,292567,1,8
248,192,292749,1,0
248,192,292931,1,0
248,192,293113,1,0
232,216,293295,1,0
232,216,293476,1,0
232,216,293658,1,0
232,216,293840,1,0
248,192,294022,1,8
248,192,294204,1,0
248,192,294386,1,0
232,216,294567,1,0
232,216,294749,1,0
232,216,294931,1,0
232,216,295113,1,0
248,192,295295,1,0
248,192,295476,1,8
248,192,295567,1,8
248,192,295658,1,0
248,192,295840,1,0
248,192,296022,1,8
248,192,296113,1,8
248,192,296204,1,0
248,192,296386,1,0
248,192,296567,1,8
248,192,296658,1,8
248,192,296749,1,0
248,192,296931,1,0
248,192,297113,1,8
248,192,297204,1,8
248,192,297295,1,0
248,192,297476,1,8
248,192,297658,1,0
248,192,297749,1,0
248,192,297840,1,0
248,192,297931,1,0
248,192,298022,1,8
248,192,298113,1,8
248,192,298204,1,0
248,192,298295,1,0
248,192,298386,1,8
224,176,298567,1,0
224,176,298749,1,8
224,176,298931,1,0
224,176,299022,1,0
224,176,299113,1,0
224,176,299295,1,0
224,176,299476,1,8
224,176,299658,1,0
224,176,299749,1,0
224,176,299840,1,0
224,176,300022,1,0
224,176,300204,1,8
224,176,300386,1,0
224,176,300476,1,0
224,176,300567,1,0
224,176,300658,1,8
224,176,300749,1,0
224,176,300931,1,8
224,176,301113,1,0
224,176,301204,1,0
224,176,301295,1,0
224,176,301476,1,0
224,176,301567,1,0
224,176,301658,1,8
224,176,301840,1,0
224,176,301931,1,0
224,176,302022,1,0
224,176,302113,1,8
224,176,302204,1,0
224,176,302386,1,8
248,256,302567,1,0
248,256,302658,1,0
248,256,302749,1,0
248,256,302931,1,0
248,256,303113,1,8
224,176,303204,1,8
248,256,303295,1,0
224,176,303476,1,0
248,256,303658,1,12
280,128,303840,1,12
208,112,304022,1,0
208,112,304113,1,0
216,144,304204,1,0
216,144,304386,1,8
216,144,304749,1,0
216,144,304931,1,8
216,144,305295,1,0
216,144,305476,1,0
216,144,305658,1,8
216,144,305749,1,0
216,144,305840,1,0
216,144,306204,1,0
224,64,306386,1,8
192,184,306749,1,0
192,184,306931,1,0
192,184,307113,1,8
224,176,307295,1,0
224,176,307476,1,0
216,144,307658,1,0
216,144,307749,1,0
216,144,307840,1,8
216,144,308204,1,0
240,128,308386,1,0
240,128,308567,1,8
240,128,308749,1,0
240,128,309113,1,0
240,128,309295,1,8
240,128,309476,1,8
240,128,309567,1,8
240,128,309658,1,0
240,128,309840,1,0
240,128,309931,1,0
240,128,310022,1,8
240,128,310204,1,0
264,224,310386,1,0
232,216,310567,1,0
232,216,310749,1,8
232,216,310931,1,0
232,216,311113,1,0
248,192,311295,1,0
248,192,311476,1,8
248,192,311658,1,0
232,216,311840,1,0
248,192,311931,1,0
232,216,312022,1,0
232,216,312204,1,8
232,216,312386,1,0
248,192,312567,1,0
248,192,312749,1,0
248,192,312931,1,8
232,216,313113,1,0
248,192,313204,1,0
248,192,313295,1,0
232,216,313476,1,0
232,216,313658,1,8
248,192,313840,1,0
248,192,314022,1,0
248,192,314204,1,0
232,216,314386,1,12
256,192,314567,12,0,315658
272,192,315840,5,0
256,160,316022,1,0
256,160,316204,1,8
256,160,316295,1,0
256,160,316386,1,8
256,160,316567,1,0
256,160,316749,1,0
256,160,316931,1,0
256,160,317022,1,8
256,160,317113,1,0
256,160,317204,1,0
256,160,317295,1,0
256,160,317476,1,0
232,64,317658,1,8
232,64,317749,1,8
232,64,317840,1,0
248,88,318022,1,0
248,88,318204,1,0
248,88,318386,1,0
248,88,318476,1,8
248,88,318567,1,0
248,88,318658,1,0
248,88,318749,1,8
248,88,318931,1,0
248,88,319113,1,8
248,88,319204,1,8
248,88,319295,1,0
248,88,319476,1,0
248,88,319658,1,0
248,88,319749,1,0
248,88,319840,1,8
248,88,320022,1,0
232,112,320204,1,0
232,112,320295,1,0
232,112,320386,1,8
232,112,320476,1,0
232,112,320567,1,8
232,112,320749,1,0
232,112,320840,1,0
232,112,320931,1,8
232,112,321022,1,8
232,112,321113,1,0
232,112,321295,1,8
232,112,321476,1,0
232,112,321567,1,0
232,112,321658,1,0
272,192,321840,5,0
256,160,322022,1,8
256,160,322204,1,0
256,160,322295,1,0
256,160,322386,1,0
256,160,322567,1,0
256,160,322749,1,8
256,160,322931,1,0
256,160,323022,1,0
256,160,323113,1,0
256,160,323204,1,8
256,160,323295,1,0
256,160,323476,1,8
232,64,323658,1,0
232,64,323749,1,0
232,64,323840,1,0
248,88,324022,1,0
248,88,324204,1,8
248,88,324386,1,0
248,88,324476,1,0
248,88,324567,1,0
248,88,324749,1,0
272,192,324931,5,0
256,160,325113,1,0
256,160,325295,1,0
256,160,325386,1,0
256,160,325476,1,0
256,160,325658,1,0
256,160,325840,1,0
256,160,326022,1,8
256,160,326113,5,8
256,160,326204,1,0
256,160,326295,5,0
256,160,326386,1,8
256,160,326567,5,0
232,64,326749,5,0
232,64,326840,5,0
232,64,326931,1,0
248,88,327113,5,0
248,88,327295,5,8
256,192,328204,12,4,335295
232,160,335476,5,8
232,160,335567,1,8
232,160,335658,1,0
264,200,335749,1,0
264,200,335840,1,0
