osu file format v9

[General]
AudioFilename: Kimi no Shiranai Monogatari - Nico Nico Douga Chorus.mp3
AudioLeadIn: 0
PreviewTime: 65454
Countdown: 0
SampleSet: Normal
StackLeniency: 0.7
Mode: 0
LetterboxInBreaks: 0

[Editor]
Bookmarks: -14,29656,61292,91110,119837,152201,182019,187474,202746,210383,240201,271110,301837,335474
DistanceSpacing: 1.2
BeatDivisor: 4
GridSize: 8

[Metadata]
Title:Kimi no Shiranai Monogatari
Artist:supercell ft. NicoNico Chorus
Creator:Fenya
Version:Collab
Source:Nico Nico Douga
Tags:Bakemonogatari Collab Collaboration Astom Nerv_Mario Ignacio Matt Shadows Mion-Nya Vicho-kun Vicho Beuchi-chan Kotomi-chan bossandy Lissette TTTTTTTTTTTT H-boy Verdisphena Kurisuchianu DaxMasterix Backfire

[Difficulty]
HPDrainRate:8
CircleSize:4
OverallDifficulty:7
ApproachRate:8
SliderMultiplier:1.4
SliderTickRate:1

[Events]
//Background and Video events
0,0,"BackGround.jpg"
//Break Periods
2,12768,16181
2,202585,209635
//Storyboard Layer 0 (Background)
Sprite,Background,Centre,"SB\bg-effect2.png",320,240 S,0,12565,,0.7952002 F,0,12565,12928,0,1 F,0,12928,23474,1 R,0,12928,23474,-4.410744E-08,-0.0004437256 F,0,23474,24201,1,0.59552 R,0,23474,24201,-0.0004437256,-0.009487646 F,0,24201,30019,0.59552,0 R,0,24201,30019,-0.009487646,-0.0409606
Sprite,Background,Centre,"SB\bg-effect.png",320,240 S,0,35837,,0.80544 F,0,35837,36201,0.1177601,1 F,0,36201,36565,1,0 F,0,37292,37656,0,1 F,0,37656,38019,1,0 F,0,38746,39110,0,1 F,0,39110,39474,1,0 F,0,40201,40565,0,1 F,0,40565,40928,1,0.3328
Sprite,Background,Centre,"SB\bg-effect6.png",320,240 M,0,47474,,320,240 S,0,47474,,0.7951999 F,0,47474,47837,0,0.4265599 F,0,47837,48201,0.4265599,0 F,0,48928,49292,0,0.20128 F,0,49292,49656,0.20128,0 F,0,50383,50746,0,0.3856001 F,0,50746,51110,0.3856001,0 F,0,51837,52201,0,0.4214399 F,0,52201,52565,0.4214399,0
Sprite,Background,Centre,"SB\bg-effect.png",320,240 S,0,120201,,0.8054399 F,0,120201,120565,0,0.6825601 F,0,120565,120928,0.6825601,0 F,0,121656,122019,0,0.4607999 F,0,122019,122383,0.4607999,0 F,0,123110,123474,0,0.37888 F,0,123474,123837,0.37888,0 F,0,124565,124928,0,0.5632 F,0,124928,125292,0.5632,0
Sprite,Background,Centre,"SB\bg-effect2.png",320,240 S,0,140656,,0.8054402 F,0,140656,140746,0,0.4864 F,0,140746,140837,0.4864,0.7593601 F,0,140837,140928,0.7593601,1 F,0,140928,157018,1 F,0,157018,157837,1 F,0,157837,158019,1,0
Sprite,Background,Centre,"SB\bg-effect3.png",320,240 M,0,228383,,320,240 S,0,228383,,0.7951998 F,0,228383,228565,0,0.45728 F,0,228565,228928,0.45728,1 F,0,228928,239837,1 F,0,239837,240201,1,0
Sprite,Background,Centre,"SB\bg-effect3.png",320,240 F,0,-1253,0,1 S,0,-1253,0,0.80544,0.7951999 M,0,0,,320,240 F,0,0,8571,1 F,0,8571,9662,1,0
Sprite,Background,Centre,"SB\bg-effect2.png",320,240 S,0,296928,,0.7952 F,0,296928,297019,0 F,0,297019,297110,0,1 F,0,297110,327110,1 F,0,327110,327292,1,0
//Storyboard Layer 1 (Fail)
//Storyboard Layer 2 (Pass)
//Storyboard Layer 3 (Foreground)
Sprite,Foreground,Centre,"SB\mapper\astom.png",320,240 M,0,8934,,169,102 F,0,8934,9298,0,0.21504 S,0,8934,9662,0.744 F,0,9298,9662,0.21504,1 S,0,9662,10025,0.744,0.8259201 F,0,9662,12382,1 S,0,10025,10389,0.8259201,0.72352 F,0,12382,12564,1,0 F,0,12564,16745,0 F,0,16745,16927,0,1 F,0,16927,29298,1 F,0,29298,29662,1,0
Sprite,Foreground,Centre,"SB\mapper\FPRC16.png",320,240 S,0,29662,,0.6927997 F,0,29662,30025,0.04255999,1 M,0,29662,30389,147,475,152,404 F,0,30025,60934,1 F,0,60934,61298,1,0
Sprite,Foreground,Centre,"SB\mapper\Nerv Mario.png",320,240 M,0,61298,61480,150,87,154,90 F,0,61298,61480,0,1 S,0,61480,,0.7030397 F,0,61480,61662,1,0 F,0,61662,62025,0,1 F,0,62025,90752,1 F,0,90752,91116,1,0
Sprite,Foreground,Centre,"SB\mapper\Ignacio.png",320,240 M,0,90934,,133,412 S,0,90934,,0.66208 M,0,90934,91291,133,412,165,412 F,0,90934,91298,0,1 R,0,91298,91480,0.02048035,0.1023999 F,0,91298,119480,1 R,0,91480,91662,0.1023999,0.02048034 R,0,91662,91843,0.02048034,-0.06143921 R,0,91843,92025,-0.06143921,6.069243E-07 F,0,119480,119843,1,0.02208008
Sprite,Foreground,Centre,"SB\mapper\Mion-Nya.png",320,240 S,0,120025,,0.6620798 R,0,120025,,0 M,0,120025,120207,142,70,142,90 F,0,120025,120207,0,1 F,0,120207,152025,1 F,0,152025,152207,1,0
Sprite,Foreground,Centre,"SB\mapper\Vicho-kun.png",320,240 M,0,152934,,155,412 S,0,152934,,0.6928 F,0,152934,153298,0,1 R,0,152934,153298,-0.06144043,-2.84672 R,0,153298,153662,-2.84672,-6.28736 F,0,153298,180934,1 F,0,180934,181656,1 F,0,181656,182019,1,0
Sprite,Foreground,Centre,"SB\mapper\Kotomi-chan.png",320,240 S,0,210207,,0.70304 M,0,210207,210389,180,450,174,440 F,0,210207,210389,0,1 M,0,210389,210571,174,440,168,430 F,0,210389,211991,1,0.97952 M,0,210571,210752,168,430,165,418 F,0,212065,212078,0.97952,0.9846401 F,0,212078,212093,0.9846401 F,0,212093,212108,0.9846401 F,0,212108,212122,0.9846401,0.9897602 F,0,212122,212137,0.9897602 F,0,212137,212152,0.9897602,0.9948799 F,0,212210,212225,0.9948799 F,0,212225,212239,0.9948799,1 F,0,212341,212355,1 F,0,212355,214935,1,0.9488 F,0,214935,214948,0.9488,0.9436798 F,0,215373,215387,0.9436798 F,0,215387,215401,0.9436798 F,0,215401,215415,0.9436798 F,0,215415,222569,0.9436798,0.9231998 F,0,222569,240025,0.9231998,1 F,0,240025,240207,1,0
Sprite,Foreground,Centre,"SB\mapper\bossandy.png",320,240 M,0,240207,,141,92 S,0,240207,,0.7132802 F,0,240207,240389,0,1 F,0,240389,240571,1,0.5904 F,0,240571,240752,0.5904,0 F,0,240752,240934,0,1 F,0,240934,270752,1 F,0,270752,271116,1,0
Sprite,Foreground,Centre,"SB\mapper\Lissette.png",320,240 M,0,271116,,143,418 S,0,271116,,0.6416 F,0,271116,271480,0,1 F,0,271480,271662,1,0.36 F,0,271662,271843,0.36,0 F,0,271843,272025,0,1 F,0,272025,301662,1 F,0,301662,301843,1,0
Sprite,Foreground,Centre,"SB\mapper\Beuchi-chan.png",320,240 S,0,181927,,0.7519999 R,0,181927,,-0.01600007 M,0,181927,182200,157,99,165,84 F,0,181927,182200,0,1 M,0,182200,182382,165,84,161,92 F,0,182200,202565,1 M,0,182382,182564,161,92,165,83 M,0,182564,182745,165,83,165,87 F,0,202565,202746,1,0
Sprite,Foreground,Centre,"SB\mapper\Beatmap.png",320,240 M,0,203110,,320,167 S,0,203110,,0.8479999 F,0,203110,203292,0,1 F,0,203292,205837,1 F,0,205837,206019,1,0
Sprite,Foreground,Centre,"SB\By.png",320,240 M,0,203292,,255,219 S,0,203292,,0.792 F,0,203292,203474,1 F,0,203474,205837,1 F,0,205837,206019,1,0
Sprite,Foreground,Centre,"SB\mapper\FPRC16.png",320,240 M,0,203474,,346,218 S,0,203474,,0.8239999 F,0,203474,203656,0,1 F,0,203656,205837,1 F,0,205837,206019,1,0
Sprite,Foreground,Centre,"SB\mapper\Storyboard.png",320,240 F,0,206019,206201,0,1 M,0,206022,,325,269 F,0,206201,208746,1 F,0,208746,208928,1,0
Sprite,Foreground,Centre,"SB\By.png",320,240 M,0,206200,,216,319 S,0,206201,,0.8 F,0,206201,206383,0,1 F,0,206383,208746,1 F,0,208746,208928,1,0
Sprite,Foreground,Centre,"SB\mapper\H-boy.png",320,240 M,0,206382,,356,317 S,0,206383,,0.8639999 F,0,206383,206565,0,1 F,0,206565,208746,1 F,0,208746,208928,1,0
Sprite,Foreground,Centre,"SB\mapper\H-boy.png",320,240 M,0,301655,,148,91 F,0,301655,301836,0,1 S,0,301655,302018,0.6479995,0.7439995 F,0,301836,335291,1 S,0,302018,302382,0.7439995,0.6399994 S,0,302382,302745,0.6399994,0.6799995 F,0,335291,335473,1,0
Sprite,Foreground,Centre,"SB\thx4playing.png",320,240 M,0,334745,,320,240 F,0,334745,334927,0,1 S,0,334745,336200,0.5679999,0.912 F,0,334927,336018,1 F,0,336018,336200,1,0
//Storyboard Sound Samples
//Background Colour Transformations
3,100,163,162,255

[TimingPoints]
9659,363.636363636364,4,1,0,30,1,0
10291,-100,4,1,0,40,0,0
11018,-100,4,1,0,50,0,0
11745,-100,4,1,0,79,0,0
12473,-100,4,1,0,70,0,0
17200,-100,4,1,0,60,0,0
17564,-100,4,1,0,80,0,0
17927,-100,4,1,0,60,0,0
18109,-100,4,1,0,70,0,0
29564,-100,4,2,0,5,0,0
29659,-100,4,1,1,75,0,0
29745,-100,4,2,0,70,0,0
35835,-200,4,2,0,70,0,0
41655,-100,4,1,1,75,0,0
47382,-200,4,1,1,75,0,0
53109,-100,4,1,0,80,0,0
55382,-100,4,1,0,5,0,0
55564,-100,4,1,1,75,0,0
67836,-100,4,1,1,75,0,1
85109,-200,4,1,1,70,0,1
85291,-200,4,1,1,70,0,0
95109,-90.9090909090909,4,1,1,70,0,0
96745,-90.9090909090909,4,1,1,35,0,0
98018,-90.9090909090909,4,1,1,45,0,0
98382,-90.9090909090909,4,1,1,55,0,0
101473,-83.3333333333333,4,1,1,65,0,0
102836,-83.3333333333333,4,1,1,70,0,0
106382,-83.3333333333333,4,1,1,60,0,0
106473,-83.3333333333333,4,1,1,70,0,0
108564,-133.333333333333,4,1,1,70,0,0
112564,-133.333333333333,4,1,1,30,0,0
114018,-133.333333333333,4,1,1,45,0,0
114382,-100,4,1,1,60,0,0
114473,-100,4,1,1,70,0,0
115836,-100,4,1,1,60,0,0
115927,-100,4,1,1,70,0,0
117291,-100,4,1,1,60,0,0
117382,-100,4,1,1,70,0,0
118745,-100,4,1,1,60,0,0
120109,-200,4,1,1,60,0,0
126018,-100,4,1,1,50,0,0
126836,-100,4,1,1,60,0,0
127745,-100,4,1,1,70,0,0
136931,-133.333333333333,4,1,1,70,0,0
137836,-100,4,1,1,40,0,0
138382,-100,4,1,1,50,0,0
138745,-100,4,1,1,60,0,0
140564,-100,4,1,1,80,0,1
158018,-200,4,1,1,90,0,0
163745,-100,4,1,1,40,0,0
164109,-100,4,1,1,50,0,0
164836,-100,4,1,1,60,0,0
165200,-100,4,1,1,70,0,0
165563,-100,4,1,1,80,0,0
165927,-100,4,1,1,90,0,0
175656,-100,4,2,0,90,0,0
181291,-100,4,1,0,80,0,0
187291,-100,4,2,0,90,0,0
189927,-100,4,1,0,90,0,0
190109,-100,4,2,0,90,0,0
192836,-100,4,1,0,90,0,0
193018,-100,4,2,0,90,0,0
194291,-100,4,1,0,90,0,0
194473,-100,4,2,0,90,0,0
198564,-100,4,2,0,70,0,0
202386,363.636363636364,4,1,0,70,1,0
210200,-100,4,1,1,90,0,0
211109,-100,4,1,1,65,0,0
212382,-100,4,1,1,70,0,0
225568,-100,4,1,1,70,0,0
226386,-100,4,1,1,80,0,0
227113,-100,4,1,1,90,0,0
227840,-100,4,1,1,100,0,0
228564,-200,4,2,0,90,0,0
239745,-200,4,1,0,30,0,0
240018,-200,4,1,0,50,0,0
245836,-200,4,2,0,80,0,0
248745,-200,4,1,0,50,0,0
251836,-100,4,1,0,50,0,0
271200,-100,4,1,1,45,0,0
275291,-100,4,1,1,50,0,0
281836,-100,4,1,1,55,0,0
284745,-100,4,1,1,60,0,0
286927,-100,4,1,1,65,0,0
291200,-100,4,1,1,70,0,0
293745,-100,4,1,1,75,0,0
298749,-100,4,1,1,60,0,1
314382,-100,4,2,1,85,0,0
315836,-100,4,1,1,60,0,1
328200,-100,4,1,1,60,0,0
328291,-100,4,1,1,5,0,0
332745,-100,4,1,1,5,0,0
335382,-100,4,2,1,40,0,0

[Colours]
Combo1 : 182,91,242
Combo2 : 155,210,255

[HitObjects]
256,192,9659,1,4
248,112,10386,1,0
264,272,11113,1,0
200,48,11840,1,0
312,336,12568,1,4
256,40,16931,5,0
256,344,17295,1,0
336,64,17659,1,0
176,320,18022,1,0
392,120,18386,5,4
120,264,18749,1,0
408,192,19113,1,0
104,192,19477,1,0
392,264,19840,5,0
120,120,20204,1,0
336,320,20568,1,0
176,64,20931,1,0
256,192,21295,5,4
256,192,21477,1,0
256,192,21659,1,0
256,192,21840,1,0
256,24,22204,5,0
256,104,22386,1,0
256,192,22568,1,0
256,360,22931,5,0
256,280,23113,1,0
256,192,23295,1,0
256,192,23659,5,0
256,192,24204,12,0,29659
120,56,30022,5,2
168,120,30204,1,0
216,56,30386,1,0
264,120,30568,1,0
312,56,30749,1,2
464,128,31113,2,0,B|464:56,2,70,0|0|2
344,248,31840,1,0
336,168,32022,2,0,B|312:128|240:128|216:168,1,140,0|2
56,232,32749,5,0
56,320,32931,1,2
56,320,33113,1,0
144,320,33295,1,0
128,152,33659,1,0
184,88,33840,1,0
272,88,34022,1,2
328,152,34204,1,0
232,296,34568,5,0
232,216,34749,2,0,B|232:146,1,70,0|2
96,64,35295,1,0
48,176,35840,6,0,B|48:246,1,70,0|2
256,72,36568,2,0,B|256:160,1,70,0|2
168,312,37295,2,0,B|168:232,1,70,0|2
344,168,38022,2,0,B|344:248,1,70,0|2
344,240,38749,2,0,B|344:272|376:272|376:312,2,70,0|2|0
344,240,39659,1,0
344,240,39840,1,2
256,192,40022,12,0,41295
112,64,41659,5,4
112,152,41840,1,0
184,112,42022,1,8
184,200,42204,1,0
352,200,42568,5,0
432,200,42749,2,0,B|432:182|432:130,1,70,8|0
360,80,43113,1,0
288,32,43295,1,0
216,80,43477,1,8
160,144,43658,2,0,B|112:208|152:280,1,140,0|8
304,200,44386,5,0
368,256,44568,1,0
432,200,44749,1,0
432,112,44931,2,0,B|432:24,2,70,8|0|0
344,112,45477,1,0
280,56,45658,1,8
216,112,45840,1,0
216,280,46204,2,0,B|216:184,2,70,0|8|0
384,280,46931,1,0
384,160,47477,6,0,B|384:90,1,70,0|8
312,80,48204,5,0
256,128,48386,1,0
200,176,48568,1,8
136,232,48931,6,0,B|72:200,1,70,0|8
96,120,49658,5,0
168,112,49840,1,0
200,176,50022,1,8
216,256,50386,6,0,B|288:256,1,70,0|8
368,256,51113,5,0
429,217,51295,1,0
424,144,51477,1,8
392,64,51840,6,0,B|322:64,1,70,0|8
240,80,52568,5,0
240,152,52749,1,0
240,224,52931,1,8
256,192,53295,12,0,55477
192,112,55840,6,0,B|128:64|64:112,2,140,0|4|0
200,280,56931,2,0,B|264:336|328:280,2,140,8|0|0
256,120,58022,1,0
88,120,58386,1,8
88,208,58568,1,0
88,296,58749,1,0
256,288,59113,6,0,B|256:200,2,70,0|0|0
256,120,59840,1,8
256,120,60204,2,0,B|320:144|336:80|416:128,2,140,0|8|0
88,120,61295,1,8
88,120,61658,2,0,B|88:288,1,140,0|4
256,192,62113,12,0,63477
256,192,64204,5,0
40,48,64931,5,0
128,48,65113,1,0
216,48,65295,2,0,B|296:48,1,70
248,128,65658,1,0
160,128,65840,1,0
72,128,66022,2,0,B|72:208,1,70
72,280,66386,5,0
232,320,66749,2,0,B|136:320,1,70
320,320,67295,1,0
472,192,67658,1,0
472,192,67840,6,0,B|472:96|360:88,1,140,4|8
224,96,68568,1,0
304,128,68749,1,0
360,192,68931,1,8
192,192,69295,1,0
104,192,69477,2,0,B|72:272,1,70,0|8
176,312,69840,2,0,B|264:312|264:208,1,140,0|8
464,304,70568,5,0
464,304,70749,1,0
408,144,71113,1,8
272,48,71477,1,0
208,104,71658,1,0
144,48,71840,1,8
40,176,72204,6,0,B|120:176,1,70
192,176,72568,1,8
240,248,72749,2,0,B|328:248,1,70
392,248,73113,1,8
392,248,73295,1,8
472,96,73658,6,0,B|400:40|400:152|320:72,2,140,0|8|0
472,184,74568,1,0
472,264,74749,1,8
320,192,75113,2,0,B|168:192,1,140,0|8
40,104,75840,5,0
40,272,76204,1,8
40,104,76568,2,0,B|112:64|176:104,1,140,0|8
240,152,77113,1,0
312,200,77295,2,0,B|384:240|448:200,1,140,0|8
472,304,77840,5,0
472,304,78022,1,0
304,304,78386,1,8
216,304,78568,1,0
304,304,78749,1,0
256,144,79113,1,8
256,56,79295,1,0
256,56,79477,6,0,B|192:16|120:56,1,140,4|8
40,240,80204,1,0
128,240,80386,1,0
216,240,80568,1,8
368,320,80931,1,0
456,320,81113,2,0,B|488:248,1,70,0|8
400,240,81477,1,0
317,229,81658,2,0,B|328:152|416:152,1,140,0|8
280,48,82386,5,0
232,208,82749,1,8
176,48,83113,1,0
200,128,83295,1,0
232,208,83477,2,0,B|256:272,2,70,8|0|0
144,208,84022,1,0
232,208,84204,1,8
320,208,84386,2,0,B|432:120,1,140,0|8
430,121,84931,1,8
430,121,85113,1,0
450,247,85295,6,0,B|408:320|336:320,1,140,4|8
256,320,86386,1,0
176,320,86749,2,0,B|104:320|56:240,1,140,0|8
40,168,87840,1,0
40,128,88022,1,0
40,88,88204,2,0,B|104:48|176:88,1,140,0|8
256,120,89295,1,0
328,160,89658,2,0,B|392:200|464:160,1,140,0|8
464,80,90749,2,0,B|464:32,2,35,0|0|4
256,192,91295,12,0,94022
64,88,95113,6,0,B|144:120|232:56,1,153.999995410442
448,296,95840,1,0
448,296,96022,2,0,B|368:264|280:328,1,153.999995410442
256,192,96749,12,0,98022
208,336,98386,6,0,B|112:342|67:273,1,153.999995410442,0|8
248,144,98931,2,0,B|341:120|397:180,1,153.999995410442
408,264,99477,1,8
408,264,99840,1,0
71,280,100204,2,0,B|128:216|96:128,1,153.999995410442,8|0
98,136,100931,1,8
98,136,101113,1,0
280,40,101477,6,0,B|300:81|379:94,1,84.0000020027161,0|8
440,40,101840,2,0,B|480:88|448:136,1,84.0000020027161
376,184,102204,2,0,B|328:184|288:216,1,84.0000020027161,0|8
352,296,102568,1,0
184,264,102749,6,0,B|144:344|32:328,1,168.000004005432,4|8
8,232,103295,1,0
64,144,103477,2,0,B|104:176|160:168,1,84.0000020027161
240,208,103840,2,0,B|280:176|272:112,1,84.0000020027161,8|0
216,48,104204,2,0,B|272:128|384:104,1,168.000004005432,0|8
448,160,104749,1,0
448,160,104931,2,0,B|432:256|432:256,1,84.0000020027161
136,80,105477,6,0,B|136:136|96:176,1,84.0000020027161
24,208,105840,1,0
48,304,106022,1,8
152,304,106204,1,0
208,224,106386,6,0,B|304:216|360:288,1,168.000004005432,0|8
456,280,106931,1,0
464,176,107113,2,0,B|280:136,1,168.000004005432,0|8
200,128,107658,2,0,B|168:208|56:200,1,168.000004005432,0|8
472,320,108568,6,0,B|368:328|360:224,1,157.499995306134,4|0
288,256,109295,2,0,B|128:288,1,157.499995306134,0|0
64,240,110022,2,0,B|32:288|72:360,2,104.999996870756,4|8|0
408,120,111295,1,0
408,120,111477,2,0,B|440:56|400:0,2,104.999996870756,4|8|0
256,192,112568,12,0,114022
64,312,114386,6,0,B|136:272|224:288,1,140,4|8
264,336,114931,1,0
344,360,115113,1,0
400,296,115295,1,0
344,232,115477,2,0,B|304:224|248:240,1,70,8|0
200,200,115840,2,0,B|216:128|200:32,1,140,4|8
120,40,116386,1,0
56,96,116568,1,0
80,176,116749,1,0
456,96,117113,5,0
384,56,117295,2,0,B|360:80|336:128,1,70,4|0
320,192,117658,2,0,B|368:208|400:240,1,70,8|0
400,304,118022,1,0
328,352,118204,1,0
280,280,118386,2,0,B|232:296|200:328,1,70,8|0
144,360,118749,2,0,B|64:352|32:280,1,140,4|8
120,256,119295,1,0
48,192,119477,1,0
34,284,119658,1,0
80,56,120204,6,0,B|40:88|80:120|88:152|96:184|64:184,1,140,4|0
176,56,121658,6,0,B|136:88|176:120|184:152|192:184|160:184,1,140,0|0
272,56,123113,6,0,B|232:88|272:120|280:152|288:184|256:184,1,140,4|0
376,56,124568,6,0,B|336:88|376:120|384:152|392:184|360:184,2,140
424,56,126204,5,0
440,104,126386,1,8
448,152,126568,1,0
440,200,126749,1,0
416,240,126931,1,0
376,272,127113,1,8
328,296,127295,1,0
280,304,127477,5,0
232,304,127658,1,0
184,288,127840,1,8
144,264,128022,1,0
120,224,128204,1,4
120,56,128568,1,0
288,56,128931,6,0,B|352:8|416:56,2,140,4|0|0
112,160,130022,2,0,B|168:224|232:160,2,140,0|4|0
232,48,131113,1,0
368,144,131477,1,0
232,248,131840,6,0,B|176:312|112:248,2,140
368,144,132931,2,0,B|368:72|272:32|168:72|168:144,1,280
48,264,134022,1,0
256,192,134749,5,4
256,192,134840,12,4,136204
144,104,136931,6,0,B|368:104,1,210.000008010865
400,176,137840,5,0
400,256,138022,2,0,B|448:320|456:344,2,70
312,256,138568,2,0,B|256:320,1,70
184,304,138931,1,0
104,304,139113,2,0,B|32:272|32:168,1,140,4|0
40,104,139658,2,0,B|100:63|184:104,2,140,4|0|0
40,192,140568,6,0,B|216:192,1,140,4|8
352,192,141295,1,0
440,192,141477,1,0
440,104,141658,2,0,B|384:48|312:104,2,140,8|0|8
376,160,142568,2,0,B|320:216|248:160,1,140
131,42,143295,6,0,B|59:42,2,70,0|0|0
168,120,143840,2,0,B|256:120,2,70,8|0|0
128,192,144386,2,0,B|56:192,2,70,0|8|0
176,264,144931,2,0,B|240:312|304:264,1,140,0|8
368,208,145477,1,0
176,144,145840,2,0,B|240:96|304:144,1,140
384,176,146386,5,8
392,264,146568,1,0
392,264,146749,1,8
328,320,146931,1,0
328,320,147113,1,0
240,320,147295,1,0
240,320,147477,1,8
120,176,147840,5,0
120,176,148022,1,0
176,112,148204,1,8
176,112,148386,1,0
264,112,148568,5,12
408,192,148931,1,12
240,192,149295,2,0,B|240:288|24:288|24:184,1,280
136,144,150386,1,0
136,56,150568,1,8
224,136,150749,2,0,B|224:72|304:32|304:32|392:72|392:152,1,280,0|8
256,192,151840,12,4,152931
64,176,153295,5,8
64,176,153477,1,0
144,144,153658,2,0,B|144:224|232:264,1,140,0|8
272,192,154204,1,0
384,64,154568,1,0
384,64,154749,1,8
384,64,154931,1,0
416,144,155113,2,0,B|464:216,2,70,0|0|8
416,144,155658,1,0
256,192,156022,5,0
256,192,156204,1,8
144,320,156568,2,0,B|72:272|72:176,1,140,0|8
96,128,157113,1,0
176,112,157295,2,0,B|192:72|256:72,2,70,0|0|8
232,176,157840,1,0
232,176,158022,1,4
256,320,158749,5,8
344,320,159113,2,0,B|392:232,1,70
464,240,159840,1,0
464,152,160204,1,8
392,104,160568,1,0
392,104,160749,1,4
296,184,161295,5,0
296,184,161658,1,8
240,248,162022,2,0,B|288:320,2,70
160,224,163113,1,8
160,224,163477,1,0
168,56,163840,6,0,B|256:56,1,70,2|0
232,144,164204,2,0,B|328:144,1,70,8|0
304,232,164568,2,0,B|392:232,1,70,2|0
320,320,164931,2,0,B|224:320,1,70,8|0
168,304,165295,5,2
168,304,165477,1,0
56,240,165658,1,8
56,240,165840,1,0
56,112,166022,1,2
56,112,166204,1,0
168,56,166386,1,8
168,56,166568,1,0
280,112,166749,6,0,B|344:160|312:264,1,140,2|8
240,200,167295,2,0,B|219:286|285:335,1,140,2|0
360,328,167840,1,8
464,192,168204,5,2
368,56,168568,1,8
368,56,168749,1,0
272,192,169113,1,2
256,192,169477,12,4,172204
88,176,172568,6,0,B|128:112|232:128,1,140,2|0
232,208,173113,2,0,B|320:224|360:144,1,140,2|0
424,112,173658,1,2
424,280,174022,1,0
424,280,174204,1,2
176,328,174749,2,0,B|96:304|88:216,1,140,2|2
256,192,175477,1,4
384,328,175840,5,2
384,328,176022,1,0
456,248,176204,1,0
456,248,176386,1,0
456,144,176568,1,2
456,144,176749,1,0
384,72,176931,1,0
384,72,177113,1,0
312,144,177295,1,2
312,144,177477,1,0
312,248,177658,1,0
312,248,178022,1,2
128,328,178749,5,2
128,328,178931,1,0
56,248,179113,1,0
56,248,179295,1,0
56,144,179477,1,2
56,144,179658,1,0
128,72,179840,1,0
128,72,180022,1,0
200,144,180204,1,2
200,144,180386,1,0
200,248,180568,1,0
200,248,180749,1,0
200,248,180931,5,2
256,328,181113,1,0
312,248,181295,2,0,B|408:256|400:144,1,140,4|0
472,136,181840,1,0
448,56,182022,1,0
256,72,182386,5,0
96,56,182749,2,0,B|24:88|24:168,1,140
80,328,183477,2,0,B|146:370|213:327,1,140
256,256,184022,1,0
300,328,184204,2,0,B|365:370|431:327,1,140
487,166,184931,2,0,B|487:87|415:55,1,140
352,104,185477,5,0
296,40,185658,1,0
216,40,185840,1,0
160,104,186022,1,0
128,272,186386,5,0
176,344,186568,1,0
256,360,186749,1,0
336,344,186931,1,0
384,272,187113,1,4
296,136,187477,5,0
256,64,187658,1,0
216,136,187840,1,2
256,208,188022,2,0,B|255:293|255:293,2,70,0|0|0
168,200,188568,5,4
344,200,188931,1,0
200,280,189295,1,2
256,344,189477,1,0
312,280,189658,1,0
256,152,190022,1,0
120,251,190386,6,0,B|53:188|124:123|124:123,1,140,0|2
256,248,191113,2,0,B|256:320|256:320,2,70,0|0|4
256,163,191658,1,0
256,79,191840,1,0
256,79,192022,1,2
392,133,192386,1,0
392,133,192568,2,0,B|459:196|388:261|388:261,1,140
119,256,193295,5,0
256,336,193658,1,2
392,256,194022,1,0
256,192,194386,5,0
392,127,194749,5,0
256,48,195113,1,2
119,127,195477,1,0
304,192,195840,6,0,B|376:192|376:96|392:88|464:88|480:96|528:160|544:272|480:328|400:296|400:296,1,420,4|0
208,192,197295,2,0,B|136:192|136:288|120:296|48:296|32:288|-16:224|-32:112|32:56|112:88|112:88,1,420,4|0
256,120,198749,6,0,B|256:40|256:40,1,70,4|0
306,141,199113,2,0,B|363:84|363:84,1,70
328,192,199477,2,0,B|408:192|408:192,2,70,2|0|0
184,192,200204,6,0,B|104:192|104:192,1,70,4|0
205,242,200568,2,0,B|148:299|148:299,1,70
256,264,200931,2,0,B|256:344|256:344,2,70,2|0|0
256,192,201477,5,0
213,119,201658,1,2
296,119,201840,1,0
256,48,202022,2,0,B|256:16|256:16,8,17.5,0|0|0|0|0|0|0|4|0
184,96,210385,6,0,B|128:96|104:160,2,105
280,88,211113,6,0,B|340:88|340:32|404:32,1,140,8|8
400,128,211658,2,0,B|400:200,2,70,0|4|0
328,238,212204,2,0,B|328:168,1,70,0|0
256,320,212567,5,4
256,320,212749,1,0
256,64,213295,5,4
256,64,213476,1,0
80,240,214022,6,0,B|80:136,1,70
160,184,214385,2,0,B|160:104,1,70,8|0
240,72,214749,2,0,B|240:160,1,70
240,224,215113,5,8
400,224,215295,1,0
320,224,215476,6,0,B|320:296,1,70
240,296,215840,2,0,B|240:208,1,70,8|0
152,224,216204,2,0,B|152:320,1,70
64,296,216567,5,8
64,192,216749,1,0
128,112,216931,1,0
232,88,217113,1,0
336,96,217295,1,8
432,136,217476,1,0
328,240,217840,5,0
240,240,218022,1,8
88,176,218385,1,0
176,176,218567,1,0
248,320,218931,1,0
160,320,219113,1,8
328,320,219476,1,0
416,320,219658,1,0
416,320,219840,5,4
416,152,220204,1,0
416,64,220385,1,4
168,64,220931,5,0
168,344,221295,1,0
168,168,221658,5,0
168,248,221840,1,0
336,248,222204,1,0
336,168,222385,1,0
168,168,222749,1,4
40,64,223113,5,0
104,120,223295,1,0
232,224,223658,1,0
296,280,223840,1,0
408,224,224204,5,0
352,160,224385,1,0
232,224,224749,1,0
296,280,224931,1,0
168,168,225295,1,4
56,40,225658,6,0,B|56:144,1,70,0|0
56,192,226022,2,8,B|56:288,1,70,8|0
136,224,226385,2,0,B|136:304,1,70
216,256,226749,2,0,B|216:344,1,70,8|0
296,288,227113,2,0,B|296:376,2,70,0|0|8
312,200,227658,1,0
336,120,227840,2,0,B|336:48,2,70,0|0|8
312,200,228385,1,0
208,200,228567,6,0,B|168:200|168:224|128:224,1,70,6|0
56,224,229295,1,2
56,136,229658,1,0
56,136,229840,2,0,B|112:136|112:56,1,105,2|0
200,64,230749,1,2
288,64,231113,1,0
376,64,231476,6,0,B|376:96|408:96|408:136,1,70,2|0
408,208,232204,1,2
408,248,232385,1,0
408,288,232567,1,0
408,328,232749,2,0,B|296:328,1,105,2|0
304,328,233658,5,2
144,328,234022,1,2
56,336,234385,6,0,B|56:296|88:280|88:256,1,70,4|0
112,240,234931,1,0
136,208,235113,2,0,B|152:168|120:128,1,70,2|0
104,104,235658,2,0,B|128:64|160:80|184:32,1,105,0|0
264,40,236567,1,2
264,120,236931,1,0
264,200,237295,6,0,B|264:232|296:232|296:272,1,70,2|0
376,264,238022,1,2
408,288,238204,1,0
376,320,238385,1,2
336,328,238567,2,0,B|304:328|304:304|232:304,1,105,0|2
152,304,239476,5,2
112,304,239658,1,0
72,304,239840,1,0
72,304,240204,5,4
72,232,240567,2,0,B|64:208|64:184|72:160,1,70,0|8
136,120,241295,1,0
168,96,241476,2,0,B|168:56,1,35
208,64,241840,2,0,B|232:40,1,35,8|0
264,64,242204,1,0
304,64,242385,1,8
304,144,242749,1,0
376,176,243113,6,0,B|400:144|376:112,2,70,0|0|8
376,256,244204,1,0
344,272,244385,1,0
304,256,244567,2,0,B|256:256,1,35,0|8
176,312,245113,2,0,B|224:312,1,35,0|8
112,264,245658,1,0
56,208,246022,6,0,B|56:136,1,70
128,112,246749,2,0,B|128:184,1,70,2|0
200,160,247476,2,0,B|200:88,1,70
272,64,248204,2,0,B|272:136,1,70,2|0
256,192,248931,12,4,251113
408,80,251840,6,0,B|376:44|348:44|320:44|288:80,1,140,4|0
104,304,252567,2,0,B|136:340|164:340|192:340|224:304,1,140,0|8
256,232,253113,1,0
316,184,253295,2,0,B|284:148|256:148|228:148|196:184,1,140,0|0
120,184,253840,2,0,B|120:44,2,140,0|0|8
44,184,254749,1,4
148,300,255113,6,0,B|216:300,1,70
296,300,255476,2,0,B|364:300,2,70
404,192,256204,2,0,B|328:172|312:96,1,140
108,192,256749,2,0,B|184:172|200:96,2,140,0|0|8
44,148,257658,1,0
168,56,258022,5,8
204,124,258204,1,0
256,68,258385,1,0
308,124,258567,1,0
344,56,258749,1,8
344,328,259113,5,0
308,260,259295,1,0
256,316,259476,1,8
204,260,259658,1,0
168,328,259840,1,0
92,192,260204,1,8
120,120,260385,1,0
196,112,260567,6,0,B|228:148|256:148|284:148|316:112,3,140,0|8|0|8
372,60,261840,1,0
432,108,262022,2,0,B|496:156|500:236|428:304|340:260,1,280
256,132,263113,1,8
256,132,263295,1,0
204,76,263476,6,0,B|64:76,1,140,4|8
308,308,264204,2,0,B|448:308,1,140,0|8
140,244,264931,2,0,B|140:384,1,140,0|8
372,140,265658,2,0,B|372:0,1,140,0|8
256,104,266385,5,0
344,192,266749,1,8
256,280,267113,1,0
168,192,267476,1,8
192,40,267840,6,0,B|256:80|324:40,1,140,0|8
396,72,268386,2,0,B|436:136|396:204,1,140,0|8
256,268,269113,1,8
180,268,269295,6,0,B|40:268,1,140,0|8
52,192,269840,1,0
40,116,270022,2,0,B|112:128|176:84,1,140,0|8
338,85,270749,1,0
256,216,271113,1,8
192,72,271476,6,0,B|256:16|320:72,1,140,0|8
256,192,272022,1,0
320,304,272204,2,0,B|256:362|192:306,1,140,0|8
256,192,272749,1,0
192,72,272931,2,0,B|256:16|320:72,1,140,0|8
392,184,273476,5,0
392,184,273658,2,0,B|272:224|232:128|96:200,2,280,0|0|4
392,184,275476,5,8
400,104,275658,1,8
328,56,275840,1,12
248,352,276204,6,0,B|168:336|168:232,1,140,8|0
168,250,276749,1,0
80,80,276931,6,0,B|160:80|160:192,1,140,8|0
160,176,277476,1,0
368,200,277658,2,4,B|228:200,1,140,8|4
304,48,278386,5,8
168,80,278567,1,8
128,216,278749,1,12
436,275,279113,6,0,B|400:336,1,70,8|0
399,200,279476,2,0,B|438:141,1,70
320,208,279840,2,0,B|272:280,1,70,8|0
296,136,280204,2,0,B|352:56,1,70
256,40,280567,2,0,B|192:0|120:48,1,140,8|4
168,280,281295,5,8
40,256,281476,1,8
168,280,281658,1,12
288,40,282022,6,0,B|384:40,1,70,8|0
320,120,282386,2,0,B|224:120,1,70
288,200,282749,2,0,B|376:200,1,70,8|0
232,280,283113,2,0,B|160:312|88:272,2,140,0|8|4
256,32,284204,5,8
416,32,284386,1,8
336,144,284567,1,12
56,240,284931,6,0,B|112:216|152:280|216:240,2,140,8|0|8
456,240,286022,2,0,B|400:216|360:280|296:240,2,140,0|8|4
256,40,287113,5,8
176,64,287295,1,0
112,112,287476,1,12
192,152,287658,5,0
160,232,287840,1,8
160,320,288022,1,0
240,240,288204,5,8
280,312,288386,1,0
360,344,288567,1,8
472,304,288749,6,0,B|472:208,1,70,0|8
448,80,289113,2,0,B|448:176,1,70,0|8
392,272,289476,2,0,B|392:192,1,70,0|8
368,40,289840,6,0,B|368:136,1,70,0|8
312,232,290204,2,0,B|312:152,1,70,0|8
288,0,290567,2,0,B|288:96,1,70,0|8
216,112,290931,5,0
216,112,291113,1,8
168,184,291295,1,0
168,184,291476,1,8
224,248,291658,1,0
224,248,291840,1,8
168,312,292022,1,0
168,312,292204,1,8
224,376,292386,1,0
224,376,292567,6,0,B|312:376|360:288,1,140
344,232,293113,1,8
416,192,293295,2,0,B|456:124|400:62,1,140,0|8
328,96,293840,6,0,B|312:16,1,70,0|8
240,160,294204,2,0,B|224:240,1,70,0|8
152,96,294567,2,0,B|136:16,1,70,0|8
64,160,294931,2,0,B|48:240,1,70,0|8
136,320,295295,5,0
152,320,295386,1,0
168,320,295476,1,0
184,320,295567,1,0
200,320,295658,1,0
280,288,295840,1,0
352,248,296022,1,0
368,248,296113,1,0
384,248,296204,6,0,B|432:184|376:112,1,140,0|8
256,184,296749,1,0
128,120,296931,2,0,B|77:185|125:249,1,140,0|8
152,248,297386,5,0
184,248,297476,1,0
216,248,297567,1,0
248,248,297658,1,0
280,248,297749,1,0
312,248,297840,1,0
344,248,297931,1,0
376,248,298022,2,0,B|423:184|372:119,1,140,8|4
96,72,298749,5,8
40,192,298931,1,8
96,312,299113,1,8
264,40,299476,6,0,B|336:0,1,70,8|0
336,96,299840,2,0,B|424:80,1,70
368,192,300204,2,0,B|472:192,1,70,8|0
336,288,300567,2,0,B|408:304,1,70
264,343,300931,2,0,B|325:377,1,70,8|0
176,344,301295,6,0,B|88:312|104:208,1,140,0|8
96,144,301840,1,0
168,80,302022,5,4
248,48,302204,1,0
328,16,302386,2,0,B|368:56|368:120|328:168|328:168,1,140,8|0
392,216,302931,1,0
312,248,303113,2,0,B|304:344|200:336|200:336,1,140,8|0
144,304,303658,2,8,B|104:344|104:344|96:344,2,35
80,248,304022,2,0,B|24:160|128:112|128:112,1,140
160,64,304567,6,0,B|232:32|232:32,1,70,8|0
176,104,304931,2,8,B|280:88|280:88,1,70,8|0
184,152,305295,2,0,B|264:152|264:152,1,70,8|0
336,152,305658,6,0,B|424:160|432:248|432:248,1,140,4|8
280,304,306386,2,0,B|201:367|137:327|137:327,1,140,0|8
149,332,306931,2,0,B|165:236|85:196|85:196,1,140
102,207,307476,2,0,B|37:164|77:76|77:76,1,140,8|0
216,168,308204,6,0,B|304:160|312:72|312:72,1,140,8|0
310,79,308749,2,2,B|390:17|454:57|454:57,1,140
312,160,309476,1,2
392,192,309658,1,8
320,240,309840,2,0,B|386:284|346:372|346:372,1,140
272,336,310386,5,8
200,296,310567,1,0
192,216,310749,1,8
272,248,310931,1,8
344,208,311113,5,0
312,128,311295,1,0
392,144,311476,1,8
424,224,311658,1,0
432,304,311840,5,8
344,304,312022,1,0
384,232,312204,1,8
296,232,312386,1,8
240,168,312567,5,0
200,96,312749,1,0
120,120,312931,1,8
160,192,313113,1,0
200,264,313295,6,4,B|40:264|40:264,1,140,0|0
104,104,314022,5,0
256,32,314386,1,0
216,192,314749,1,0
368,120,315113,1,0
456,120,315295,2,0,B|512:160|512:160,2,70,0|0|0
368,120,315840,6,2,B|296:64|296:64,1,70,4|2
312,77,316204,2,0,B|208:77|208:77,1,70
242,77,316567,2,2,B|146:77|146:77,1,70
172,77,316931,2,8,B|100:141|100:141,1,70
120,208,317295,6,2,B|192:264|192:264,1,70
175,250,317658,2,0,B|279:250|279:250,1,70
245,250,318022,2,2,B|341:250|341:250,1,70
315,250,318386,2,8,B|387:186|387:186,1,70
448,200,318749,6,0,B|408:112|408:112|368:80|368:80,1,140,0|8
312,32,319295,1,0
232,64,319476,2,0,B|144:104|144:104|112:144|112:144,1,140,0|8
184,184,320022,1,0
104,208,320204,2,0,B|152:304|152:304|248:368|248:368,1,210,8|0
88,168,321295,2,0,B|176:128|176:128|208:88|208:88,1,140,8|8
368,104,322022,5,0
248,224,322386,2,0,B|152:248|152:248|120:280|120:280,1,140,8|0
280,224,323113,2,0,B|328:120|328:120|424:64|424:64,1,210
280,280,324204,2,8,B|192:320|192:320|160:360|160:360,1,140
88,200,324931,5,0
88,112,325113,1,0
160,160,325295,1,8
216,104,325476,2,8,B|256:96|304:104|304:104,1,70,0|8
368,104,325840,5,0
456,104,326022,1,0
416,176,326204,1,8
368,248,326386,2,8,B|384:288|368:328|368:328,1,70,8|0
288,312,326749,5,8
288,224,326931,1,8
200,224,327113,1,8
200,312,327295,1,8
240,152,328204,5,4
256,192,328295,12,4,335476
