osu file format v9

[General]
AudioFilename: supercell feat. Hatsune Miku - Hinekure Mono.mp3
AudioLeadIn: 0
PreviewTime: 115511
Countdown: 0
SampleSet: Soft
StackLeniency: 0.3
Mode: 0
LetterboxInBreaks: 0

[Editor]
DistanceSpacing: 1
BeatDivisor: 4
GridSize: 8

[Metadata]
Title:Hinekure Mono
Artist:supercell feat. Hatsune Miku
Creator:kanpakyin
Version:Normal
Source:ryo
Tags:vocaloid vocaloid2 The Rebel Purinko project diva

[Difficulty]
HPDrainRate:4
CircleSize:4
OverallDifficulty:4
ApproachRate:5
SliderMultiplier:1.6
SliderTickRate:1

[Events]
//Background and Video events
0,0,"BG.jpg"
//Break Periods
2,102847,114733
//Storyboard Layer 0 (Background)
//Storyboard Layer 1 (Fail)
//Storyboard Layer 2 (Pass)
//Storyboard Layer 3 (Foreground)
//Storyboard Sound Samples
//Background Colour Transformations
3,100,163,162,255

[TimingPoints]
3219,857.142857142857,4,2,1,40,1,0
29790,-100,4,1,1,40,0,0
30861,-100,4,2,1,40,0,0
32147,-100,4,2,2,40,0,0
32576,-100,4,2,1,40,0,0
34076,-100,4,2,2,40,0,0
34718,-100,4,2,1,40,0,0
35790,-100,4,2,2,40,0,0
36433,-100,4,2,1,40,0,0
37504,-100,4,2,2,40,0,0
37718,-100,4,2,1,40,0,0
42433,-100,4,2,2,40,0,0
42861,-100,4,1,1,40,0,0
44576,-100,4,2,1,40,0,0
46076,-100,4,2,2,40,0,0
46718,-100,4,2,1,40,0,0
49504,-100,4,2,2,40,0,0
50147,-100,4,2,1,40,0,0
51218,-100,4,1,1,30,0,0
51433,-100,4,2,1,40,0,0
52933,-100,4,2,2,40,0,0
53576,-100,4,2,1,40,0,0
54433,-100,4,2,2,40,0,0
54861,-100,4,2,1,40,0,0
56361,-100,4,2,2,40,0,0
57004,-100,4,2,1,40,0,0
58076,-100,4,2,2,40,0,0
58290,-100,4,2,1,40,0,0
59790,-100,4,2,2,40,0,0
60433,-100,4,2,1,40,0,0
63004,-100,4,2,2,40,0,0
63433,-100,4,2,1,40,0,0
64933,-100,4,2,2,40,0,0
65147,-100,4,2,1,40,0,0
65790,-100,4,1,1,40,0,0
66004,-100,4,2,1,40,0,0
66433,-100,4,2,2,40,0,0
67290,-100,4,1,1,40,0,0
71790,-100,4,1,1,40,0,1
72004,-100,4,2,1,50,0,1
72433,-100,4,1,1,50,0,1
72861,-100,4,2,1,50,0,1
73504,-100,4,2,2,50,0,1
73933,-100,4,1,1,50,0,1
74576,-100,4,2,2,50,0,1
75433,-100,4,2,1,50,0,1
76933,-100,4,2,2,50,0,1
77790,-100,4,1,1,50,0,1
78004,-100,4,2,1,50,0,1
79290,-100,4,1,1,50,0,1
79718,-100,4,2,1,50,0,1
80147,-100,4,2,2,50,0,1
80576,-100,4,2,1,50,0,1
82718,-100,4,1,1,50,0,1
83147,-100,4,2,1,50,0,1
83790,-100,4,2,2,50,0,1
84647,-100,4,1,1,50,0,1
84861,-100,4,2,1,50,0,1
85290,-100,4,1,1,30,0,1
86147,-100,4,1,1,50,0,1
86576,-100,4,2,1,50,0,1
87004,-100,4,2,2,50,0,1
87861,-100,4,1,1,50,0,1
88290,-100,4,2,1,50,0,1
88718,-100,4,2,2,50,0,1
89147,-100,4,2,1,50,0,1
89576,-100,4,1,1,50,0,1
90004,-100,4,2,2,50,0,1
91290,-100,4,1,1,50,0,1
91718,-100,4,2,1,50,0,1
93004,-100,4,1,1,50,0,1
93433,-100,4,2,1,50,0,1
94076,-100,4,2,2,50,0,1
94718,-100,4,1,1,50,0,1
95147,-100,4,2,1,50,0,1
95790,-100,4,2,2,50,0,1
96433,-100,4,1,1,50,0,1
96861,-100,4,2,1,50,0,1
97504,-100,4,2,2,50,0,1
98147,-100,4,1,1,50,0,1
98576,-100,4,2,1,50,0,1
99861,-100,4,1,1,50,0,1
100290,-100,4,2,1,50,0,1
100933,-100,4,2,2,50,0,1
101576,-100,4,1,1,50,0,1
102647,-100,4,1,1,40,0,0
115933,-100,4,2,1,40,0,0
117004,-100,4,1,1,40,0,0
117433,-100,4,2,1,40,0,0
118076,-100,4,2,2,40,0,0
118718,-100,4,1,1,40,0,0
119147,-100,4,2,1,40,0,0
120647,-100,4,1,1,40,0,0
120861,-100,4,2,1,40,0,0
121504,-100,4,2,2,40,0,0
122147,-100,4,1,1,40,0,0
122576,-100,4,2,1,40,0,0
123218,-100,4,1,1,40,0,0
123433,-100,4,2,1,40,0,0
128147,-100,4,1,1,40,0,0
128576,-100,4,2,1,40,0,0
129861,-100,4,1,1,40,0,0
130290,-100,4,2,1,40,0,0
131576,-100,4,2,2,40,0,0
132433,-100,4,2,1,40,0,0
133504,-100,4,2,2,40,0,0
134147,-100,4,2,1,40,0,0
135218,-100,4,2,2,40,0,0
135861,-100,4,2,1,40,0,0
138647,-100,4,2,2,40,0,0
139290,-100,4,2,1,40,0,0
144935,857.142857142857,4,2,1,5,1,0

[Colours]
Combo1 : 241,251,57
Combo2 : 255,119,255
SliderBorder : 255,255,255

[HitObjects]
136,148,3219,1,0
136,148,4076,1,0
207,183,4504,2,0,B|300:181|275:201|401:207,1,160,2|2
443,189,5790,1,0
387,339,6647,5,0
317,299,7076,2,0,B|275:300|275:300|237:289,1,80,2|0
160,271,7933,1,2
256,192,8147,12,2,10076
113,116,10933,5,0
161,268,11790,1,2
316,228,12647,1,2
284,71,13504,2,0,B|323:83|330:112|330:112|337:84|375:72,2,120,2|0|2
256,192,15004,12,0,16933
191,132,17790,5,2
147,198,18218,2,0,B|102:174,2,40,0|0|2
194,308,19290,5,0
194,308,19504,2,0,B|273:302,1,80,2|0
312,313,20147,1,0
384,280,20576,2,0,B|409:319,1,40
480,336,21218,1,2
411,188,22076,6,0,B|357:182|342:142,1,80,2|0
412,105,22933,2,0,B|376:80|386:27,1,80
464,37,23790,2,0,B|282:35,1,160,2|0
204,102,25290,6,0,B|174:140,1,40,0|2
234,194,25933,2,0,B|205:232,1,40,0|2
255,291,26576,2,0,B|230:322,3,40,0|2|0|4
149,322,27647,2,0,B|105:304|50:330,2,80,0|2|0
133,243,28933,1,2
99,86,29790,5,0
173,57,30218,1,0
247,86,30647,1,4
319,119,31076,2,0,B|364:140|409:117,1,80,2|8
461,75,31933,1,2
467,154,32361,6,0,B|471:246|433:233|433:308,1,160,2|8
359,339,33647,1,2
359,339,33861,1,0
359,339,34076,2,0,B|358:254,1,80,2|2
278,252,34933,2,0,B|279:154,2,80,8|2|2
222,309,36219,6,0,B|191:341|148:348,1,80,2|8
135,268,37076,1,2
135,268,37504,2,0,B|81:281|15:208|48:132,1,160,2|8
95,108,38790,5,2
119,76,39004,1,0
197,91,39433,1,0
220,58,39647,1,2
296,82,40076,2,0,B|343:7,2,80,8|2|4
415,188,41790,5,8
301,301,42647,1,2
224,275,43076,1,0
150,306,43504,2,0,B|175:339,4,40,0|0|0|0|4
71,321,44790,5,2
71,321,45004,1,2
71,321,45219,2,0,B|76:230,1,80,8|0
142,197,46076,1,2
215,166,46504,2,0,B|221:83,2,80,2|8|2
236,199,47576,1,0
268,221,47790,6,0,B|307:242|366:221,1,80,4|2
375,254,48433,2,0,B|417:249,1,40,0|8
420,329,49076,1,2
420,329,49290,1,0
420,329,49504,2,0,B|503:316,2,80,2|2|8
339,330,50790,1,2
339,330,51004,1,0
339,330,51219,6,0,B|281:338|226:305|226:305|242:328|233:360,1,160,4|8
156,354,52504,1,2
82,322,52933,1,2
49,249,53361,1,2
74,172,53790,6,0,B|103:136|94:79,1,80,8|2
16,106,54647,2,0,B|200:106,1,160,0|8
173,25,55933,1,2
173,25,56147,1,0
173,25,56361,1,2
241,66,56790,1,2
242,145,57219,1,8
174,188,57647,5,2
174,188,57861,1,0
174,188,58076,1,2
244,225,58504,1,2
244,225,58719,1,0
176,267,59147,1,2
176,267,59361,2,0,B|176:352,2,80,0|2|2
244,225,60647,5,8
244,225,61076,1,2
244,225,61504,2,0,B|262:274|368:278|384:219,3,160,4|8|2|8
464,239,64504,6,0,B|457:273|433:284,2,40,2|0|2
434,164,65361,1,2
434,164,65576,1,0
434,164,65790,1,0
486,103,66219,1,2
409,85,66647,6,0,B|320:71,1,80,4|2
258,109,67504,2,0,B|168:92,1,80
105,124,68361,1,0
256,192,68576,12,0,70076
177,319,70504,5,0
177,319,70719,1,0
177,319,70933,2,0,B|220:296|276:328,1,80
289,336,71576,1,0
326,348,71790,6,0,B|298:311|319:259,1,80,4|2
378,223,72647,2,0,B|401:185|390:135,1,80,0|2
312,153,73504,2,0,B|494:154,2,160,2|0|2
231,153,75647,5,2
231,153,75861,2,0,B|185:131|189:70,1,80
203,52,76504,1,2
123,48,76933,2,0,B|139:2,4,40,2|0|2|0|0
58,95,78219,5,2
58,95,78647,1,4
163,215,79504,6,0,B|153:270|103:277|103:277|144:294|153:328,1,160,0|2
75,348,80790,1,2
75,348,81004,1,0
150,321,81433,1,2
228,340,81861,5,0
262,318,82076,2,0,B|303:299|352:321,1,80,4|2
411,351,82933,1,0
411,351,83361,5,2
428,314,83576,1,0
409,278,83790,2,0,B|412:248|395:216|395:216|423:190|413:137,1,120,2|0
376,155,84647,2,0,B|400:117|389:64,1,80,0|2
310,85,85504,6,0,B|487:83,2,160,4|0|2
249,137,87647,1,2
249,137,88076,2,0,B|271:184|240:227,1,80,0|2
176,179,88933,2,0,B|153:224|89:230,1,80,4|2
97,147,89790,2,0,B|67:113|34:101|34:101|44:65|0:14,2,160,0|2|0
65,220,91933,5,2
65,220,92147,1,0
65,220,92361,2,0,B|65:310,2,80,4|2|0
134,180,93647,5,2
134,180,93861,1,2
134,180,94076,2,0,B|134:85,2,80,2|2|0
205,216,95361,5,2
205,216,95576,1,0
205,216,95790,2,0,B|266:247|337:213|337:213|365:238,1,160,2|0
432,247,97076,6,0,B|423:277|415:308,2,40,2|0|2
435,166,97933,1,2
437,86,98361,1,0
365,122,98790,1,2
435,166,99218,6,0,B|409:210|357:202,1,80,4|0
291,181,100076,1,0
220,142,100504,2,0,B|178:120|135:145,1,80,0|2
142,220,101361,1,2
142,220,101790,2,0,B|143:52,1,160,0|4
103,113,115933,6,0,B|43:81,2,40,0|0|4
183,110,116790,2,0,B|272:105,1,80,2|0
326,153,117647,2,0,B|361:134,2,40,2|0|2
251,182,118504,2,0,B|153:185,1,80,2|0
112,238,119361,6,0,B|69:218,2,40,2|0|0
189,259,120218,2,0,B|294:256,1,80,2|0
331,307,121076,2,0,B|378:281,2,40,2|0|2
256,337,121933,2,0,B|155:338,1,80,2|0
97,323,122790,5,2
97,323,123004,1,0
97,323,123218,1,4
256,192,123433,12,6,126647
153,120,127933,5,2
184,193,128361,1,0
156,268,128790,2,0,B|139:307|98:324,2,80,2|0|2
232,293,130076,6,0,B|396:294,1,160,4|8
395,373,131361,1,2
465,335,131790,1,2
464,254,132218,1,2
394,214,132647,5,8
393,190,132861,1,2
393,165,133076,1,0
393,141,133290,1,2
393,117,133504,2,0,B|389:84|412:44|458:41,2,80,2|2|8
473,117,134790,5,0
473,117,135218,2,0,B|472:210,1,80,2|2
471,277,136076,2,0,B|397:277|402:245|314:243,1,160,8|4
331,321,137361,5,2
331,321,137790,2,0,B|233:319,1,80,8|0
200,256,138647,2,0,B|151:241|145:187,1,80,2|2
227,175,139504,2,0,B|43:175,1,160,8|4
256,192,140576,12,4,144935
