osu file format v9

[General]
AudioFilename: supercell feat. Hatsune Miku - Hinekure Mono.mp3
AudioLeadIn: 0
PreviewTime: 115511
Countdown: 0
SampleSet: Soft
StackLeniency: 0.3
Mode: 0
LetterboxInBreaks: 0

[Editor]
DistanceSpacing: 0.9
BeatDivisor: 4
GridSize: 8

[Metadata]
Title:Hinekure Mono
Artist:supercell feat. Hatsune Miku
Creator:kanpakyin
Version:Hard
Source:ryo
Tags:vocaloid vocaloid2 The Rebel Purinko project diva

[Difficulty]
HPDrainRate:7
CircleSize:5
OverallDifficulty:6
ApproachRate:6
SliderMultiplier:2
SliderTickRate:1

[Events]
//Background and Video events
0,0,"BG.jpg"
//Break Periods
//Storyboard Layer 0 (Background)
//Storyboard Layer 1 (Fail)
//Storyboard Layer 2 (Pass)
//Storyboard Layer 3 (Foreground)
//Storyboard Sound Samples
//Background Colour Transformations
3,100,163,162,255

[TimingPoints]
3219,857.142857142857,4,2,1,30,1,0
29576,-100,4,1,1,20,0,0
30004,-100,4,2,2,40,0,0
30433,-100,4,2,2,20,0,0
30861,-100,4,2,1,40,0,0
32361,-100,4,2,2,40,0,0
33004,-100,4,2,1,40,0,0
35576,-100,4,2,2,40,0,0
36433,-100,4,2,1,40,0,0
37290,-100,4,2,2,40,0,0
37718,-100,4,2,1,40,0,0
39218,-100,4,2,2,40,0,0
39861,-100,4,2,1,40,0,0
43504,-100,4,1,1,40,0,0
44576,-100,4,2,1,40,0,0
46076,-100,4,2,2,40,0,0
46933,-100,4,2,1,40,0,0
47790,-100,4,2,2,40,0,0
48004,-100,4,2,1,40,0,0
49504,-100,4,2,2,40,0,0
50147,-100,4,2,1,40,0,0
51218,-100,4,2,2,40,0,0
51433,-100,4,2,1,40,0,0
52933,-100,4,2,2,40,0,0
53576,-100,4,2,1,40,0,0
56361,-100,4,2,2,40,0,0
57004,-100,4,2,1,40,0,0
58076,-100,4,2,2,40,0,0
58290,-100,4,2,1,40,0,0
59790,-100,4,2,2,40,0,0
60433,-100,4,2,1,40,0,0
61504,-100,4,2,2,40,0,0
61718,-100,4,2,1,40,0,0
63218,-100,4,2,2,40,0,0
63861,-100,4,1,1,40,0,0
64290,-100,4,2,1,40,0,0
64718,-100,4,2,2,40,0,0
65147,-100,4,2,1,40,0,0
66647,-100,4,1,1,40,0,0
66861,-100,4,2,1,40,0,0
67076,-100,4,2,2,40,0,0
67290,-100,4,2,1,40,0,0
67504,-100,4,1,1,40,0,0
67718,-100,4,2,1,40,0,0
68361,-100,4,2,2,40,0,0
69004,-100,4,1,1,40,0,0
69433,-100,4,2,1,40,0,0
69861,-100,4,1,1,40,0,0
71361,-100,4,2,1,40,0,0
71790,-100,4,1,1,50,0,1
72004,-100,4,2,1,50,0,1
72647,-100,4,1,1,50,0,1
72861,-100,4,2,1,50,0,1
73504,-100,4,2,2,50,0,1
74147,-100,4,1,1,50,0,1
74576,-100,4,2,1,50,0,1
76076,-100,4,1,1,50,0,1
76290,-100,4,2,1,50,0,1
76933,-100,4,2,2,50,0,1
77790,-100,4,1,1,50,0,1
78004,-100,4,2,1,50,0,1
78647,-100,4,1,1,30,0,1
78861,-100,4,2,1,50,0,1
79504,-100,4,1,1,50,0,1
79718,-100,4,2,1,50,0,1
82076,-100,4,2,2,50,0,1
82718,-100,4,1,1,50,0,1
83147,-100,4,2,1,50,0,1
86361,-100,4,1,1,50,0,1
86576,-100,4,2,1,50,0,1
87218,-100,4,2,2,50,0,1
87861,-100,4,1,1,50,0,1
88290,-100,4,2,1,50,0,1
88933,-100,4,2,2,50,0,1
89361,-100,4,2,1,50,0,1
89790,-100,4,1,1,50,0,1
90004,-100,4,2,1,50,0,1
90647,-100,4,2,2,50,0,1
91290,-100,4,2,1,50,0,1
91504,-100,4,1,1,50,0,1
91718,-100,4,2,1,50,0,1
93004,-100,4,1,1,50,0,1
93433,-100,4,2,1,50,0,1
94076,-100,4,2,2,50,0,1
94933,-100,4,1,1,50,0,1
95147,-100,4,2,1,50,0,1
95790,-100,4,2,2,50,0,1
96647,-100,4,1,1,50,0,1
97076,-100,4,2,2,50,0,1
98361,-100,4,1,1,50,0,1
98576,-100,4,2,1,50,0,1
100076,-100,4,1,1,50,0,1
100290,-100,4,2,1,50,0,1
100933,-100,4,2,2,50,0,1
101576,-100,4,1,1,50,0,1
102004,-100,4,2,1,50,0,1
102647,-133.333333333333,4,2,1,40,0,0
103290,-133.333333333333,4,1,1,40,0,0
103718,-133.333333333333,4,2,1,40,0,0
104361,-133.333333333333,4,2,2,40,0,0
105218,-133.333333333333,4,1,1,40,0,0
105647,-133.333333333333,4,2,1,40,0,0
106933,-133.333333333333,4,1,1,40,0,0
107147,-133.333333333333,4,2,1,40,0,0
107790,-133.333333333333,4,2,2,40,0,0
108433,-133.333333333333,4,1,1,40,0,0
108861,-133.333333333333,4,2,2,40,0,0
109718,-133.333333333333,4,2,1,40,0,0
110147,-133.333333333333,4,1,1,40,0,0
110576,-133.333333333333,4,2,1,40,0,0
111004,-133.333333333333,4,2,2,40,0,0
111433,-133.333333333333,4,2,1,40,0,0
111861,-133.333333333333,4,1,1,40,0,0
112290,-133.333333333333,4,2,1,40,0,0
113576,-133.333333333333,4,1,1,40,0,0
114004,-133.333333333333,4,2,1,40,0,0
114647,-133.333333333333,4,2,2,40,0,0
115504,-133.333333333333,4,1,2,40,0,0
115933,-100,4,2,1,40,0,0
116361,-100,4,2,2,40,0,0
117004,-100,4,1,1,40,0,0
117433,-100,4,2,1,40,0,0
118076,-100,4,2,2,40,0,0
118718,-100,4,1,1,40,0,0
119361,-100,4,2,1,40,0,0
120647,-100,4,1,1,40,0,0
120861,-100,4,2,1,40,0,0
121504,-100,4,2,2,40,0,0
122147,-100,4,1,1,40,0,0
122576,-100,4,2,1,40,0,0
123218,-200,4,2,1,40,0,0
127504,-133.333333333333,4,2,1,40,0,0
128147,-133.333333333333,4,1,1,40,0,0
128576,-133.333333333333,4,2,1,40,0,0
129861,-133.333333333333,4,2,2,40,0,0
130290,-133.333333333333,4,2,1,40,0,0
131790,-133.333333333333,4,2,2,40,0,0
132433,-133.333333333333,4,2,1,40,0,0
135218,-133.333333333333,4,2,2,40,0,0
135861,-133.333333333333,4,2,1,40,0,0
138647,-133.333333333333,4,2,2,40,0,0
139290,-133.333333333333,4,2,1,40,0,0
140147,-133.333333333333,4,2,2,40,0,0
140576,-133.333333333333,4,2,1,5,0,0
144935,857.142857142857,4,2,1,5,1,0

[Colours]
Combo1 : 241,251,57
Combo2 : 255,119,255
SliderBorder : 255,255,255

[HitObjects]
363,280,3219,1,2
283,238,3647,1,0
257,151,4076,2,0,B|272:116|253:74|253:74|278:103|308:90,1,100,2|0
268,87,5361,5,2
187,128,5790,1,0
98,114,6219,1,2
53,36,6647,5,0
187,128,7076,2,0,B|187:195|187:195|187:243|134:274,1,150,2|0
119,299,7933,2,0,B|169:281|217:300,1,100,2|0
390,252,9219,5,2
379,223,9433,1,0
370,194,9647,2,0,B|336:78,1,100,0|2
295,263,10933,6,0,B|264:152,1,100,2|0
225,328,11790,2,0,B|191:206,1,100,0|0
36,161,12647,1,2
119,194,13076,1,0
293,96,13504,6,0,B|453:97,2,150,2|0|2
256,192,15004,12,0,16933
134,147,17790,5,2
211,192,18218,1,0
211,192,18433,1,0
211,192,18647,2,0,B|261:187|280:171|280:171|298:189|370:190,1,150,2|0
368,202,19504,2,0,B|478:202,1,100,2|0
486,194,20147,1,2
330,290,20576,5,0
315,303,20790,2,0,B|207:301,1,100,2|0
87,109,22076,5,0
172,79,22504,1,2
87,109,22933,1,0
241,123,23361,2,0,B|314:123,1,50,2|0
87,109,24004,2,0,B|26:110,1,50,2|0
241,123,24647,1,2
403,330,25290,5,0
387,317,25504,2,0,B|337:296|287:315,1,100,2|0
271,323,26147,2,0,B|222:340|171:319,1,100,2|0
158,306,26790,1,2
143,292,27004,6,0,B|193:317|253:293,1,100,2|0
258,289,27647,2,0,B|286:272|296:240,1,50,2|0
300,234,28076,2,0,B|308:204|296:153,1,50,0|2
296,165,28504,1,0
286,147,28718,2,0,B|337:173|406:151|406:151|380:176|397:194,1,150,2|0
422,188,29576,6,0,B|451:174,2,25
397,212,30004,2,0,B|416:270,1,50,2|2
384,361,30433,6,0,B|362:299,1,50,2|4
306,279,31076,1,2
225,238,31504,1,8
306,279,31933,1,2
214,273,32361,1,2
123,270,32790,1,2
214,273,33218,5,8
131,236,33647,1,2
46,203,34076,1,4
131,236,34504,1,2
40,232,34933,5,8
214,273,35361,1,2
40,232,35790,1,2
214,273,36219,2,0,B|255:276|293:244|298:201,1,100,2|8
311,79,37076,1,0
230,189,37504,6,0,B|225:248|274:291|333:303|390:278,1,200,2|8
441,228,38790,1,2
455,214,39004,1,0
461,195,39219,2,0,B|484:148|468:98,1,100,2|2
457,80,39861,6,0,B|506:60,2,50,0|8|0
437,76,40504,2,0,B|389:95,1,50,2|4
256,192,40933,12,4,42647
127,140,43076,5,2
127,140,43290,1,0
127,140,43504,2,0,B|160:118|197:122,1,50
215,235,43933,2,0,B|187:227|178:197,1,50
255,111,44361,6,0,B|261:144|237:172,2,50,4|0|2
243,94,45004,2,0,B|322:80,1,50,0|8
380,102,45647,5,2
380,102,45861,1,0
380,102,46076,2,0,B|499:88,2,100,2|2|8
324,293,47361,5,2
324,293,47576,1,0
324,293,47790,2,0,B|220:307,1,100,2|2
224,325,48433,2,0,B|178:287,1,50,0|8
224,192,49076,5,0
224,192,49290,1,0
224,192,49504,2,0,B|224:155|235:142|235:142|221:120|227:80,2,100,2|2|8
142,231,50790,5,2
142,231,51004,1,0
142,231,51219,2,0,B|42:231,1,100,2|2
224,192,52076,1,8
60,305,52504,6,0,B|-1:305,2,50,2|0|2
303,150,53361,1,2
320,160,53576,2,0,B|391:161,1,50,2|8
384,174,54004,1,0
457,225,54433,1,2
446,242,54647,6,0,B|447:329,1,50,4|0
371,287,55076,2,0,B|351:338,1,50,2|0
283,304,55504,2,0,B|234:337,1,50,8|0
207,263,55933,2,0,B|84:262,2,100,2|2|2
272,201,57219,5,8
328,131,57647,1,2
344,141,57861,1,0
360,152,58076,2,0,B|399:177|460:153|464:101,2,100,2|2|8
465,122,59361,5,2
450,136,59576,1,0
437,151,59790,2,0,B|409:178|403:232|436:252,2,100,2|2|8
434,260,61076,5,2
424,242,61290,1,0
416,223,61504,2,0,B|383:206|384:182|384:182|357:186|324:167,1,100,0|2
320,180,62147,1,0
301,173,62361,2,0,B|269:166|248:128,1,50,8|0
286,14,63004,5,2
284,33,63219,2,0,B|279:72|228:91|187:73,1,100,2|2
119,53,64076,1,0
51,213,64504,6,0,B|93:170|55:111,1,100,2|2
51,213,65361,1,0
38,228,65576,2,0,B|67:196|154:197|196:235,1,150,2|2
195,235,66433,2,0,B|191:187,2,50,0|0|0
214,233,67076,2,0,B|191:284,2,50,2|2|0
222,215,67719,1,0
230,196,67933,1,2
237,177,68147,1,0
244,158,68361,6,0,B|265:124|267:79|242:52,1,100,2|2
172,108,69219,1,0
173,198,69647,1,2
173,198,69861,1,0
173,198,70076,2,0,B|179:231|240:253|285:225,1,100
345,222,70933,1,0
480,347,71361,5,2
480,347,71576,1,2
480,347,71790,2,0,B|477:310|431:281|389:288,1,100,4|0
465,197,72433,6,0,B|435:182|409:149,1,50
383,53,72861,2,0,B|356:63|324:57,1,50,0|2
268,120,73504,5,2
192,70,73933,1,2
184,159,74361,1,0
268,120,74790,5,2
268,120,75004,1,0
268,120,75219,2,0,B|255:151|277:203|328:208,1,100,4|2
405,152,75861,2,0,B|376:141|346:146,1,50
348,263,76290,2,0,B|377:244|378:200,1,50,0|2
341,352,76933,5,2
254,327,77361,1,2
168,297,77790,6,0,B|120:272|72:296,1,100,0|2
219,231,78433,1,0
168,297,78647,2,0,B|222:327|270:300,1,100,4|2
346,267,79504,2,0,B|391:306,2,50,0|0|2
346,267,80147,1,0
346,267,80361,2,0,B|360:153,1,100,4|0
459,34,81004,6,0,B|445:152,1,100,2|2
367,92,81861,1,0
367,92,82076,2,0,B|251:90,1,100,2|2
180,66,82933,1,0
100,228,83361,5,2
100,228,83576,1,0
100,228,83790,2,0,B|121:288|81:328,1,100,4|2
86,322,84433,2,0,B|119:278|183:286,1,100,0|2
174,285,85076,6,0,B|123:321|64:272,1,100,0|4
66,270,85719,2,0,B|41:256|37:216,1,50,0|2
34,210,86147,2,0,B|24:181|33:149,1,50
267,86,86790,6,0,B|185:85|185:85|152:107,2,100,2|2|2
345,130,88076,1,0
345,130,88504,6,0,B|370:199,2,50,2|0|2
413,277,89361,2,0,B|429:223,2,50,2|0|0
247,88,90218,6,0,B|263:137,2,50,2|0|2
307,319,91076,2,0,B|327:268,2,50,2|0|0
83,180,91933,5,2
83,180,92147,1,0
83,180,92361,1,4
169,204,92790,1,0
253,233,93218,1,0
114,25,93647,6,0,B|66:25,2,50,2|0|2
169,92,94504,1,2
227,157,94933,1,0
244,146,95147,2,0,B|351:147,1,100,2|0
363,140,95790,2,0,B|401:134|413:101,3,50,2|0|2|0
415,98,96647,1,0
435,231,97290,5,0
452,260,97504,2,0,B|522:271,2,50,2|0|2
455,294,98147,2,0,B|489:334,2,50
419,292,98790,2,0,B|420:342,2,50,2|0|4
199,256,99647,5,2
199,256,99861,1,0
199,256,100076,2,0,B|250:225|310:263,1,100,0|2
136,311,100933,1,2
199,256,101361,2,0,B|223:229|222:176|186:131,1,100,2|0
151,89,102218,1,2
210,334,102647,6,0,B|246:337|279:312|282:275,1,74.9999977648259,4|2
262,83,103504,1,0
320,141,103933,1,2
320,141,104147,1,0
320,141,104361,2,0,B|353:110|339:58,2,74.9999977648259,2|2|0
359,205,105647,6,0,B|381:187|385:162,2,37.4999988824129,0|2|0
343,226,106290,1,0
335,250,106504,1,0
344,274,106718,1,0
359,295,106933,2,0,B|365:346|333:369,1,74.9999977648259,0|0
101,334,107790,6,0,B|122:296|86:243,2,74.9999977648259,2|2|0
190,326,109076,1,2
190,326,109290,1,0
190,326,109504,2,0,B|285:317,1,74.9999977648259,4|0
338,306,110361,1,0
444,136,110790,5,2
370,149,111218,2,0,B|276:161,1,74.9999977648259,2|2
163,118,112076,5,0
156,142,112290,1,0
148,165,112504,1,2
141,188,112718,1,0
133,209,112933,2,0,B|122:248|88:265|49:252,2,74.9999977648259,4|2|0
221,227,114218,1,2
221,227,114433,1,0
221,227,114647,2,0,B|211:257|197:280,4,37.4999988824129,2|0|2|0|0
368,141,115933,5,2
368,141,116147,1,2
368,141,116361,2,0,B|399:111|399:53|354:27,2,100,2|2|0
409,123,117433,2,0,B|426:94|463:87,3,50,2|0|0|2
477,176,118504,5,2
510,259,118933,1,0
104,316,119361,5,2
104,316,119576,1,0
104,316,119790,2,0,B|86:274|86:274|88:238|71:205,1,100
75,200,120433,2,0,B|63:234|25:245,2,50,2|0|0
208,354,121290,5,0
208,354,121504,1,2
292,322,121933,1,2
381,330,122361,1,0
381,330,122790,5,2
385,310,123004,1,2
388,290,123218,2,0,B|392:239|417:199|417:199|394:194|368:111|368:111|305:139|260:85,1,300,0|2
273,98,126647,1,6
175,247,127933,5,2
237,301,128361,1,0
314,272,128790,1,0
314,272,129004,1,0
314,272,129218,2,0,B|403:272,1,74.9999977648259,2|0
175,247,130076,5,4
119,185,130504,1,2
39,206,130933,2,0,B|38:124,2,74.9999977648259,8|0|2
74,281,132218,1,2
34,353,132647,5,8
48,353,132861,1,0
63,353,133076,1,2
77,353,133290,1,0
91,353,133504,2,0,B|193:354,1,74.9999977648259,4|2
349,290,134361,2,0,B|252:290,1,74.9999977648259,8|0
208,239,135218,5,2
208,239,135647,2,0,B|202:284|165:301,1,74.9999977648259,2|8
124,229,136504,1,2
169,160,136933,2,0,B|211:148|252:172,1,74.9999977648259,4|0
313,208,137790,1,8
389,239,138218,2,0,B|424:256|465:243,1,74.9999977648259,0|2
428,168,139076,1,2
345,168,139504,6,0,B|336:128,2,37.4999988824129,8|0|2
256,329,140361,5,4
256,192,140576,12,4,144935
