osu file format v14

[General]
AudioFilename: Miku_Hatsune_-_Black_Rock_Shooter_[TV_[mp3clan_con.mp3
AudioLeadIn: 1500
PreviewTime: 59611
Countdown: 0
SampleSet: Soft
StackLeniency: 0.7
Mode: 0
LetterboxInBreaks: 0
WidescreenStoryboard: 0

[Editor]
DistanceSpacing: 1
BeatDivisor: 4
GridSize: 4
TimelineZoom: 3.099998

[Metadata]
Title:BLACK ROCK SHOOTER
TitleUnicode:ブラック★ロックシューター
Artist:supercell feat. Hatsune Miku
ArtistUnicode:supercell feat. 初音ミク
Creator:-Nya-
Version:A's Extra
Source:ブラック★ロックシューター
Tags:opening Burakku Rokku Shuta Vocaloid Vocaloid2 tv_size milan- Avishay ryo
BeatmapID:522317
BeatmapSetID:217628

[Difficulty]
HPDrainRate:7
CircleSize:4
OverallDifficulty:8.3
ApproachRate:9.2
SliderMultiplier:1.8
SliderTickRate:1

[Events]
//Background and Video events
Video,1444,"Black Rock Shooter.avi"
0,0,"BRS.png",0,0
//Break Periods
//Storyboard Layer 0 (Background)
//Storyboard Layer 1 (Fail)
//Storyboard Layer 2 (Pass)
//Storyboard Layer 3 (Foreground)
//Storyboard Sound Samples

[TimingPoints]
1430,363.636363636364,4,2,3,55,1,0
5793,-100,4,2,3,45,0,0
6157,-100,4,2,3,50,0,0
6520,-100,4,2,3,55,0,0
6884,-100,4,2,3,60,0,0
7248,-100,4,2,3,65,0,0
7430,-100,4,2,3,55,0,0
9066,-80,4,2,3,55,0,0
12248,-100,4,2,3,55,0,0
12520,-66.6666666666667,4,2,3,55,0,0
13430,-100,4,2,3,55,0,0
19696,-76.9230769230769,4,2,3,55,0,0
21793,-76.9230769230769,4,2,4,55,0,0
23793,-76.9230769230769,4,2,3,55,0,0
25066,-100,4,2,3,55,0,0
32430,-100,4,2,4,55,0,0
32702,-100,4,2,3,55,0,0
36339,-100,4,2,4,55,0,0
36702,-100,4,2,3,55,0,0
37793,-100,4,2,4,55,0,0
38884,-80,4,2,4,55,0,0
39339,-100,4,2,3,55,0,0
39611,-100,4,2,4,55,0,0
39793,-100,4,2,3,55,0,0
39975,-100,4,2,4,55,0,0
40066,-100,4,2,3,55,0,0
40339,-100,4,2,4,55,0,0
40702,-100,4,2,3,55,0,0
41611,-100,4,2,4,55,0,0
42157,-100,4,2,3,55,0,0
43430,-80,4,2,3,55,0,0
45066,-66.6666666666667,4,2,3,55,0,0
45611,-66.6666666666667,4,2,4,55,0,0
45884,-66.6666666666667,4,2,3,55,0,0
46157,-66.6666666666667,4,2,4,55,0,0
47611,-66.6666666666667,4,2,4,40,0,0
47975,-66.6666666666667,4,2,3,55,0,0
48339,-66.6666666666667,4,2,4,55,0,0
48702,-66.6666666666667,4,2,3,55,0,0
49066,-100,4,2,3,55,0,0
51611,-100,4,2,4,55,0,0
53066,-86.9565217391304,4,2,4,55,0,0
53793,-100,4,2,3,55,0,0
56339,-100,4,2,4,55,0,0
59611,-66.6666666666667,4,2,4,55,0,1
62520,-66.6666666666667,4,2,3,55,0,1
71248,-66.6666666666667,4,2,4,55,0,1
73793,-66.6666666666667,4,2,3,55,0,1
84430,-66.6666666666667,4,2,4,55,0,1
88702,-66.6666666666667,4,2,3,55,0,0

[Colours]
Combo1 : 111,255,255
Combo2 : 0,125,251
Combo3 : 131,131,131
Combo4 : 132,132,255

[HitObjects]
243,171,1429,5,4,0:0:0:0:
327,19,1611,1,2,0:0:0:0:
264,156,1793,2,0,L|235:287,1,135,8|0,0:0|0:0,0:0:0:0:
247,331,2157,1,2,0:0:0:0:
144,112,2339,1,2,0:0:0:0:
384,208,2520,2,0,B|440:196,2,45,8|0|0,0:0|0:0|0:0,0:0:0:0:
140,236,2884,5,2,0:0:0:0:
145,211,2974,1,2,0:0:0:0:
150,187,3065,1,2,0:0:0:0:
190,353,3248,2,0,L|280:344,1,90,8|0,0:0|0:0,0:0:0:0:
352,324,3520,2,0,L|394:340,1,45,2|2,0:0|0:0,0:0:0:0:
487,263,3793,1,2,0:0:0:0:
248,92,3975,5,8,0:0:0:0:
352,324,4157,1,0,0:0:0:0:
132,284,4339,1,2,0:0:0:0:
212,216,4520,1,2,0:0:0:0:
312,184,4702,2,0,P|378:191|424:239,1,135,8|2,0:0|0:0,0:0:0:0:
440,268,5066,1,2,0:0:0:0:
264,192,5248,1,0,0:0:0:0:
424,72,5430,2,0,B|432:176,1,90,8|0,0:0|0:0,0:0:0:0:
440,268,5702,1,0,0:0:0:0:
440,268,5793,5,4,0:0:0:0:
288,312,5975,1,8,0:0:0:0:
264,319,6065,1,2,0:0:0:0:
240,327,6156,1,4,0:0:0:0:
225,237,6339,1,8,0:0:0:0:
192,248,6430,1,2,0:0:0:0:
161,258,6520,1,4,0:0:0:0:
99,126,6702,5,8,0:0:0:0:
140,140,6793,1,2,0:0:0:0:
180,152,6883,1,4,0:0:0:0:
168,43,7066,1,8,0:0:0:0:
218,59,7157,1,2,0:0:0:0:
268,78,7248,5,4,0:0:0:0:
439,139,7430,1,2,0:0:0:0:
438,244,7611,2,0,P|375:223|334:170,1,135,8|8,0:0|0:0,0:0:0:0:
339,131,7975,2,0,L|306:216,1,90,2|2,0:0|0:0,0:0:0:0:
164,267,8339,2,0,L|197:183,1,90,8|0,0:0|0:0,0:0:0:0:
207,153,8611,1,0,0:0:0:0:
218,123,8702,6,0,P|255:131|303:95,1,90,2|2,0:0|0:0,0:0:0:0:
428,144,9066,2,0,B|400:148|368:136|368:136|344:164|320:212|228:206,1,225,8|2,0:0|0:0,0:0:0:0:
119,115,9611,1,2,0:0:0:0:
119,115,9793,2,0,L|91:59,2,56.25,2|2|2,0:0|0:0|0:0,0:0:0:0:
191,279,10157,5,6,0:0:0:0:
367,239,10339,1,2,0:0:0:0:
252,166,10520,1,8,0:0:0:0:
207,331,10702,1,6,0:0:0:0:
371,303,10884,5,2,0:0:0:0:
210,146,11066,1,2,0:0:0:0:
287,295,11248,1,12,0:0:0:0:
383,155,11430,1,2,0:0:0:0:
210,146,11611,5,2,0:0:0:0:
240,136,11702,2,0,B|275:136|275:136|259:92|280:60,1,112.5,2|0,0:0|0:0,0:0:0:0:
307,44,11975,2,0,P|364:116|368:192,1,168.75,2|2,0:0|0:0,0:0:0:0:
351,223,12339,2,0,L|296:220,2,45,2|2|2,0:0|0:0|0:0,0:0:0:0:
205,62,12702,1,2,0:0:0:0:
168,60,12793,1,2,0:0:0:0:
132,58,12884,1,2,0:0:0:0:
96,56,12975,1,2,0:0:0:0:
60,54,13066,1,8,0:0:0:0:
60,54,13430,6,0,L|68:234,1,180,4|0,1:0|0:0,0:0:0:0:
209,328,13975,1,0,0:0:0:0:
368,264,14157,2,0,B|296:240|296:240|228:244,1,135,8|0,0:0|0:0,0:0:0:0:
163,252,14520,5,0,0:0:0:0:
350,348,14702,1,2,0:0:0:0:
188,132,14884,2,0,B|260:156|260:156|319:152,1,135,8|8,0:0|0:0,0:0:0:0:
388,183,15248,1,2,0:0:0:0:
255,59,15430,1,0,0:0:0:0:
119,175,15611,2,0,P|192:176|256:236,1,135,8|0,0:0|0:0,0:0:0:0:
320,232,15975,6,0,L|409:241,1,90,2|0,0:0|0:0,0:0:0:0:
263,311,16339,1,8,0:0:0:0:
175,135,16520,1,0,0:0:0:0:
395,167,16702,1,8,0:0:0:0:
167,111,16884,1,0,0:0:0:0:
252,288,17066,1,8,0:0:0:0:
272,68,17248,1,0,0:0:0:0:
440,336,17430,5,8,0:0:0:0:
264,312,17611,1,2,0:0:0:0:
100,268,17793,1,8,0:0:0:0:
260,160,17975,1,2,0:0:0:0:
252,340,18157,1,8,0:0:0:0:
252,340,18248,1,2,0:0:0:0:
252,340,18339,1,2,0:0:0:0:
424,120,18520,2,0,L|335:133,1,90,8|8,0:0|0:0,0:0:0:0:
283,199,18793,1,2,0:0:0:0:
283,199,18884,5,6,0:0:0:0:
76,32,19248,1,8,0:0:0:0:
200,80,19430,1,0,0:0:0:0:
96,172,19611,1,2,0:0:0:0:
199,251,19793,1,2,0:0:0:0:
327,131,19975,2,0,P|384:172|392:308,1,175.499991966248,8|0,0:0|0:0,0:0:0:0:
415,303,20339,6,0,P|443:237|458:188,1,116.999994644165,8|0,0:0|0:0,0:0:0:0:
95,79,20702,2,0,P|67:145|52:194,1,116.999994644165,8|0,0:0|0:0,0:0:0:0:
216,297,21066,2,0,L|331:323,1,116.999994644165,8|2,0:0|0:0,0:0:0:0:
293,84,21430,2,0,L|179:59,1,116.999994644165,8|2,0:0|0:0,0:0:0:0:
315,327,21793,5,12,0:0:0:0:
179,60,21975,1,2,0:0:0:0:
373,201,22157,5,8,0:0:0:0:
119,83,22339,1,2,0:0:0:0:
431,75,22520,5,12,0:0:0:0:
59,107,22702,1,2,0:0:0:0:
371,47,22884,5,8,0:0:0:0:
223,327,23066,1,2,0:0:0:0:
475,135,23248,5,12,0:0:0:0:
167,219,23430,1,0,0:0:0:0:
419,27,23611,1,10,0:0:0:0:
156,104,23793,1,2,0:0:0:0:
126,77,23883,1,2,0:0:0:0:
98,51,23975,2,8,P|134:142|119:218,1,175.499991966248,8|2,0:0|0:0,0:0:0:0:
99,238,24339,2,0,P|74:196|51:239,1,116.999994644165,2|2,0:0|0:0,0:0:0:0:
67,291,24611,1,2,0:0:0:0:
86,342,24702,6,0,P|144:354|202:348,1,116.999994644165,2|4,0:0|1:0,0:0:0:0:
344,251,25066,1,8,0:0:0:0:
315,101,25248,1,2,0:0:0:0:
165,130,25430,1,2,0:0:0:0:
194,280,25611,1,2,0:0:0:0:
359,223,25793,2,0,B|298:234|298:234|262:190|262:190|227:191|202:170,1,180,8|0,0:0|0:0,0:0:0:0:
219,39,26339,1,2,0:0:0:0:
352,115,26520,2,0,P|311:143|283:175,1,90,8|0,0:0|0:0,0:0:0:0:
239,247,26793,1,2,0:0:0:0:
239,247,26884,2,0,L|231:347,1,90,2|0,0:0|0:0,0:0:0:0:
31,239,27248,6,0,L|15:146,1,90,8|2,0:0|0:0,0:0:0:0:
31,103,27520,1,0,0:0:0:0:
31,103,27611,1,0,0:0:0:0:
268,111,27793,1,2,0:0:0:0:
108,340,27975,2,0,B|132:300|132:300|188:296|212:266,1,135,8|0,0:0|0:0,0:0:0:0:
239,247,28339,1,2,0:0:0:0:
376,120,28520,1,2,0:0:0:0:
455,295,28702,1,8,0:0:0:0:
239,247,29066,5,2,0:0:0:0:
239,247,29248,1,2,0:0:0:0:
376,120,29430,1,8,0:0:0:0:
464,188,29611,1,0,0:0:0:0:
379,325,29793,1,2,0:0:0:0:
353,333,29884,1,8,0:0:0:0:
327,341,29975,1,2,0:0:0:0:
183,279,30157,1,8,0:0:0:0:
203,87,30339,1,2,0:0:0:0:
203,87,30430,1,2,0:0:0:0:
203,87,30520,6,0,P|165:169|96:212,1,135,6|0,0:0|0:0,0:0:0:0:
103,217,30884,1,8,0:0:0:0:
311,331,31066,2,0,B|355:347|355:347|398:343,1,90
197,291,31430,1,2,0:0:0:0:
475,223,31611,1,8,0:0:0:0:
231,103,31975,5,2,0:0:0:0:
255,251,32157,1,2,0:0:0:0:
431,247,32339,1,8,0:0:0:0:
411,211,32430,1,2,0:0:0:0:
335,63,32611,1,2,0:0:0:0:
347,103,32702,2,0,L|299:179,1,90,2|2,0:0|0:0,0:0:0:0:
215,283,33066,2,0,P|159:299|119:303,1,90,8|2,0:0|0:0,0:0:0:0:
251,195,33430,5,4,0:0:0:0:
423,183,33611,1,2,0:0:0:0:
319,291,33793,5,8,0:0:0:0:
239,152,33975,1,2,0:0:0:0:
327,311,34157,5,8,0:0:0:0:
387,119,34339,1,2,0:0:0:0:
335,331,34520,5,8,0:0:0:0:
239,151,34702,1,2,0:0:0:0:
386,246,34884,5,2,0:0:0:0:
309,239,34975,1,2,0:0:0:0:
236,264,35066,1,2,0:0:0:0:
168,301,35157,1,2,0:0:0:0:
101,262,35248,1,2,0:0:0:0:
5,102,35430,5,2,0:0:0:0:
64,148,35520,1,2,0:0:0:0:
142,153,35611,1,2,0:0:0:0:
183,89,35702,1,2,0:0:0:0:
248,48,35793,1,2,0:0:0:0:
363,183,35975,5,8,0:0:0:0:
351,135,36066,1,8,0:0:0:0:
339,87,36157,1,8,0:0:0:0:
247,47,36339,5,6,0:0:0:0:
216,192,36520,1,2,0:0:0:0:
268,333,36702,2,0,P|310:346|355:343,1,90,8|2,0:0|0:0,0:0:0:0:
391,319,36975,1,2,0:0:0:0:
423,295,37066,1,8,0:0:0:0:
363,151,37248,1,2,0:0:0:0:
279,247,37430,1,8,0:0:0:0:
100,196,37611,1,2,0:0:0:0:
304,96,37793,5,8,0:0:0:0:
332,304,37975,1,2,0:0:0:0:
168,232,38157,1,8,0:0:0:0:
364,152,38339,2,0,L|392:108,2,45,2|2|8,0:0|0:0|0:0,0:0:0:0:
240,352,38702,1,0,0:0:0:0:
99,196,38884,6,0,P|116:89|216:48,1,225,8|0,0:0|0:0,0:0:0:0:
220,103,39339,1,8,0:0:0:0:
225,159,39430,1,2,0:0:0:0:
230,215,39520,1,2,0:0:0:0:
235,271,39611,1,8,0:0:0:0:
344,336,39793,1,8,0:0:0:0:
496,152,39975,5,8,0:0:0:0:
440,145,40066,1,2,0:0:0:0:
384,138,40157,1,2,0:0:0:0:
328,131,40247,1,2,0:0:0:0:
272,125,40338,1,8,0:0:0:0:
152,192,40520,6,0,L|112:216,2,45,2|6|8,0:0|0:0|0:0,0:0:0:0:
272,125,40884,1,2,0:0:0:0:
151,347,41066,1,2,0:0:0:0:
399,291,41248,1,2,0:0:0:0:
215,83,41430,1,12,0:0:0:0:
256,272,41611,1,2,0:0:0:0:
343,162,41793,1,2,0:0:0:0:
375,166,41884,1,2,0:0:0:0:
407,171,41975,5,2,0:0:0:0:
200,333,42157,1,4,0:0:0:0:
309,48,42339,1,0,0:0:0:0:
103,214,42520,1,8,0:0:0:0:
412,252,42702,1,2,0:0:0:0:
412,252,42793,1,2,0:0:0:0:
412,252,42884,1,8,0:0:0:0:
311,151,43066,1,2,0:0:0:0:
256,272,43248,1,8,0:0:0:0:
63,287,43430,5,2,0:0:0:0:
192,72,43611,1,0,0:0:0:0:
192,72,43702,1,2,0:0:0:0:
192,72,43793,1,2,0:0:0:0:
251,311,43975,1,8,0:0:0:0:
387,115,44157,1,2,0:0:0:0:
387,115,44248,1,8,0:0:0:0:
387,115,44339,1,8,0:0:0:0:
443,327,44520,1,0,0:0:0:0:
456,212,44702,1,2,0:0:0:0:
211,319,45066,5,12,0:0:0:0:
212,116,45248,1,2,0:0:0:0:
212,116,45339,1,8,0:0:0:0:
212,116,45430,1,2,0:0:0:0:
12,149,45611,2,0,P|51:241|27:338,1,202.500007724762,14|8,0:0|0:0,0:0:0:0:
27,337,45975,1,0,0:0:0:0:
128,164,46157,2,0,B|185:197|185:197|322:193,1,202.500007724762,12|2,0:0|0:0,0:0:0:0:
404,120,46520,1,6,0:0:0:0:
319,195,46702,5,2,0:0:0:0:
111,263,46884,1,8,0:0:0:0:
187,51,47066,1,2,0:0:0:0:
291,299,47248,1,8,0:0:0:0:
315,135,47430,1,2,0:0:0:0:
315,135,47520,1,2,0:0:0:0:
315,135,47611,5,8,0:0:0:0:
271,151,47702,1,8,0:0:0:0:
223,151,47793,1,8,0:0:0:0:
195,115,47884,1,8,0:0:0:0:
151,95,47975,5,4,1:0:0:0:
175,299,48157,1,2,0:0:0:0:
99,231,48339,1,2,0:0:0:0:
263,195,48520,1,2,0:0:0:0:
271,243,48611,1,2,0:0:0:0:
279,291,48702,1,8,0:0:0:0:
355,223,48884,1,0,0:0:0:0:
300,40,49066,2,0,P|337:63|382:68,1,90,8|0,0:0|0:0,0:0:0:0:
141,112,49430,5,2,0:0:0:0:
299,291,49611,1,2,0:0:0:0:
174,296,49793,2,0,P|178:252|202:214,1,90,8|2,0:0|0:0,0:0:0:0:
239,187,50066,1,2,0:0:0:0:
275,159,50157,2,0,B|218:127|218:127|193:129,1,90,2|2,0:0|0:0,0:0:0:0:
259,283,50520,2,0,B|315:314|315:314|340:312,1,90,8|0,0:0|0:0,0:0:0:0:
431,223,50884,5,2,0:0:0:0:
240,188,51066,1,2,0:0:0:0:
406,86,51248,1,8,0:0:0:0:
214,52,51430,1,2,0:0:0:0:
43,143,51611,2,0,L|51:239,1,90,2|2,0:0|0:0,0:0:0:0:
214,52,51975,1,8,0:0:0:0:
205,271,52157,1,0,0:0:0:0:
363,59,52339,6,0,L|346:101,1,45,8|2,0:0|0:0,0:0:0:0:
319,175,52520,1,2,0:0:0:0:
144,101,52702,2,0,P|186:87|214:52,1,90,8|2,0:0|0:0,0:0:0:0:
77,145,53066,6,0,P|109:240|204:271,1,207.000003948212,8|2,0:0|0:0,0:0:0:0:
284,249,53520,2,0,L|255:207,1,51.7500009870529,2|2,0:0|0:0,0:0:0:0:
254,28,53793,6,0,B|238:88|278:132|255:207,1,180,8|0,0:0|0:0,0:0:0:0:
160,315,54339,1,2,0:0:0:0:
160,315,54430,1,2,0:0:0:0:
160,315,54520,2,0,L|67:299,1,90
247,231,54884,2,0,L|335:246,1,90,8|0,0:0|0:0,0:0:0:0:
291,135,55248,5,2,0:0:0:0:
247,231,55430,1,2,0:0:0:0:
187,149,55611,2,0,B|134:173|134:173|155:131|139:100,1,135,8|8,0:0|0:0,0:0:0:0:
127,71,55975,2,0,B|175:55|175:55|215:35,1,90,2|2,0:0|0:0,0:0:0:0:
415,91,56339,1,8,0:0:0:0:
171,255,56520,1,2,0:0:0:0:
447,211,56702,6,0,B|343:231|343:231|375:183,1,135,12|2,0:0|0:0,0:0:0:0:
371,187,57066,1,8,0:0:0:0:
251,151,57248,1,2,0:0:0:0:
243,175,57339,1,2,0:0:0:0:
235,199,57430,6,0,L|189:208,1,45,10|2,0:0|0:0,0:0:0:0:
30,169,57611,2,0,L|73:157,1,45,2|2,0:0|0:0,0:0:0:0:
123,325,57793,2,0,L|111:281,1,45,10|2,0:0|0:0,0:0:0:0:
195,67,57975,2,0,L|206:110,1,45,2|2,0:0|0:0,0:0:0:0:
303,207,58157,1,12,0:0:0:0:
195,67,58702,5,0,0:0:0:0:
263,311,59066,1,0,0:0:0:0:
263,311,59248,1,0,0:0:0:0:
47,139,59611,5,4,1:0:0:0:
79,263,59793,1,2,0:0:0:0:
247,135,59975,2,0,B|295:98|295:98|375:110,1,135.000005149842,8|2,0:0|0:0,0:0:0:0:
381,112,60248,1,2,0:0:0:0:
394,114,60339,1,2,0:0:0:0:
363,251,60520,1,2,0:0:0:0:
88,238,60702,2,0,L|143:115,1,135.000005149842,8|2,0:0|0:0,0:0:0:0:
163,111,60975,1,2,0:0:0:0:
183,107,61066,5,2,0:0:0:0:
279,203,61248,1,2,0:0:0:0:
55,319,61430,1,8,0:0:0:0:
183,107,61611,1,2,0:0:0:0:
222,98,61702,1,2,0:0:0:0:
261,89,61793,1,2,0:0:0:0:
287,199,61975,1,2,0:0:0:0:
435,55,62157,1,8,0:0:0:0:
391,175,62339,1,2,0:0:0:0:
391,175,62430,5,2,0:0:0:0:
391,175,62520,1,2,0:0:0:0:
261,89,62702,1,2,0:0:0:0:
227,279,62884,1,8,0:0:0:0:
119,191,63066,1,2,0:0:0:0:
111,155,63157,1,2,0:0:0:0:
103,119,63248,1,2,0:0:0:0:
159,327,63430,1,2,0:0:0:0:
311,263,63611,1,8,0:0:0:0:
471,311,63793,1,2,0:0:0:0:
319,99,63975,5,8,0:0:0:0:
287,103,64066,1,2,0:0:0:0:
255,107,64157,1,2,0:0:0:0:
223,111,64248,1,2,0:0:0:0:
191,114,64339,5,8,0:0:0:0:
209,147,64430,1,2,0:0:0:0:
226,179,64520,1,2,0:0:0:0:
241,211,64611,1,2,0:0:0:0:
255,244,64702,5,8,0:0:0:0:
216,263,64793,1,2,0:0:0:0:
176,279,64884,1,2,0:0:0:0:
136,295,64975,1,2,0:0:0:0:
93,293,65066,5,8,0:0:0:0:
69,254,65157,1,2,0:0:0:0:
57,211,65248,1,2,0:0:0:0:
59,166,65339,1,2,0:0:0:0:
74,123,65430,5,4,0:0:0:0:
175,51,65611,1,2,0:0:0:0:
407,131,65793,1,8,0:0:0:0:
322,217,65975,1,2,0:0:0:0:
285,229,66066,1,2,0:0:0:0:
247,239,66157,2,0,P|181:229|129:187,1,135.000005149842,2|2,0:0|0:0,0:0:0:0:
65,47,66520,1,12,0:0:0:0:
139,312,66702,1,2,0:0:0:0:
194,327,66793,1,2,0:0:0:0:
249,341,66884,6,0,P|317:330|370:286,1,135.000005149842,2|2,0:0|0:0,0:0:0:0:
447,47,67248,1,8,0:0:0:0:
311,91,67430,1,2,0:0:0:0:
311,91,67611,1,2,0:0:0:0:
58,291,67793,1,2,0:0:0:0:
195,248,67975,1,12,0:0:0:0:
188,268,68339,5,2,0:0:0:0:
298,116,68520,1,2,0:0:0:0:
258,139,68611,1,8,0:0:0:0:
217,162,68702,2,0,L|279:43,1,135.000005149842,8|2,0:0|0:0,0:0:0:0:
272,280,69248,2,0,P|169:346|100:245,1,270.000010299683,2|2,0:0|0:0,0:0:0:0:
103,39,69793,5,8,0:0:0:0:
156,41,69884,1,2,0:0:0:0:
204,64,69975,1,2,0:0:0:0:
231,110,70066,1,2,0:0:0:0:
228,163,70157,1,8,0:0:0:0:
211,214,70248,1,2,0:0:0:0:
162,237,70339,1,2,0:0:0:0:
108,227,70430,1,2,0:0:0:0:
83,179,70520,5,10,0:0:0:0:
135,163,70611,1,2,0:0:0:0:
187,179,70702,1,2,0:0:0:0:
223,219,70793,1,2,0:0:0:0:
275,223,70884,1,10,0:0:0:0:
307,179,70975,1,2,0:0:0:0:
359,167,71066,1,2,0:0:0:0:
391,123,71157,1,2,0:0:0:0:
439,99,71248,5,4,0:0:0:0:
448,272,71430,2,0,L|328:344,1,135.000005149842,2|8,0:0|0:0,0:0:0:0:
63,187,71793,1,2,0:0:0:0:
63,187,71884,1,2,0:0:0:0:
63,187,71975,2,0,L|85:53,1,135.000005149842,8|0,0:0|0:0,0:0:0:0:
163,271,72339,1,8,0:0:0:0:
63,187,72520,1,0,0:0:0:0:
63,187,72611,1,0,0:0:0:0:
63,187,72702,6,0,P|119:142|183:126,1,135.000005149842,2|2,0:0|0:0,0:0:0:0:
259,119,72975,1,0,0:0:0:0:
259,119,73066,2,0,B|299:95|299:95|307:83|311:67|311:51|307:35|303:19|297:3,1,135.000005149842,8|2,0:0|0:0,0:0:0:0:
388,76,73430,1,2,0:0:0:0:
400,128,73520,1,8,0:0:0:0:
407,180,73611,1,2,0:0:0:0:
395,287,73793,2,0,P|347:332|279:327,1,135.000005149842,8|2,0:0|0:0,0:0:0:0:
143,211,74157,6,0,B|137:183|137:183|151:171|171:167|191:167|211:171|227:179|239:187|237:186,1,135.000005149842,2|2,0:0|0:0,0:0:0:0:
163,291,74520,1,8,0:0:0:0:
163,291,74702,2,0,L|95:307,2,67.5000025749208,2|2|2,0:0|0:0|0:0,0:0:0:0:
305,213,75066,1,2,0:0:0:0:
106,65,75248,1,8,0:0:0:0:
187,137,75430,1,2,0:0:0:0:
187,137,75520,1,2,0:0:0:0:
187,137,75611,5,8,0:0:0:0:
227,131,75702,1,2,0:0:0:0:
267,127,75793,1,2,0:0:0:0:
307,119,75884,1,2,0:0:0:0:
295,159,75975,5,8,0:0:0:0:
267,207,76066,1,2,0:0:0:0:
239,255,76157,1,2,0:0:0:0:
211,303,76248,1,2,0:0:0:0:
283,323,76339,5,8,0:0:0:0:
346,313,76430,1,2,0:0:0:0:
362,252,76520,1,2,0:0:0:0:
311,213,76611,1,2,0:0:0:0:
255,247,76702,6,0,B|284:260|324:260|324:260|344:236|380:224|380:224|408:236|456:228,1,202.500007724762,8|0,0:0|0:0,0:0:0:0:
476,256,77066,2,0,P|458:318|437:284,1,135.000005149842,12|2,0:0|0:0,0:0:0:0:
323,167,77430,1,2,0:0:0:0:
223,247,77611,1,2,0:0:0:0:
197,213,77702,1,2,0:0:0:0:
171,179,77793,1,2,0:0:0:0:
211,55,77975,1,2,0:0:0:0:
315,227,78157,2,0,P|239:339|143:303,1,202.500007724762,8|2,0:0|0:0,0:0:0:0:
165,320,78520,5,6,0:0:0:0:
396,296,78702,1,2,0:0:0:0:
272,150,78884,2,0,P|339:150|395:187,1,135.000005149842,8|2,0:0|0:0,0:0:0:0:
83,287,79248,2,0,P|134:245|200:238,1,135.000005149842,2|2,0:0|0:0,0:0:0:0:
395,295,79611,1,8,0:0:0:0:
451,67,79793,1,0,0:0:0:0:
307,111,79975,1,2,0:0:0:0:
319,155,80066,1,2,0:0:0:0:
331,199,80157,1,2,0:0:0:0:
367,363,80339,5,8,0:0:0:0:
195,299,80520,1,2,0:0:0:0:
183,255,80611,1,2,0:0:0:0:
171,211,80702,1,10,0:0:0:0:
43,319,80884,1,2,0:0:0:0:
78,171,81066,2,0,P|131:123|196:117,1,135.000005149842,8|2,0:0|0:0,0:0:0:0:
221,98,81339,1,2,0:0:0:0:
248,78,81430,1,2,0:0:0:0:
363,216,81611,5,2,0:0:0:0:
195,299,81793,2,0,B|211:291|245:217|245:217|203:231,1,135.000005149842,8|2,0:0|0:0,0:0:0:0:
119,279,82066,1,2,0:0:0:0:
119,279,82157,2,0,B|103:287|69:361|69:361|119:351,1,135.000005149842,2|12,0:0|0:0,0:0:0:0:
162,352,82430,1,2,0:0:0:0:
221,340,82520,1,2,0:0:0:0:
281,329,82611,1,2,0:0:0:0:
341,318,82702,1,2,0:0:0:0:
451,359,82884,6,0,B|363:359|363:359|341:318,1,135.000005149842,12|0,0:0|0:0,0:0:0:0:
312,211,83248,1,8,0:0:0:0:
147,199,83430,1,2,0:0:0:0:
147,199,83520,1,2,0:0:0:0:
147,199,83611,1,0,0:0:0:0:
157,34,83793,1,0,0:0:0:0:
322,45,83975,1,8,0:0:0:0:
424,174,84157,1,0,0:0:0:0:
271,343,84339,6,0,L|203:350,1,67.5000025749208,12|2,0:0|0:0,0:0:0:0:
375,279,84520,2,0,L|442:271,1,67.5000025749208,2|2,0:0|0:0,0:0:0:0:
251,227,84702,2,0,B|203:179|203:179|138:159,1,135.000005149842,8|2,0:0|0:0,0:0:0:0:
107,183,84975,1,2,0:0:0:0:
82,213,85066,2,0,B|66:188|66:188|36:163,1,67.5000025749208,2|2,0:0|0:0,0:0:0:0:
72,0,85248,2,0,B|88:25|88:25|118:50,1,67.5000025749208,2|2,0:0|0:0,0:0:0:0:
183,95,85430,1,8,0:0:0:0:
247,259,85611,1,2,0:0:0:0:
103,297,85793,5,12,2:0:0:0:
183,95,85975,1,2,2:0:0:0:
316,266,86157,1,2,2:0:0:0:
120,149,86339,5,12,0:0:0:0:
367,349,86520,1,2,0:0:0:0:
412,35,86702,1,2,0:0:0:0:
183,279,86884,5,12,0:0:0:0:
367,171,87066,1,6,0:0:0:0:
301,270,87430,5,10,0:0:0:0:
431,299,87611,1,10,0:0:0:0:
199,179,87793,1,10,0:0:0:0:
71,143,87975,1,10,0:0:0:0:
73,339,88339,5,8,0:0:0:0:
81,317,88430,1,2,0:0:0:0:
91,295,88520,1,2,0:0:0:0:
98,271,88611,1,2,0:0:0:0:
107,249,88702,1,12,0:0:0:0:
