osu file format v14

[General]
AudioFilename: Miku_Hatsune_-_Black_Rock_Shooter_[TV_[mp3clan_con.mp3
AudioLeadIn: 1500
PreviewTime: 59611
Countdown: 0
SampleSet: Soft
StackLeniency: 0.7
Mode: 0
LetterboxInBreaks: 0
WidescreenStoryboard: 0

[Editor]
DistanceSpacing: 1.6
BeatDivisor: 4
GridSize: 4
TimelineZoom: 1.6

[Metadata]
Title:BLACK ROCK SHOOTER
TitleUnicode:ブラック★ロックシューター
Artist:supercell feat. Hatsune Miku
ArtistUnicode:supercell feat. 初音ミク
Creator:-Nya-
Version:Hard
Source:ブラック★ロックシューター
Tags:opening Burakku Rokku Shuta Vocaloid Vocaloid2 tv_size milan- Avishay ryo
BeatmapID:510439
BeatmapSetID:217628

[Difficulty]
HPDrainRate:5
CircleSize:4
OverallDifficulty:6
ApproachRate:7.5
SliderMultiplier:1.4
SliderTickRate:1

[Events]
//Background and Video events
Video,1444,"Black Rock Shooter.avi"
0,0,"BRS.png",0,0
//Break Periods
//Storyboard Layer 0 (Background)
//Storyboard Layer 1 (Fail)
//Storyboard Layer 2 (Pass)
//Storyboard Layer 3 (Foreground)
//Storyboard Sound Samples

[TimingPoints]
1430,363.636363636364,4,2,1,70,1,0
59611,-100,4,2,1,70,0,1
88702,-100,4,2,1,70,0,0

[Colours]
Combo1 : 111,255,255
Combo2 : 0,125,251
Combo3 : 131,131,131
Combo4 : 132,132,255

[HitObjects]
256,68,1430,6,0,P|292:120|268:196,1,140,4|8,0:2|0:0,0:0:0:0:
224,248,1975,1,0,0:0:0:0:
172,304,2157,2,0,P|115:331|43:295,1,140,2|2,0:0|0:0,0:0:0:0:
32,228,2702,5,0,0:0:0:0:
32,228,2884,2,0,B|32:168|32:168|88:160|124:120,1,140,4|8,0:2|0:0,0:0:0:0:
152,76,3430,1,0,0:0:0:0:
200,136,3611,2,0,B|217:158|273:166|273:166|273:226,1,140,2|2,0:0|0:0,0:0:0:0:
340,268,4157,1,0,0:0:0:0:
408,304,4339,6,0,P|356:344|272:308,1,140,4|8,0:2|0:0,0:0:0:0:
240,264,4884,1,0,0:0:0:0:
172,300,5066,2,0,P|164:260|176:220,1,70,2|0,0:0|0:0,0:0:0:0:
192,156,5430,1,2,0:0:0:0:
468,160,5793,5,4,0:2:0:0:
400,16,6157,1,4,0:2:0:0:
256,88,6520,1,4,0:2:0:0:
332,236,6884,1,4,0:2:0:0:
144,160,7248,6,0,P|168:224|144:288,1,140,4|8,0:2|0:0,0:0:0:0:
92,88,7975,1,2,0:0:0:0:
44,160,8157,1,0,0:0:0:0:
144,160,8339,1,2,0:0:0:0:
144,160,8702,6,0,P|168:240|240:280,1,140,4|8,0:2|0:0,0:0:0:0:
416,336,9430,1,2,0:0:0:0:
464,264,9611,1,0,0:0:0:0:
476,180,9793,1,2,0:0:0:0:
464,96,9975,1,0,0:0:0:0:
400,36,10157,6,0,P|364:48|332:88,1,70,8|0,0:3|0:0,0:0:0:0:
236,198,10520,2,0,P|267:183|288:156,1,70,8|0,0:3|0:0,0:0:0:0:
128,196,10884,2,0,P|92:220|76:252,1,70,8|0,0:3|0:0,0:0:0:0:
60,336,11248,1,8,0:3:0:0:
60,336,11430,1,0,0:0:0:0:
176,340,11611,6,0,L|232:276,1,70,4|0,0:3|0:0,0:0:0:0:
320,292,11975,2,0,L|366:344,1,70,4|0,0:3|0:0,0:0:0:0:
468,344,12339,1,4,0:3:0:0:
480,252,12520,1,0,0:0:0:0:
460,160,12702,1,4,0:3:0:0:
408,80,12884,1,0,0:0:0:0:
336,36,13066,1,4,0:2:0:0:
172,64,13430,6,0,P|196:108|164:196,2,140,8|0|2,0:0|0:0|0:0,0:0:0:0:
96,212,14520,2,0,P|136:264|216:252,1,140,0|8,0:0|0:0,0:0:0:0:
284,228,15066,1,0,0:0:0:0:
284,228,15157,1,0,0:0:0:0:
284,228,15248,2,0,P|324:176|328:144,1,70
356,96,15611,1,2,0:0:0:0:
204,24,15975,6,0,B|176:68|196:108|196:108|172:164,1,140,0|8,0:0|0:0,0:0:0:0:
152,228,16520,1,0,0:0:0:0:
84,188,16702,2,0,P|76:232|84:264,2,70,0|0|2,0:0|0:0|0:0,0:0:0:0:
112,116,17248,1,0,0:0:0:0:
160,56,17430,2,0,P|220:72|308:48,1,140,0|8,0:0|0:0,0:0:0:0:
356,104,17975,1,0,0:0:0:0:
356,104,18157,2,0,P|340:164|364:252,1,140,0|2,0:0|0:0,0:0:0:0:
388,308,18702,1,0,0:0:0:0:
360,332,18793,1,0,0:0:0:0:
332,352,18884,1,4,0:2:0:0:
124,368,19248,6,0,P|88:364|44:264,1,140,8|0,0:0|0:0,0:0:0:0:
88,220,19793,1,0,0:0:0:0:
144,168,19975,1,2,0:0:0:0:
268,84,20339,1,0,0:0:0:0:
268,84,20702,2,0,P|312:100|360:88,1,70,8|0,0:0|0:0,0:0:0:0:
404,80,21066,2,0,P|379:143|404:207,1,140,0|2,0:0|0:0,0:0:0:0:
264,324,21793,6,0,L|176:356,1,70,8|0,0:3|0:0,0:0:0:0:
128,260,22157,2,0,P|104:220|112:172,1,70,8|0,0:3|0:0,0:0:0:0:
216,188,22520,2,0,P|240:148|232:100,1,70,8|0,0:3|0:0,0:0:0:0:
240,12,22884,2,0,L|174:35,1,70,8|0,0:3|0:0,0:0:0:0:
68,76,23248,6,0,P|48:136|52:216,1,140,8|8,0:3|0:3,0:3:0:0:
96,280,23793,1,0,0:0:0:0:
96,280,23884,1,0,0:0:0:0:
96,280,23975,2,0,B|160:296|160:296|144:328|160:372,1,140,0|8,0:0|0:0,0:0:0:0:
236,364,24520,1,0,0:0:0:0:
268,352,24611,1,0,0:0:0:0:
296,332,24702,1,4,0:2:0:0:
336,200,25066,6,0,B|360:152|316:100|344:52,1,140,8|0,0:0|0:0,0:0:0:0:
412,112,25611,1,0,0:0:0:0:
480,148,25793,2,0,P|484:76|420:36,2,140,2|0|8,0:0|0:0|0:0,0:0:0:0:
428,208,26702,1,0,0:0:0:0:
428,208,26793,1,0,0:0:0:0:
428,208,26884,2,0,B|364:240|364:240|288:240,1,140,0|2,0:0|0:0,0:0:0:0:
88,204,27611,6,0,B|152:172|152:172|228:172,1,140,0|8,0:0|0:0,0:0:0:0:
288,132,28157,1,0,0:0:0:0:
344,184,28339,2,0,P|364:124|316:60,1,140,0|2,0:0|0:0,0:0:0:0:
184,16,29066,6,0,P|144:71|164:136,1,140,0|2,0:0|0:0,0:0:0:0:
208,200,29611,1,0,0:0:0:0:
160,260,29793,1,0,0:0:0:0:
84,240,29975,1,0,0:0:0:0:
27,291,30157,2,0,P|9:261|9:227,1,70,2|0,0:0|0:0,0:0:0:0:
16,192,30430,1,0,0:0:0:0:
16,192,30520,1,4,0:2:0:0:
36,32,30884,5,8,0:0:0:0:
112,32,31066,2,0,B|164:52|208:32|208:32|256:56,1,140
316,80,31611,2,0,P|304:120|344:220,1,140,2|0,0:0|0:0,0:0:0:0:
240,340,32339,1,8,0:0:0:0:
240,340,32520,2,0,P|308:324|380:340,1,140
447,365,33066,1,2,0:0:0:0:
460,176,33430,5,8,0:3:0:0:
348,68,33793,1,8,0:3:0:0:
320,220,34157,1,8,0:3:0:0:
196,128,34520,1,8,0:3:0:0:
196,128,34884,6,0,P|172:88|172:36,2,70,0|8|8,0:0|0:3|0:0,0:0:0:0:
256,176,35430,1,8,0:3:0:0:
240,252,35611,2,0,P|200:276|148:276,1,70,0|8,0:0|0:3,0:0:0:0:
100,280,35975,1,8,0:0:0:0:
28,252,36157,1,8,0:3:0:0:
16,168,36339,6,0,P|88:164|136:104,1,140,4|8,0:2|0:0,0:0:0:0:
196,76,36884,1,0,0:0:0:0:
264,116,37066,2,0,P|311:165|379:167,1,140,2|8,0:0|0:0,0:0:0:0:
260,264,37793,2,0,P|195:242|133:272,1,140,0|8,0:0|0:0,0:0:0:0:
64,304,38339,1,0,0:0:0:0:
64,304,38520,1,2,0:0:0:0:
12,128,38884,1,8,0:0:0:0:
156,44,39248,6,0,P|140:80|140:116,1,70,2|0,0:2|0:0,0:0:0:0:
220,128,39611,2,0,P|236:164|236:200,1,70,2|0,0:2|0:0,0:0:0:0:
164,240,39975,1,2,0:2:0:0:
236,284,40157,1,0,0:3:0:0:
308,244,40339,1,2,0:2:0:0:
420,96,40702,6,0,P|392:120|384:164,1,70,8|0,0:3|0:0,0:0:0:0:
460,160,41066,1,8,0:0:0:0:
500,224,41248,2,0,L|432:288,1,70,8|0,0:3|0:0,0:0:0:0:
392,324,41611,1,0,0:0:0:0:
320,292,41793,1,8,0:3:0:0:
320,292,42157,6,0,B|264:252|264:252|292:212|284:176,1,140,4|8,0:2|0:0,0:0:0:0:
264,112,42702,1,0,0:0:0:0:
200,68,42884,2,0,P|264:32|328:68,1,140,2|8,0:0|0:0,0:0:0:0:
424,144,43611,5,2,0:2:0:0:
344,268,43975,1,2,0:2:0:0:
496,268,44339,1,2,0:2:0:0:
352,184,44702,1,2,0:2:0:0:
216,68,45066,6,0,B|204:136|204:136|124:176,1,140,8|8,0:3|0:0,0:0:0:0:
72,216,45611,2,0,P|80:264|56:356,1,140,8|0,0:3|0:0,0:0:0:0:
144,364,46157,2,0,L|220:340,1,70,8|0,0:3|0:0,0:0:0:0:
300,304,46520,1,0,0:0:0:0:
376,340,46702,1,0,0:0:0:0:
364,252,46884,1,8,0:0:0:0:
440,288,47066,1,0,0:0:0:0:
432,204,47248,2,0,L|380:140,1,70,4|4,0:2|0:2,0:0:0:0:
340,72,47611,1,8,0:0:0:0:
324,84,47702,1,0,0:0:0:0:
308,96,47793,1,0,0:0:0:0:
292,108,47884,1,0,0:0:0:0:
276,120,47975,6,0,P|200:132|184:212,1,140,4|0,0:2|0:0,0:0:0:0:
172,260,48520,1,0,0:0:0:0:
96,260,48702,2,0,P|32:224|44:140,1,140,2|0,0:0|0:0,0:0:0:0:
28,320,49430,6,0,L|92:360,1,70,2|0,0:2|0:0,0:0:0:0:
164,356,49793,2,0,L|223:318,1,70,2|0,0:2|0:0,0:0:0:0:
220,240,50157,2,0,P|260:248|284:268,1,70,2|0,0:2|0:0,0:0:0:0:
352,300,50520,2,0,P|356:336|380:372,1,70,2|0,0:0|0:0,0:0:0:0:
456,352,50884,6,0,P|424:288|460:216,1,140,8|0,0:0|0:0,0:0:0:0:
504,176,51430,1,0,0:0:0:0:
504,176,51611,2,0,L|420:56,1,140,2|0,0:0|0:0,0:0:0:0:
348,40,52157,1,0,0:0:0:0:
288,88,52339,2,0,B|264:144|336:180|276:244,1,140,8|0,0:0|0:0,0:0:0:0:
250,288,52884,1,0,0:0:0:0:
192,340,53066,2,0,P|120:332|72:272,1,140,2|0,0:0|0:0,0:0:0:0:
92,136,53793,5,4,0:2:0:0:
228,208,54157,1,0,0:0:0:0:
212,56,54520,1,8,0:0:0:0:
148,196,54884,1,2,0:0:0:0:
300,120,55248,6,0,P|344:92|356:56,1,70,8|0,0:0|0:0,0:0:0:0:
436,76,55611,2,0,P|456:104|487:118,1,70
428,180,55975,2,0,P|376:173|343:193,1,70,8|0,0:0|0:0,0:0:0:0:
300,236,56339,1,2,0:0:0:0:
300,236,56702,6,0,P|216:124|292:8,1,280,4|8,0:2|0:0,0:0:0:0:
356,48,57611,1,0,0:0:0:0:
408,112,57793,1,4,0:2:0:0:
300,236,58157,1,4,0:2:0:0:
256,192,58248,12,0,59248,0:0:0:0:
116,32,59611,22,0,P|80:92|108:160,1,140,4|8,0:2|0:0,0:0:0:0:
168,192,60157,1,0,0:0:0:0:
192,220,60248,1,0,0:0:0:0:
216,244,60339,2,0,P|252:304|224:372,1,140,2|8,0:0|0:0,0:0:0:0:
400,364,61066,2,0,P|378:299|414:242,1,140,0|8,0:0|0:0,0:0:0:0:
452,176,61611,1,0,0:0:0:0:
408,112,61793,2,0,L|300:12,1,140,2|8,0:0|0:0,0:0:0:0:
228,28,62339,1,0,0:0:0:0:
232,104,62520,6,0,P|264:116|292:148,1,70,2|0,0:2|0:0,0:0:0:0:
328,236,62884,2,0,P|304:261|271:273,1,70,2|0,0:2|0:0,0:0:0:0:
176,320,63248,2,0,P|145:302|123:275,1,70,2|0,0:2|0:0,0:0:0:0:
64,184,63611,2,0,P|40:158|7:146,1,70,2|0,0:2|0:0,0:0:0:0:
36,76,63975,6,0,P|68:88|108:124,1,70,4|0,0:2|0:0,0:0:0:0:
160,152,64339,1,4,0:2:0:0:
224,192,64520,1,0,0:0:0:0:
272,252,64702,2,0,P|296:220|300:180,1,70,4|0,0:2|0:0,0:0:0:0:
228,120,65066,1,4,0:2:0:0:
160,228,65248,1,0,0:0:0:0:
272,252,65430,6,0,P|304:316|276:376,1,140,4|8,0:2|0:0,0:0:0:0:
228,316,65975,1,0,0:0:0:0:
228,316,66066,1,0,0:0:0:0:
228,316,66157,2,0,L|372:316,1,140,2|8,0:2|0:0,0:0:0:0:
372,240,66702,1,0,0:0:0:0:
360,164,66884,2,0,B|316:172|300:212|300:212|228:212,1,140,0|8,0:0|0:0,0:0:0:0:
184,160,67430,1,0,0:0:0:0:
136,220,67611,2,0,P|160:283|134:346,1,140,2|8,0:0|0:0,0:0:0:0:
452,348,68339,6,0,P|425:285|449:221,1,140,2|8,0:0|0:0,0:0:0:0:
500,152,68884,1,4,0:2:0:0:
500,152,69248,1,4,0:2:0:0:
308,28,69611,2,0,P|256:16|236:88,1,140,4|0,0:2|0:0,0:0:0:0:
252,160,70157,1,2,0:2:0:0:
252,160,70339,1,0,0:0:0:0:
256,236,70520,2,0,P|292:224|316:200,1,70,2|0,0:2|0:0,0:0:0:0:
280,304,70884,2,0,P|240:308|200:280,1,70,2|0,0:2|0:0,0:0:0:0:
176,228,71248,6,0,P|112:228|56:176,1,140,4|8,0:2|0:0,0:0:0:0:
28,108,71793,1,0,0:0:0:0:
100,84,71975,2,0,P|167:92|213:143,1,140,2|8,0:0|0:0,0:0:0:0:
364,100,72702,2,0,P|324:148|356:220,1,140,0|8,0:0|0:0,0:0:0:0:
424,232,73248,1,0,0:0:0:0:
424,232,73430,2,0,P|464:284|439:346,1,140,2|8,0:0|0:0,0:0:0:0:
136,324,74157,6,0,L|96:256,1,70,2|0,0:2|0:0,0:0:0:0:
160,168,74520,2,0,L|200:100,1,70,2|0,0:2|0:0,0:0:0:0:
220,8,74884,2,0,P|256:20|284:64,1,70,2|0,0:2|0:0,0:0:0:0:
392,104,75248,2,0,P|360:128|352:160,1,70,2|0,0:2|0:0,0:0:0:0:
464,232,75611,6,0,P|455:198|429:176,1,70,4|0,0:2|0:0,0:0:0:0:
352,156,75975,1,8,0:0:0:0:
288,212,76157,1,0,0:0:0:0:
220,156,76339,2,0,P|188:180|180:212,1,70,4|0,0:2|0:0,0:0:0:0:
156,288,76702,1,8,0:0:0:0:
156,288,76793,1,0,0:0:0:0:
156,288,76884,1,0,0:0:0:0:
84,144,77066,6,0,P|104:208|56:280,1,140,4|8,0:2|0:0,0:0:0:0:
20,201,77611,2,0,L|172:201,1,140
228,236,78157,1,2,0:0:0:0:
308,68,78520,1,4,0:2:0:0:
496,112,78884,2,0,P|504:76|500:36,2,70,8|0|0,0:0|0:0|0:0,0:0:0:0:
468,184,79430,1,0,0:0:0:0:
416,240,79611,1,2,0:0:0:0:
444,312,79793,1,0,0:0:0:0:
376,352,79975,6,0,L|288:312,1,70,8|0,0:3|0:3,0:0:0:0:
244,292,80339,1,8,0:0:0:0:
168,284,80520,2,0,P|180:248|228:220,1,70,8|0,0:3|0:0,0:0:0:0:
264,180,80884,1,0,0:0:0:0:
264,180,81066,1,2,0:0:0:0:
324,124,81248,6,0,P|264:96|200:128,1,140,8|0,0:3|0:0,0:0:0:0:
136,84,81793,1,8,0:0:0:0:
60,96,81975,2,0,P|73:128|103:152,1,70
172,180,82339,6,0,L|204:204,1,35,8|8,0:3|0:3,0:0:0:0:
216,236,82520,2,0,L|248:260,1,35,8|8,0:3|0:3,0:0:0:0:
260,292,82702,2,0,L|292:316,1,35,8|8,0:3|0:3,0:0:0:0:
324,332,82884,6,0,P|392:316|440:260,1,140,4|8,0:2|0:0,0:0:0:0:
444,188,83430,2,0,P|397:137|330:121,1,140,4|0,0:2|0:0,0:0:0:0:
256,132,83975,2,0,P|228:152|176:144,1,70,8|0,0:0|0:0,0:0:0:0:
120,132,84339,2,0,P|72:100|72:16,2,140,0|4|0,0:0|0:2|0:0,0:0:0:0:
236,256,85430,1,2,0:0:0:0:
56,88,85793,5,4,0:2:0:0:
56,168,85975,2,0,L|56:244,1,70
140,328,86339,1,4,0:2:0:0:
224,328,86520,2,0,L|312:328,1,70
416,276,86884,1,4,0:2:0:0:
416,276,87066,1,0,0:0:0:0:
404,112,87430,5,4,0:2:0:0:
344,64,87611,1,0,0:0:0:0:
268,52,87793,1,4,0:2:0:0:
196,72,87975,2,0,P|144:116|124:192,1,140
256,192,88702,5,4,0:2:0:0:
