osu file format v14

[General]
AudioFilename: Miku_Hatsune_-_Black_Rock_Shooter_[TV_[mp3clan_con.mp3
AudioLeadIn: 1500
PreviewTime: 59611
Countdown: 0
SampleSet: Soft
StackLeniency: 0.7
Mode: 0
LetterboxInBreaks: 0
WidescreenStoryboard: 0

[Editor]
DistanceSpacing: 1
BeatDivisor: 4
GridSize: 4
TimelineZoom: 1

[Metadata]
Title:BLACK ROCK SHOOTER
TitleUnicode:ブラック★ロックシューター
Artist:supercell feat. Hatsune Miku
ArtistUnicode:supercell feat. 初音ミク
Creator:-Nya-
Version:Easy
Source:ブラック★ロックシューター
Tags:opening Burakku Rokku Shuta Vocaloid Vocaloid2 tv_size milan- Avishay ryo
BeatmapID:510541
BeatmapSetID:217628

[Difficulty]
HPDrainRate:2
CircleSize:3
OverallDifficulty:2
ApproachRate:3
SliderMultiplier:0.8
SliderTickRate:1

[Events]
//Background and Video events
Video,1444,"Black Rock Shooter.avi"
0,0,"BRS.png",0,0
//Break Periods
//Storyboard Layer 0 (Background)
//Storyboard Layer 1 (Fail)
//Storyboard Layer 2 (Pass)
//Storyboard Layer 3 (Foreground)
//Storyboard Sound Samples

[TimingPoints]
1430,363.636363636364,4,2,1,70,1,0
59611,-100,4,2,1,70,0,1
88702,-100,4,2,1,70,0,0

[Colours]
Combo1 : 111,255,255
Combo2 : 0,125,251
Combo3 : 131,131,131
Combo4 : 132,132,255

[HitObjects]
72,112,1430,6,0,P|92:200|232:268,1,240,4|2,0:2|0:0,0:0:0:0:
296,268,2884,2,0,P|402:221|439:110,1,240,0|2,0:0|0:0,0:0:0:0:
364,76,4339,2,0,P|256:124|144:72,1,240,0|2,0:0|0:0,0:0:0:0:
80,120,5793,6,0,P|92:168|84:208,1,80,4|2,0:2|0:0,0:0:0:0:
152,248,6520,2,0,P|190:255|230:248,1,80,4|2,0:2|0:0,0:0:0:0:
236,168,7248,2,0,B|288:160|356:192|356:192|420:168|480:172,1,240,4|2,0:2|0:0,0:0:0:0:
476,252,8702,2,0,P|408:260|264:372,1,240,2|0,0:2|0:0,0:0:0:0:
188,356,10157,5,4,0:2:0:0:
28,356,10884,1,0,0:0:0:0:
108,216,11611,1,4,0:2:0:0:
100,56,12339,2,0,P|184:76|244:140,1,160,0|4,0:0|0:2,0:0:0:0:
276,196,13430,5,0,0:0:0:0:
288,276,13793,2,0,P|356:196|344:152,2,160,0|2|0,0:0|0:0|0:0,0:0:0:0:
208,288,15611,1,0,0:0:0:0:
148,232,15975,6,0,P|108:212|56:220,1,80
16,268,16702,2,0,B|-16:232|-12:184|24:152|24:152|24:108,1,160,2|0,0:0|0:0,0:0:0:0:
84,72,17793,1,0,0:0:0:0:
160,48,18157,2,0,P|192:68|312:40,1,160,2|4,0:0|0:2,0:0:0:0:
380,12,19248,6,0,P|356:52|380:168,1,160
308,208,20339,2,0,P|235:178|162:206,1,160,2|0,0:0|0:0,0:0:0:0:
112,268,21430,1,0,0:0:0:0:
48,220,21793,6,0,L|-8:144,1,80,4|0,0:2|0:0,0:0:0:0:
40,84,22520,2,0,B|76:52|100:32|100:32|140:48|176:64,1,160,2|4,0:0|0:2,0:0:0:0:
248,96,23611,1,2,0:0:0:0:
324,68,23975,2,0,B|358:52|398:36|398:36|422:56|458:88,1,160,2|4,0:0|0:2,0:0:0:0:
484,164,25066,6,0,B|448:220|512:280|472:332,1,160
404,348,26157,2,0,P|372:360|240:348,2,160,2|0|0,0:0|0:0|0:0,0:0:0:0:
440,276,27975,5,0,0:0:0:0:
452,196,28339,1,2,0:0:0:0:
344,80,29066,2,0,P|300:148|300:240,1,160,0|2,0:0|0:0,0:0:0:0:
336,296,30157,1,0,0:0:0:0:
264,332,30520,2,0,P|220:344|180:332,1,80,4|0,0:2|0:0,0:0:0:0:
136,272,31248,5,0,0:0:0:0:
84,212,31611,1,0,0:0:0:0:
40,144,31975,2,0,B|8:104|8:104|64:84|88:24,1,160,2|0,0:0|0:0,0:0:0:0:
164,20,33066,1,0,0:0:0:0:
244,12,33430,6,0,P|321:20|372:79,1,160,4|2,0:2|0:0,0:0:0:0:
336,152,34520,1,0,0:0:0:0:
284,216,34884,2,0,P|207:202|161:138,1,160,4|2,0:2|0:0,0:0:0:0:
140,60,35975,1,0,0:0:0:0:
68,24,36339,6,0,B|36:76|96:128|52:192,1,160,4|0,0:2|0:0,0:0:0:0:
112,332,37793,2,0,P|188:288|208:212,1,160,2|0,0:0|0:0,0:0:0:0:
236,148,38884,1,0,0:0:0:0:
224,68,39248,6,0,P|292:88|312:172,2,160,2|0|4,0:0|0:0|0:2,0:0:0:0:
144,80,41066,1,2,0:0:0:0:
72,116,41430,2,0,L|12:176,1,80
72,232,42157,6,0,B|112:191|140:168|140:168|216:168,1,160,4|0,0:2|0:0,0:0:0:0:
352,96,43611,2,0,P|372:172|348:256,1,160,2|0,0:0|0:0,0:0:0:0:
312,320,44702,1,0,0:0:0:0:
232,320,45066,6,0,P|192:312|184:80,1,320,4|0,0:2|0:0,0:0:0:0:
224,28,46884,2,0,P|240:48|248:100,1,80
244,180,47611,1,0,0:0:0:0:
280,252,47975,6,0,P|304:284|340:304,1,80,4|0,0:2|0:0,0:0:0:0:
420,308,48702,2,0,P|484:264|480:180,1,160,0|2,0:0|0:0,0:0:0:0:
428,128,49793,2,0,P|397:102|380:66,1,80
304,44,50520,1,0,0:0:0:0:
228,68,50884,6,0,P|194:137|231:205,1,160,4|0,0:2|0:0,0:0:0:0:
392,220,52339,2,0,P|376:296|316:356,1,160,2|4,0:0|0:2,0:0:0:0:
168,308,53793,6,0,P|152:268|156:216,1,80,2|0,0:0|0:0,0:0:0:0:
172,152,54520,1,0,0:0:0:0:
220,88,54884,1,0,0:0:0:0:
300,72,55248,2,0,P|308:120|408:172,1,160,2|0,0:0|0:0,0:0:0:0:
436,104,56339,1,0,0:0:0:0:
480,172,56702,6,0,P|450:321|305:369,1,320,4|4,0:2|0:2,0:0:0:0:
172,72,59611,6,0,P|196:104|236:120,1,80,4|0,0:2|0:0,0:0:0:0:
312,132,60339,2,0,P|260:196|184:188,1,160,8|0,0:2|0:0,0:0:0:0:
111,169,61430,1,0,0:0:0:0:
36,140,61793,2,0,P|64:104|104:88,1,80,8|0,0:2|0:0,0:0:0:0:
172,68,62520,1,0,0:0:0:0:
252,56,62884,6,0,P|277:86|314:100,1,80,0|8,0:0|0:2,0:0:0:0:
324,180,63611,1,0,0:0:0:0:
280,248,63975,2,0,P|204:228|120:256,2,160,4|8|4,0:2|0:2|0:2,0:0:0:0:
320,320,65793,1,0,0:0:0:0:
400,320,66157,6,0,P|420:244|400:160,1,160,8|0,0:2|0:0,0:0:0:0:
360,96,67248,1,0,0:0:0:0:
318,166,67611,2,0,P|300:243|320:320,1,160,8|0,0:2|0:0,0:0:0:0:
244,348,68702,6,0,P|188:312|120:320,1,120
72,264,69611,2,0,P|32:132|128:44,1,280,4|0,0:0|0:0,0:0:0:0:
204,64,71248,6,0,P|240:76|268:124,1,80,4|0,0:2|0:0,0:0:0:0:
280,188,71975,2,0,P|272:228|232:260,1,80,8|0,0:2|0:0,0:0:0:0:
168,280,72702,2,0,P|116:276|36:208,1,160,2|8,0:0|0:2,0:0:0:0:
44,128,73793,1,0,0:0:0:0:
104,72,74157,6,0,P|152:88|264:64,1,160,4|8,0:2|0:2,0:0:0:0:
332,40,75248,1,0,0:0:0:0:
400,84,75611,2,0,P|372:156|384:244,1,160,4|8,0:2|0:2,0:0:0:0:
420,308,76702,1,0,0:0:0:0:
352,352,77066,6,0,P|284:336|196:352,1,160,4|8,0:2|0:2,0:0:0:0:
116,336,78157,2,0,P|84:312|68:264,1,80,0|2,0:0|0:0,0:0:0:0:
72,196,78884,1,0,0:0:0:0:
72,116,79248,2,0,P|112:124|144:168,1,80,8|0,0:2|0:0,0:0:0:0:
256,192,79975,12,4,81430,0:2:0:0:
136,300,82884,5,4,0:2:0:0:
296,276,83611,2,0,P|333:259|360:221,1,80
284,196,84339,1,2,0:2:0:0:
128,160,85066,1,0,0:0:0:0:
256,64,85793,6,0,P|316:60|372:96,2,120,4|4|4,0:2|0:2|0:2,0:0:0:0:
288,180,87430,2,0,P|236:220|172:224,1,120,0|4,0:0|0:0,0:0:0:0:
104,212,88339,1,4,0:0:0:0:
56,148,88702,5,4,0:2:0:0:
