osu file format v13

[General]
AudioFilename: MELT.mp3
AudioLeadIn: 0
PreviewTime: 61036
Countdown: 0
SampleSet: Soft
StackLeniency: 0.7
Mode: 0
LetterboxInBreaks: 1
WidescreenStoryboard: 0

[Editor]
DistanceSpacing: 1.8
BeatDivisor: 4
GridSize: 8
TimelineZoom: 1

[Metadata]
Title:Melt 3M MIX
TitleUnicode:Melt 3M MIX
Artist:supercell feat. Gazelle
ArtistUnicode:supercell feat. Gazelle
Creator:Moway
Version:Insane
Source:
Tags:yanaginagi hatsune miku vocaloid utaite nico douga nnd
BeatmapID:505952
BeatmapSetID:215438

[Difficulty]
HPDrainRate:6.5
CircleSize:4.1
OverallDifficulty:7.5
ApproachRate:9.1
SliderMultiplier:1.8
SliderTickRate:1

[Events]
//Background and Video events
0,0,"bg.jpg",0,0
//Break Periods
2,90683,98570
//Storyboard Layer 0 (Background)
//Storyboard Layer 1 (Fail)
//Storyboard Layer 2 (Pass)
//Storyboard Layer 3 (Foreground)
//Storyboard Sound Samples
//Background Colour Transformations
3,100,163,162,255

[TimingPoints]
14448.2494469357,352.941176470588,4,2,0,100,1,0
25742,-111.111111111111,4,2,0,100,0,0
48330,-125,4,2,0,100,0,0
62448,-100,4,2,0,100,0,1
73389,-100,4,2,0,100,0,0
73742,-100,4,2,0,100,0,1
90683,-100,4,2,0,100,0,0
102330,-125,4,2,0,100,0,0
110448,-111.111111111111,4,2,0,100,0,0
124565,-125,4,2,0,100,0,0
138683,-100,4,2,0,100,0,1
149624,-100,4,2,0,100,0,0
149977,-100,4,2,0,100,0,1
166212,-100,4,2,0,100,0,0

[Colours]
Combo1 : 255,255,128
Combo2 : 80,200,240
Combo3 : 255,128,0
Combo4 : 0,128,192

[HitObjects]
419,241,14448,6,0,P|351:264|248:221,1,180
176,160,14977,1,0,0:0:0:0:
120,256,15154,2,0,L|129:357,1,90
258,161,15507,2,0,L|266:71,1,90
40,93,15860,6,0,P|10:135|46:257,2,180,0|0|0,0:0|0:0|0:0,0:0:0:0:
146,117,16742,1,0,0:0:0:0:
224,74,16918,2,0,L|325:72,1,90
431,218,17271,6,0,L|341:219,1,90
238,145,17624,1,0,0:0:0:0:
162,194,17801,1,0,0:0:0:0:
162,194,17889,1,0,0:0:0:0:
162,194,17977,2,0,P|148:250|160:292,1,90
238,145,18330,2,0,P|252:89|240:47,1,90
155,118,18683,5,0,0:0:0:0:
238,236,18860,1,0,0:0:0:0:
409,81,19036,1,0,0:0:0:0:
493,179,19212,2,0,P|499:226|485:272,1,90
467,291,19477,1,0,0:0:0:0:
441,309,19565,1,0,0:0:0:0:
224,315,19742,2,0,P|176:308|116:314,1,90
294,247,20095,6,0,P|329:192|323:73,1,180
165,46,20624,1,0,0:0:0:0:
96,134,20801,2,0,L|127:227,1,90
67,303,21154,2,0,P|109:322|151:316,1,90
284,253,21507,5,0,0:0:0:0:
304,147,21683,1,0,0:0:0:0:
202,183,21860,1,0,0:0:0:0:
218,306,22036,1,0,0:0:0:0:
393,215,22212,2,0,P|400:170|395:124,1,90
239,38,22565,2,0,P|232:83|237:129,1,90
338,95,22918,5,0,0:0:0:0:
149,49,23095,1,0,0:0:0:0:
97,223,23271,1,0,0:0:0:0:
239,113,23448,1,0,0:0:0:0:
78,147,23624,1,0,0:0:0:0:
266,198,23801,1,0,0:0:0:0:
70,66,23977,1,0,0:0:0:0:
187,262,24154,1,0,0:0:0:0:
287,39,24330,6,0,P|319:70|321:132,1,90
316,328,24683,2,0,L|325:381,2,45,0|0|0,0:0|0:0|0:0,0:0:0:0:
203,175,25036,1,0,0:0:0:0:
167,173,25124,1,0,0:0:0:0:
131,172,25212,1,0,0:0:0:0:
94,171,25301,1,0,0:0:0:0:
58,171,25389,1,0,0:0:0:0:
187,262,25565,1,0,0:0:0:0:
351,60,25742,6,0,P|384:77|416:133,1,80.9999975280763
292,243,26095,2,0,P|290:205|322:150,1,80.9999975280763
465,268,26448,2,0,P|426:312|350:313,1,121.499996292114
334,313,26801,2,0,P|295:307|252:313,1,80.9999975280763
130,337,27154,5,0,0:0:0:0:
45,208,27330,1,0,0:0:0:0:
199,199,27507,1,0,0:0:0:0:
70,283,27683,1,0,0:0:0:0:
70,283,27771,1,0,0:0:0:0:
70,283,27860,2,0,P|47:291|29:308,2,40.4999987640381,0|0|0,0:0|0:0|0:0,0:0:0:0:
223,332,28212,2,0,L|236:377,2,40.4999987640381,0|0|0,0:0|0:0|0:0,0:0:0:0:
318,199,28565,6,0,P|387:214|447:304,1,161.999995056153
222,319,29095,1,0,0:0:0:0:
165,247,29271,2,0,P|156:203|160:163,1,80.9999975280763
222,124,29536,1,0,0:0:0:0:
222,124,29624,2,0,P|231:168|227:208,1,80.9999975280763
95,122,29977,5,0,0:0:0:0:
191,47,30154,1,0,0:0:0:0:
77,224,30330,1,0,0:0:0:0:
99,29,30507,1,0,0:0:0:0:
174,188,30683,2,0,P|221:202|259:194,1,80.9999975280763
279,190,30948,1,0,0:0:0:0:
302,174,31036,1,0,0:0:0:0:
382,64,31212,1,0,0:0:0:0:
385,225,31389,6,0,L|380:308,1,80.9999975280763
303,258,31742,1,0,0:0:0:0:
471,176,31918,1,0,0:0:0:0:
471,176,32007,1,0,0:0:0:0:
471,176,32095,2,0,L|466:259,1,80.9999975280763
299,335,32448,2,0,L|246:344,2,40.4999987640381,0|0|0,0:0|0:0|0:0,0:0:0:0:
415,324,32801,6,0,P|458:327|505:336,1,80.9999975280763
303,258,33154,1,0,0:0:0:0:
380,199,33330,1,0,0:0:0:0:
380,199,33418,1,0,0:0:0:0:
380,199,33507,2,0,P|376:153|379:117,1,80.9999975280763
212,47,33860,2,0,P|216:93|213:129,1,80.9999975280763
130,89,34212,5,0,0:0:0:0:
293,41,34389,1,0,0:0:0:0:
154,183,34565,2,0,L|237:161,1,80.9999975280763
441,135,34918,2,0,P|434:190|338:242,1,161.999995056153
334,134,35448,1,0,0:0:0:0:
334,134,35624,5,0,0:0:0:0:
326,51,35801,1,0,0:0:0:0:
252,142,35977,1,0,0:0:0:0:
245,20,36154,1,0,0:0:0:0:
296,209,36330,1,0,0:0:0:0:
401,84,36506,1,0,0:0:0:0:
188,86,36683,1,0,0:0:0:0:
405,177,36859,1,0,0:0:0:0:
172,166,37036,6,0,L|151:249,1,80.9999975280763
258,172,37389,1,0,0:0:0:0:
104,102,37565,1,0,0:0:0:0:
104,102,37654,1,0,0:0:0:0:
104,102,37742,2,0,L|83:185,1,80.9999975280763
184,320,38095,2,0,P|141:301|93:306,1,80.9999975280763
274,273,38448,6,0,P|317:292|365:287,1,80.9999975280763,0|0,0:0|0:0,0:0:0:0:
428,172,38801,1,0,0:0:0:0:
451,299,38977,1,0,0:0:0:0:
451,299,39065,1,0,0:0:0:0:
451,299,39154,2,0,L|463:353,2,40.4999987640381,0|0|0,0:0|0:0|0:0,0:0:0:0:
366,118,39507,2,0,L|378:64,2,40.4999987640381,0|0|0,0:0|0:0|0:0,0:0:0:0:
257,193,39860,6,0,P|204:197|88:125,1,161.999995056153
22,173,40389,1,0,0:0:0:0:
102,47,40565,1,0,0:0:0:0:
242,101,40742,1,0,0:0:0:0:
242,101,40830,1,0,0:0:0:0:
242,101,40918,2,0,L|334:78,1,80.9999975280763
189,248,41271,5,0,0:0:0:0:
100,186,41448,1,0,0:0:0:0:
265,165,41624,2,0,L|289:250,1,80.9999975280763
236,346,41977,1,0,0:0:0:0:
366,219,42154,1,0,0:0:0:0:
366,219,42242,1,0,0:0:0:0:
366,219,42330,1,0,0:0:0:0:
189,248,42507,1,0,0:0:0:0:
345,334,42683,6,0,P|408:329|471:253,1,161.999995056153
439,80,43212,1,0,0:0:0:0:
439,80,43301,1,0,0:0:0:0:
439,80,43389,2,0,L|412:163,1,80.9999975280763
317,209,43742,2,0,L|269:222,2,40.4999987640381,0|0|0,0:0|0:0|0:0,0:0:0:0:
492,166,44095,5,0,0:0:0:0:
339,99,44271,1,0,0:0:0:0:
452,244,44448,1,0,0:0:0:0:
339,290,44624,1,0,0:0:0:0:
339,290,44712,1,0,0:0:0:0:
339,290,44801,2,0,P|293:285|255:288,1,80.9999975280763
397,170,45154,1,0,0:0:0:0:
397,170,45242,1,0,0:0:0:0:
397,170,45330,1,0,0:0:0:0:
417,313,45507,5,0,0:0:0:0:
291,197,45683,1,0,0:0:0:0:
468,106,45860,2,0,L|483:196,1,80.9999975280763
338,347,46212,2,0,P|260:360|199:311,1,161.999995056153
219,158,46742,1,0,0:0:0:0:
111,264,46918,5,0,0:0:0:0:
296,230,47095,1,0,0:0:0:0:
296,230,47183,1,0,0:0:0:0:
296,230,47271,2,0,L|387:209,1,80.9999975280763
232,335,47624,1,0,0:0:0:0:
224,307,47712,1,0,0:0:0:0:
215,279,47801,1,0,0:0:0:0:
206,252,47889,1,0,0:0:0:0:
197,225,47977,1,0,0:0:0:0:
254,113,48154,1,0,0:0:0:0:
359,292,48330,6,0,P|409:286|473:210,1,144
276,242,48860,1,0,0:0:0:0:
276,242,49036,2,0,L|264:328,1,72
205,176,49389,2,0,L|193:90,1,72
123,194,49742,5,0,0:0:0:0:
287,159,49918,1,0,0:0:0:0:
138,303,50095,2,0,L|224:291,1,72
436,251,50448,2,0,L|302:231,1,108
293,230,50801,2,0,P|281:275|289:317,1,72
421,158,51154,6,0,P|417:114|339:51,1,144
254,48,51683,1,0,0:0:0:0:
231,152,51860,2,0,L|196:247,1,72
150,93,52212,2,0,L|65:101,1,72
308,134,52565,5,0,0:0:0:0:
138,177,52742,1,0,0:0:0:0:
329,228,52918,2,0,L|257:234,1,72
94,249,53271,1,0,0:0:0:0:
210,321,53448,1,0,0:0:0:0:
213,136,53624,2,0,P|190:166|189:217,1,72
380,294,53977,6,0,P|414:261|389:167,1,144
348,84,54507,1,0,0:0:0:0:
270,147,54683,1,0,0:0:0:0:
329,228,54860,1,0,0:0:0:0:
329,228,54948,1,0,0:0:0:0:
329,228,55036,1,0,0:0:0:0:
198,322,55212,1,0,0:0:0:0:
134,240,55389,6,0,L|214:218,1,72
383,317,55742,2,0,L|313:336,1,72,0|0,0:0|0:0,0:0:0:0:
62,314,56095,2,0,P|37:265|49:191,1,108
57,181,56448,1,0,0:0:0:0:
177,150,56624,2,0,L|228:160,1,36
278,175,56801,6,0,L|363:155,1,72
324,82,57154,2,0,L|409:62,1,72,0|0,0:0|0:0,0:0:0:0:
467,124,57507,2,0,P|485:164|465:264,1,144
400,340,58036,1,0,0:0:0:0:
227,259,58212,5,0,0:0:0:0:
334,256,58389,1,0,0:0:0:0:
334,256,58477,1,0,0:0:0:0:
334,256,58565,1,0,0:0:0:0:
263,371,58742,1,0,0:0:0:0:
142,305,58918,2,0,P|132:265|137:229,1,72
237,94,59271,2,0,P|247:134|242:170,1,72,0|0,0:0|0:0,0:0:0:0:
130,68,59624,5,0,0:0:0:0:
302,16,59801,1,0,0:0:0:0:
160,166,59977,1,0,0:0:0:0:
332,114,60154,1,0,0:0:0:0:
130,68,60330,2,0,L|39:44,1,72
60,49,60860,1,0,0:0:0:0:
5,221,61036,5,0,0:0:0:0:
18,226,61389,1,0,0:0:0:0:
32,228,61742,1,0,0:0:0:0:
46,227,62095,1,0,0:0:0:0:
63,223,62448,6,0,P|99:197|250:194,1,180
324,239,62977,1,0,0:0:0:0:
427,207,63154,2,0,L|444:109,1,90
319,159,63507,1,0,0:0:0:0:
436,286,63683,1,0,0:0:0:0:
272,322,63860,6,0,P|238:284|233:237,1,90
324,239,64212,1,0,0:0:0:0:
167,316,64389,1,0,0:0:0:0:
167,316,64477,1,0,0:0:0:0:
167,316,64565,2,0,P|121:310|70:313,1,90
171,185,64918,2,0,P|217:191|268:188,1,90
140,93,65271,5,0,0:0:0:0:
92,234,65448,1,0,0:0:0:0:
223,118,65624,1,0,0:0:0:0:
223,118,65801,1,0,0:0:0:0:
56,51,65977,2,0,P|49:96|63:137,1,90
288,74,66330,2,0,P|252:45|210:37,1,90
177,229,66683,5,0,0:0:0:0:
303,161,66860,1,0,0:0:0:0:
303,161,66948,1,0,0:0:0:0:
303,161,67036,2,0,P|334:193|339:248,1,90
208,150,67389,1,0,0:0:0:0:
336,44,67565,2,0,L|243:80,1,90,0|0,0:0|0:0,0:0:0:0:
106,131,67918,1,0,0:0:0:0:
72,245,68095,6,0,P|122:249|169:229,1,90
106,131,68448,1,0,0:0:0:0:
91,329,68624,1,0,0:0:0:0:
191,184,68801,1,0,0:0:0:0:
17,296,68977,1,0,0:0:0:0:
219,258,69154,2,0,L|320:255,1,90
405,344,69507,6,0,L|315:346,1,90
396,187,69860,1,0,0:0:0:0:
494,253,70036,2,0,P|506:294|494:343,1,90
322,248,70389,1,0,0:0:0:0:
322,248,70477,1,0,0:0:0:0:
322,248,70565,1,0,0:0:0:0:
479,170,70742,1,0,0:0:0:0:
286,361,70918,6,0,P|234:331|225:217,1,180
294,155,71448,1,0,0:0:0:0:
132,266,71624,1,0,0:0:0:0:
322,248,71801,1,0,0:0:0:0:
322,248,71889,1,0,0:0:0:0:
322,248,71977,1,0,0:0:0:0:
215,98,72154,6,0,P|199:133|202:183,1,90
255,318,72507,1,0,0:0:0:0:
294,155,72683,1,0,0:0:0:0:
392,281,72860,1,0,0:0:0:0:
392,281,72948,1,0,0:0:0:0:
392,281,73036,1,0,0:0:0:0:
199,221,73212,1,0,0:0:0:0:
361,49,73389,1,0,0:0:0:0:
361,49,73742,6,0,P|387:103|366:220,1,180
256,317,74271,1,0,0:0:0:0:
161,237,74448,2,0,L|266:216,1,90
454,297,74801,2,0,L|365:314,1,90
323,131,75154,5,0,0:0:0:0:
408,202,75330,1,0,0:0:0:0:
483,124,75507,2,0,P|513:162|511:206,1,90
328,264,75860,1,0,0:0:0:0:
328,264,75948,1,0,0:0:0:0:
328,264,76036,1,0,0:0:0:0:
401,120,76212,1,0,0:0:0:0:
262,198,76389,1,0,0:0:0:0:
407,281,76565,6,0,P|382:326|343:340,1,90
205,316,76918,1,0,0:0:0:0:
177,174,77095,2,0,P|202:129|241:115,1,90
308,188,77448,1,0,0:0:0:0:
138,246,77624,1,0,0:0:0:0:
172,68,77801,1,0,0:0:0:0:
231,237,77977,5,0,0:0:0:0:
105,166,78154,1,0,0:0:0:0:
105,166,78242,1,0,0:0:0:0:
105,166,78330,2,0,L|203:142,1,90
363,128,78683,1,0,0:0:0:0:
231,237,78860,1,0,0:0:0:0:
271,71,79036,1,0,0:0:0:0:
343,225,79212,1,0,0:0:0:0:
192,144,79389,6,0,P|145:138|94:127,1,90
47,69,79742,1,0,0:0:0:0:
144,216,79918,1,0,0:0:0:0:
307,181,80095,2,0,P|378:170|398:158,1,90
259,97,80448,1,0,0:0:0:0:
190,206,80624,1,0,0:0:0:0:
310,263,80801,6,0,P|316:317|313:355,1,90
213,308,81154,1,0,0:0:0:0:
324,183,81330,1,0,0:0:0:0:
213,308,81507,2,0,L|108:302,1,90
22,125,81860,2,0,L|111:130,1,90
268,130,82212,5,0,0:0:0:0:
106,253,82389,1,0,0:0:0:0:
188,129,82565,1,0,0:0:0:0:
188,258,82742,1,0,0:0:0:0:
122,58,82918,5,0,0:0:0:0:
286,205,83095,1,0,0:0:0:0:
401,113,83271,1,0,0:0:0:0:
265,48,83448,1,0,0:0:0:0:
303,315,83624,5,0,0:0:0:0:
477,76,83801,2,0,L|497:36,2,45,0|0|0,0:0|0:0|0:0,0:0:0:0:
288,157,84154,1,0,0:0:0:0:
447,250,84330,1,0,0:0:0:0:
236,357,84507,1,0,0:0:0:0:
202,368,84595,1,0,0:0:0:0:
166,368,84683,1,0,0:0:0:0:
131,358,84771,1,0,0:0:0:0:
101,336,84860,1,0,0:0:0:0:
80,306,84948,1,0,0:0:0:0:
76,270,85036,6,0,P|99:210|83:90,1,180
173,21,85565,1,0,0:0:0:0:
250,149,85742,2,0,L|360:159,1,90
265,54,86095,1,0,0:0:0:0:
136,125,86271,1,0,0:0:0:0:
215,250,86448,6,0,L|325:260,1,90,0|0,0:0|0:0,0:0:0:0:
126,218,86801,1,0,0:0:0:0:
203,359,86977,1,0,0:0:0:0:
360,323,87154,2,0,P|385:283|381:230,1,90
288,99,87507,2,0,P|263:139|267:192,1,90
407,79,87860,5,0,0:0:0:0:
407,79,88036,1,0,0:0:0:0:
308,235,88212,1,0,0:0:0:0:
308,235,88388,1,0,0:0:0:0:
455,157,88565,5,0,0:0:0:0:
255,173,88742,1,0,0:0:0:0:
394,254,88918,1,0,0:0:0:0:
319,47,89095,1,0,0:0:0:0:
232,271,89271,5,0,0:0:0:0:
407,79,89448,1,0,0:0:0:0:
214,74,89624,1,0,0:0:0:0:
484,252,89801,5,0,0:0:0:0:
256,192,99154,12,0,100389,0:0:0:0:
256,192,100565,12,0,101977,0:0:0:0:
375,120,102330,6,0,L|355:206,1,72
260,288,102683,2,0,L|243:217,1,72,0|0,0:0|0:0,0:0:0:0:
286,150,103036,1,0,0:0:0:0:
172,261,103212,1,0,0:0:0:0:
339,269,103389,2,0,L|414:272,2,72,0|0|0,0:0|0:0|0:0,0:0:0:0:
172,261,104095,1,0,0:0:0:0:
243,110,104448,5,0,0:0:0:0:
243,110,104624,1,0,0:0:0:0:
243,110,104801,2,0,P|273:164|249:241,1,144
93,139,105330,1,0,0:0:0:0:
93,139,105507,2,0,P|130:139|174:126,1,72
108,236,105860,2,0,P|74:233|36:247,1,72
119,333,106212,6,0,P|165:329|261:296,1,144
311,220,106742,1,0,0:0:0:0:
389,271,106918,2,0,L|410:357,1,72
449,160,107271,2,0,L|470:246,1,72
348,140,107624,6,0,P|272:160|159:72,1,216
166,14,108330,2,0,P|166:78|87:205,1,216
16,194,109036,2,0,P|93:209|157:324,1,216
93,356,109742,2,0,P|158:317|301:317,1,216
416,364,110448,5,0,0:0:0:0:
341,48,110977,1,0,0:0:0:0:
341,48,111330,1,0,0:0:0:0:
301,242,111507,1,0,0:0:0:0:
235,117,112036,5,0,0:0:0:0:
422,142,112212,1,0,0:0:0:0:
235,117,112388,1,0,0:0:0:0:
433,62,112565,1,0,0:0:0:0:
310,211,112742,1,0,0:0:0:0:
246,37,112918,1,0,0:0:0:0:
398,226,113095,1,0,0:0:0:0:
398,226,113183,1,0,0:0:0:0:
398,226,113271,6,0,P|406:273|399:310,1,80.9999975280763
322,226,113624,1,0,0:0:0:0:
457,182,113801,1,0,0:0:0:0:
332,330,113977,1,0,0:0:0:0:
222,260,114154,1,0,0:0:0:0:
323,179,114330,2,0,P|344:229|339:271,1,80.9999975280763
239,337,114683,5,0,0:0:0:0:
112,248,114860,1,0,0:0:0:0:
241,165,115036,1,0,0:0:0:0:
172,302,115212,1,0,0:0:0:0:
161,148,115389,1,0,0:0:0:0:
161,148,115477,1,0,0:0:0:0:
161,148,115565,1,0,0:0:0:0:
289,233,115742,2,0,P|338:238|372:228,1,80.9999975280763
463,180,116095,5,0,0:0:0:0:
412,62,116271,1,0,0:0:0:0:
412,62,116360,1,0,0:0:0:0:
412,62,116448,1,0,0:0:0:0:
368,163,116624,1,0,0:0:0:0:
499,95,116801,1,0,0:0:0:0:
330,90,116977,2,0,L|278:87,2,40.4999987640381,0|0|0,0:0|0:0|0:0,0:0:0:0:
499,95,117330,1,0,0:0:0:0:
410,239,117507,6,0,P|378:268|333:274,1,80.9999975280763
172,132,117860,2,0,P|211:140|240:168,1,80.9999975280763
122,299,118212,2,0,L|109:213,1,80.9999975280763
130,53,118565,1,0,0:0:0:0:
300,132,118742,1,0,0:0:0:0:
300,132,118830,1,0,0:0:0:0:
300,132,118918,6,0,P|361:133|446:69,1,161.999995056153
240,217,119448,1,0,0:0:0:0:
240,217,119536,1,0,0:0:0:0:
240,217,119624,2,0,P|179:218|94:154,1,161.999995056153
340,56,120154,1,0,0:0:0:0:
340,56,120242,1,0,0:0:0:0:
340,56,120331,6,0,P|373:120|354:217,1,161.999995056153
172,328,120860,1,0,0:0:0:0:
172,328,120948,1,0,0:0:0:0:
172,328,121037,2,0,P|139:264|158:167,1,161.999995056153
327,279,121565,1,0,0:0:0:0:
327,279,121654,1,0,0:0:0:0:
327,279,121742,6,0,L|426:269,1,80.9999975280763
302,193,122095,1,0,0:0:0:0:
272,352,122271,1,0,0:0:0:0:
485,303,122448,2,0,L|475:204,1,80.9999975280763,0|0,0:0|0:0,0:0:0:0:
377,68,122801,2,0,L|385:148,1,80.9999975280763,0|0,0:0|0:0,0:0:0:0:
250,268,123154,6,0,P|225:280|188:283,1,53.9999983520508
126,264,123389,2,0,P|113:240|109:213,1,53.9999983520508,0|0,0:0|0:0,0:0:0:0:
145,55,123683,1,0,0:0:0:0:
242,151,123860,2,0,P|286:147|322:137,1,80.9999975280763
411,27,124212,2,0,P|367:31|331:41,1,80.9999975280763
212,243,124565,6,0,P|295:239|378:208,1,144,0|0,0:0|0:0,0:0:0:0:
141,166,125095,1,0,0:0:0:0:
127,280,125271,2,0,L|139:356,1,72
234,140,125624,2,0,L|245:68,1,72
141,166,125977,5,0,0:0:0:0:
308,205,126154,1,0,0:0:0:0:
165,77,126330,1,0,0:0:0:0:
207,228,126507,1,0,0:0:0:0:
329,114,126683,2,0,L|367:53,1,72
141,166,127036,1,0,0:0:0:0:
308,205,127212,1,0,0:0:0:0:
308,205,127301,1,0,0:0:0:0:
308,205,127389,6,0,P|314:248|304:284,1,72
130,349,127742,2,0,P|124:306|134:270,1,72,0|0,0:0|0:0,0:0:0:0:
250,112,128095,2,0,P|233:152|207:178,1,72,0|0,0:0|0:0,0:0:0:0:
21,117,128448,2,0,P|64:111|100:121,1,72,0|0,0:0|0:0,0:0:0:0:
305,264,128801,5,0,0:0:0:0:
233,334,128977,1,0,0:0:0:0:
209,235,129154,1,0,0:0:0:0:
363,165,129330,1,0,0:0:0:0:
363,165,129418,1,0,0:0:0:0:
363,165,129507,1,0,0:0:0:0:
338,332,129683,1,0,0:0:0:0:
209,235,129860,2,0,P|152:229|130:229,1,72
373,262,130212,6,0,P|430:268|452:268,1,72,0|0,0:0|0:0,0:0:0:0:
363,165,130565,1,0,0:0:0:0:
297,272,130742,1,0,0:0:0:0:
324,82,130918,1,0,0:0:0:0:
281,193,131095,1,0,0:0:0:0:
169,123,131271,2,0,L|247:119,1,72
403,109,131624,5,0,0:0:0:0:
403,109,131712,1,0,0:0:0:0:
403,109,131801,1,0,0:0:0:0:
281,193,131977,1,0,0:0:0:0:
434,186,132154,1,0,0:0:0:0:
248,119,132330,1,0,0:0:0:0:
415,26,132507,1,0,0:0:0:0:
434,186,132683,1,0,0:0:0:0:
335,257,132860,1,0,0:0:0:0:
335,257,132948,1,0,0:0:0:0:
335,257,133036,6,0,P|258:254|165:261,1,144
48,287,133565,1,0,0:0:0:0:
48,287,133654,1,0,0:0:0:0:
48,287,133742,2,0,P|42:238|47:201,1,72
204,57,134095,2,0,P|210:106|205:143,1,72
111,87,134448,5,0,0:0:0:0:
300,53,134624,1,0,0:0:0:0:
300,53,134712,1,0,0:0:0:0:
300,53,134801,2,0,P|341:61|381:57,1,72
475,158,135154,2,0,P|434:150|394:154,1,72
283,231,135507,2,0,P|324:239|364:235,1,72
247,132,135860,5,0,0:0:0:0:
205,300,136036,1,0,0:0:0:0:
153,144,136212,1,0,0:0:0:0:
339,113,136389,1,0,0:0:0:0:
93,254,136565,2,0,L|181:236,1,72
163,239,137095,1,0,0:0:0:0:
457,115,137271,5,0,0:0:0:0:
466,125,137624,1,0,0:0:0:0:
472,138,137977,1,0,0:0:0:0:
475,152,138330,1,0,0:0:0:0:
479,169,138683,6,0,P|437:221|325:237,1,180
229,197,139212,1,0,0:0:0:0:
126,233,139389,2,0,L|113:332,1,90
145,130,139742,1,0,0:0:0:0:
207,288,139918,1,0,0:0:0:0:
0,203,140095,6,0,P|40:191|85:164,1,90
225,92,140448,1,0,0:0:0:0:
184,209,140624,1,0,0:0:0:0:
184,209,140712,1,0,0:0:0:0:
184,209,140801,2,0,P|203:255|241:285,1,90
417,217,141154,2,0,P|367:210|322:228,1,90
494,298,141507,5,0,0:0:0:0:
418,135,141683,1,0,0:0:0:0:
385,338,141860,1,0,0:0:0:0:
385,338,142036,1,0,0:0:0:0:
507,201,142212,1,0,0:0:0:0:
318,157,142389,1,0,0:0:0:0:
318,157,142477,1,0,0:0:0:0:
318,157,142566,2,0,L|221:158,1,90
79,139,142918,5,0,0:0:0:0:
201,217,143095,1,0,0:0:0:0:
201,217,143183,1,0,0:0:0:0:
201,217,143271,1,0,0:0:0:0:
144,73,143448,1,0,0:0:0:0:
0,187,143624,1,0,0:0:0:0:
206,140,143801,1,0,0:0:0:0:
62,254,143977,1,0,0:0:0:0:
79,139,144154,1,0,0:0:0:0:
160,303,144330,6,0,P|211:311|255:301,1,90
385,149,144683,1,0,0:0:0:0:
385,149,144860,2,0,L|374:259,1,90
285,161,145212,1,0,0:0:0:0:
474,117,145389,1,0,0:0:0:0:
290,250,145565,1,0,0:0:0:0:
461,272,145742,6,0,P|433:313|390:326,1,90,0|0,0:0|0:0,0:0:0:0:
290,250,146095,1,0,0:0:0:0:
385,149,146271,2,0,L|374:259,1,90
194,213,146624,1,0,0:0:0:0:
317,83,146800,1,0,0:0:0:0:
290,250,146977,1,0,0:0:0:0:
188,118,147154,6,0,P|136:135|107:249,1,180
194,213,147683,1,0,0:0:0:0:
138,35,147860,1,0,0:0:0:0:
12,172,148036,1,0,0:0:0:0:
12,172,148124,1,0,0:0:0:0:
12,172,148212,1,0,0:0:0:0:
166,106,148389,6,0,L|191:203,1,90
120,256,148742,1,0,0:0:0:0:
255,114,148918,1,0,0:0:0:0:
368,224,149095,1,0,0:0:0:0:
368,224,149183,1,0,0:0:0:0:
368,224,149271,1,0,0:0:0:0:
217,266,149448,1,0,0:0:0:0:
375,40,149624,1,0,0:0:0:0:
375,40,149977,6,0,P|343:84|378:194,1,180
474,117,150507,1,0,0:0:0:0:
268,180,150683,2,0,L|320:266,1,90
376,128,151036,1,0,0:0:0:0:
230,103,151212,1,0,0:0:0:0:
389,253,151389,6,0,P|379:298|338:325,1,90,0|0,0:0|0:0,0:0:0:0:
64,181,151742,2,0,L|164:168,1,90
309,240,152095,1,0,0:0:0:0:
304,271,152183,1,0,0:0:0:0:
298,301,152271,1,0,0:0:0:0:
180,236,152448,1,0,0:0:0:0:
301,112,152624,1,0,0:0:0:0:
418,235,152801,6,0,L|444:335,1,90,0|0,0:0|0:0,0:0:0:0:
188,295,153154,1,0,0:0:0:0:
298,220,153330,2,0,P|322:268|319:307,1,90
182,173,153683,1,0,0:0:0:0:
358,125,153860,2,0,L|461:99,1,90
223,238,154212,5,0,0:0:0:0:
85,197,154389,1,0,0:0:0:0:
85,197,154477,1,0,0:0:0:0:
85,197,154565,2,0,P|78:148|83:105,1,90
236,37,154918,1,0,0:0:0:0:
304,235,155095,1,0,0:0:0:0:
173,287,155271,1,0,0:0:0:0:
314,113,155448,1,0,0:0:0:0:
398,264,155624,6,0,P|402:312|400:358,1,90
306,308,155977,1,0,0:0:0:0:
497,302,156154,1,0,0:0:0:0:
306,308,156330,2,0,P|302:260|304:214,1,90
335,35,156683,1,0,0:0:0:0:
417,110,156860,1,0,0:0:0:0:
256,160,157036,6,0,P|207:168|166:160,1,90,0|0,0:0|0:0,0:0:0:0:
