osu file format v9

[General]
AudioFilename: supercell feat. Gazelle - Melt .mp3
AudioLeadIn: 0
PreviewTime: 62441
Countdown: 0
SampleSet: Soft
StackLeniency: 0.6
Mode: 0
LetterboxInBreaks: 1

[Editor]
DistanceSpacing: 0.4
BeatDivisor: 4
GridSize: 4

[Metadata]
Title:Melt 3M MIX
Artist:supercell feat. Gazelle
Creator:Melt
Version:Love
Source:Nico Nico Douga
Tags:Vocaloid Hatsune Miku

[Difficulty]
HPDrainRate:7
CircleSize:4
OverallDifficulty:6
ApproachRate:8
SliderMultiplier:2.8
SliderTickRate:1

[Events]
//Background and Video events
0,0,"nBG.jpg"
//Break Periods
2,90876,101220
2,166405,174632
2,200288,208514
//Storyboard Layer 0 (Background)
//Storyboard Layer 1 (Fail)
//Storyboard Layer 2 (Pass)
//Storyboard Layer 3 (Foreground)
//Storyboard Sound Samples
//Background Colour Transformations
3,100,163,162,255

[TimingPoints]
3147,705.882352941176,4,2,1,60,1,0
8794,-200,4,2,1,60,0,0
11617,-200,4,2,1,60,0,0
23088,-100,4,2,1,60,0,0
24323,-200,4,2,1,60,0,0
26088,-100,4,2,1,60,0,0
29970,-200,4,2,1,60,0,0
37029,-100,4,2,1,60,0,0
44088,-200,4,2,1,60,0,0
58205,-100,4,2,1,60,0,0
59617,-200,4,2,1,60,0,0
61911,-100,4,2,1,60,0,0
62441,-50,4,2,1,80,0,1
63146,-50,4,2,1,60,0,1
67029,-100,4,2,1,60,0,1
70911,-200,4,2,1,60,0,1
72499,-200,4,2,1,30,0,1
73029,-200,4,2,1,50,0,1
73382,-200,4,2,1,70,0,1
73735,-50,4,2,1,80,0,1
74441,-50,4,2,1,60,0,1
77970,-100,4,2,1,60,0,1
85029,-200,4,2,1,60,0,1
87852,-100,4,2,1,60,0,1
90676,-100,4,2,1,60,0,0
101970,-200,4,2,1,60,0,0
104794,-100,4,2,1,60,0,0
106029,-200,4,2,1,60,0,0
113264,-100,4,2,1,60,0,0
135852,-200,4,2,1,60,0,0
138676,-50,4,2,1,80,0,1
139382,-50,4,2,1,60,0,1
148735,-50,4,2,1,60,0,1
149970,-50,4,2,1,80,0,1
150676,-50,4,2,1,60,0,1
154382,-100,4,2,1,60,0,1
166205,-100,4,2,1,60,0,0
181029,-200,4,2,1,60,0,0
186676,-100,4,2,1,60,0,0
188264,-100,4,2,1,50,0,0
188970,-100,4,2,1,70,0,0
189499,-100,4,2,1,60,0,0
212088,-50,4,2,1,80,0,1
212794,-50,4,2,1,60,0,1
217029,-100,4,2,1,60,0,1
220558,-50,4,2,1,60,0,1
223382,-50,4,2,1,80,0,1
224088,-50,4,2,1,60,0,1
234676,-100,4,2,1,60,0,1
240323,-200,4,2,1,60,0,0
248617,-200,4,2,1,60,0,0

[Colours]
Combo1 : 0,64,128
Combo2 : 255,0,255
Combo3 : 113,210,174
Combo4 : 0,128,255

[HitObjects]
248,64,3147,2,0,B|324:64|324:64|408:140,1,140
371,106,3676,1,0
371,106,3852,1,0
272,160,4205,1,2
332,252,4558,2,0,B|176:252,2,140
80,72,5970,6,0,B|128:132|128:132|128:224,1,140
128,195,6499,1,0
128,195,6676,1,0
240,208,7029,1,2
196,104,7382,2,0,B|352:104,2,140
392,312,8794,6,0,B|392:276|392:276|356:248,1,70
364,228,9323,1,0
364,200,9499,2,0,B|364:160|364:160|324:128,1,70,0|0
120,96,10205,2,0,B|80:128,1,34.9999988079071
188,140,10558,2,0,B|188:188,1,34.9999988079071
256,96,10911,6,0,B|280:120,1,34.9999988079071
336,172,11264,1,2
336,172,11441,1,2
336,172,11617,2,0,B|336:260|336:260|248:260,1,139.999995231629,2|0
236,160,12676,1,0
128,184,13029,2,0,B|128:104|128:104|184:56|184:56|224:72,1,139.999995231629,0|0
284,92,14088,1,0
380,148,14441,6,0,B|380:196|380:196|356:220,1,69.9999976158143
336,212,14970,1,0
308,212,15146,2,0,B|308:260|308:260|284:284,1,69.9999976158143
112,40,15852,1,0
100,164,16029,1,0
184,72,16205,1,0
56,96,16382,1,0
180,152,16558,1,0
208,228,16735,1,0
284,252,16911,1,0
424,292,17264,6,0,B|424:260|424:260|376:220,1,69.9999976158143
395,207,17794,1,0
395,179,17970,2,0,B|395:155|395:155|363:123,1,69.9999976158143
128,64,18676,1,0
208,64,18852,1,0
336,136,19029,1,0
256,136,19205,1,0
160,208,19382,1,0
216,268,19558,1,0
296,268,19735,1,0
64,112,20088,6,0,B|64:160|64:160|88:184,1,69.9999976158143
80,204,20617,1,0
80,232,20794,2,0,B|80:280|80:280|104:296,1,69.9999976158143
224,88,21499,1,0
304,88,21676,1,0
344,160,21852,1,0
304,232,22029,1,0
264,160,22205,1,0
184,160,22382,1,0
224,232,22558,1,0
88,72,22911,5,0
168,72,23088,1,0
224,136,23264,2,0,B|136:136,1,69.9999976158143
144,200,23617,1,0
224,200,23794,1,0
272,264,23970,2,0,B|200:264,1,69.9999976158143
368,64,24323,6,0,B|368:104,1,34.9999988079071
368,224,24676,2,0,B|368:176,1,34.9999988079071
456,144,25029,2,0,B|416:144,1,34.9999988079071
280,144,25382,2,0,B|320:144,1,34.9999988079071
368,144,25735,1,0
72,136,26088,6,0,B|72:216|72:216|136:272,1,139.999995231629
172,256,26794,1,0
200,256,26970,1,0
228,256,27146,2,0,B|300:256|300:256|348:320,2,139.999995231629
280,176,28205,1,0
260,96,28558,6,0,B|196:48,1,69.9999976158143
260,96,28911,2,0,B|348:32,1,69.9999976158143
200,152,29264,6,0,B|144:200,1,69.9999976158143
200,152,29617,2,0,B|272:216,1,69.9999976158143
324,136,29970,2,0,B|324:224,1,69.9999976158143
192,256,30676,2,0,B|192:168,1,69.9999976158143
160,96,31382,5,2
212,220,31558,1,0
348,252,31735,1,0
292,116,31911,1,0
160,96,32088,1,2
212,220,32264,1,0
348,252,32441,1,0
396,76,32794,5,2
252,144,32970,1,0
368,204,33146,1,0
304,68,33323,1,0
368,204,33499,2,0,B|416:204,2,34.9999988079071,2|0|0
320,176,34205,6,0,B|224:176,1,69.9999976158143
288,240,34911,2,0,B|200:240,1,69.9999976158143
364,240,35617,2,0,B|364:312,1,70
432,280,36323,2,0,B|432:356,1,70
180,72,37029,2,0,B|116:40|116:40|16:88,1,140
56,96,37558,1,0
56,124,37735,2,0,B|56:204|56:204|128:204,1,139.999995231629
176,264,38441,1,0
176,264,38794,2,0,B|228:264|228:264|252:288|252:288|320:288,1,140
376,320,39676,5,0
376,292,39852,2,0,B|376:220|376:220|296:220,1,139.999995231629
280,220,40382,1,0
252,220,40558,2,0,B|172:220|172:220|172:100,1,139.999995231629
256,88,41264,6,0,B|320:144,1,69.9999976158143
256,88,41617,2,0,B|192:140,1,70
204,236,41970,6,0,B|268:180,1,69.9999976158143
204,236,42323,2,0,B|140:180,1,69.9999976158143
180,80,42676,5,2
296,36,42852,1,0
376,140,43029,1,0
304,240,43205,1,0
180,200,43382,1,2
180,80,43558,1,0
296,36,43735,1,0
272,136,44088,5,2
316,252,44264,1,0
216,328,44441,1,0
112,256,44617,1,0
148,136,44794,1,2
272,136,44970,1,0
316,252,45147,1,0
308,296,45499,2,0,B|396:296,2,69.9999976158143,2|0|0
224,280,46558,5,0
200,200,46911,2,0,B|104:200,2,69.9999976158143,2|0|0
264,144,47970,1,0
448,32,48323,2,0,B|448:128,1,69.9999976158143
64,336,49029,2,0,B|64:256,1,69.9999976158143
376,88,49735,6,0,B|376:168,1,69.9999976158143
376,244,50441,1,0
292,244,50794,2,0,B|252:244,2,34.9999988079071
376,244,51499,1,0
316,184,51852,6,0,B|232:184,1,70,0|0
272,264,52558,2,0,B|144:264,1,104.999996423721
124,264,53264,1,0
344,332,53617,5,0
480,328,53970,2,0,B|480:248,1,69.9999976158143
72,40,54676,2,0,B|72:120,1,69.9999976158143
192,104,55382,1,0
360,104,55558,1,0
216,144,55735,1,0
384,144,55911,1,0
288,208,56088,1,0
208,264,56441,6,0,B|168:264,2,34.9999988079071
296,320,57146,2,0,B|336:320,2,34.9999988079071
208,112,57852,1,0
296,232,58205,2,0,B|296:128|408:112,1,139.999995231629,2|0
216,152,58911,2,0,B|216:256|104:272,1,139.999995231629,2|0
368,192,59617,6,0,B|256:88,1,139.999995231629
208,40,60676,1,0
208,152,61029,2,0,B|112:256,1,139.999995231629
280,256,62088,1,0
112,216,62441,6,0,B|112:72|112:72|200:176|200:176|200:40|200:40|296:152,1,559.999980926514,4|0
344,128,63499,1,8
68,308,63852,2,0,B|36:236|76:156,1,139.999995231629
116,304,64205,2,0,B|88:224|136:148,1,140,8|0
272,292,64558,6,0,B|324:344|416:332,1,139.999995231629
304,240,64911,2,0,B|356:292|448:280,1,139.999995231629,8|0
228,120,65264,1,0
396,16,65441,1,0
308,156,65617,1,8
476,56,65794,1,0
80,36,65970,5,0
136,224,66146,1,0
168,80,66323,1,8
220,268,66499,1,0
436,228,66676,5,0
380,308,66852,1,0
472,308,67029,2,0,B|308:208,1,139.999995231629,8|0
276,188,67735,1,8
124,104,68088,2,0,B|124:200|124:200|180:236,1,139.999995231629,0|8
120,284,68794,5,0
444,300,69146,2,0,B|444:208|444:208|400:168,1,139.999995231629,8|0
448,108,69852,1,8
384,56,70029,1,0
336,120,70205,1,0
88,220,70558,1,8
160,272,70911,6,0,B|208:272,1,34.9999988079071,0|0
252,312,71264,2,0,B|300:312,1,34.9999988079071,8|0
352,272,71617,2,0,B|352:232,1,34.9999988079071
284,208,71970,2,0,B|284:160,1,34.9999988079071,8|0
284,173,72323,1,0
416,32,72676,1,4
212,116,73029,1,4
116,312,73382,1,4
288,212,73735,6,0,B|312:96|488:104|508:244|508:340|444:440|212:380|304:224,1,559.999980926514,4|0
368,256,74794,1,8
128,40,75146,2,0,B|68:104|60:208,1,139.999995231629
176,80,75499,2,0,B|116:144|108:248,1,139.999995231629,8|0
316,80,75852,6,0,B|408:76|476:140,1,139.999995231629
328,136,76205,2,0,B|420:132|488:196,1,139.999995231629,8|0
136,136,76558,5,0
72,248,76735,1,0
180,304,76911,1,8
244,196,77088,1,0
308,92,77264,1,0
420,152,77441,1,0
360,256,77617,1,8
244,196,77794,1,0
152,32,77970,6,0,B|152:112,1,69.9999976158143
220,240,78323,2,8,B|220:156,1,69.9999976158143
288,100,78676,2,0,B|208:100,1,69.9999976158143,0|8
80,168,79029,2,0,B|164:168,1,69.9999976158143,8|0
448,296,79382,6,0,B|472:216|384:112,1,139.999995231629,0|8
160,108,79911,2,0,B|160:188,1,70
216,48,80264,2,0,B|296:48,1,70,0|8
240,128,80617,1,0
308,172,80794,6,0,B|316:272|244:324,1,139.999995231629,0|8
116,224,81323,2,0,B|44:224,1,70
172,280,81676,2,0,B|172:348,1,70,0|8
176,100,82205,6,0,B|256:100,1,70
404,100,82558,2,0,B|336:100,1,70,8|0
456,172,82911,2,0,B|384:172,1,70
232,172,83264,2,0,B|312:172,1,70,8|0
356,284,83617,1,0
424,240,83794,1,0
368,180,83970,1,8
432,132,84146,1,0
392,60,84323,5,0
332,112,84499,1,0
276,52,84676,1,8
196,68,84852,1,0
276,52,85029,2,0,B|276:192,1,139.999995231629
136,136,86088,1,8
292,224,86441,2,0,B|124:224,1,139.999995231629
264,136,87499,1,8
108,64,87852,6,0,B|108:156,1,69.9999976158143
108,64,88205,2,0,B|192:64,1,69.9999976158143,8|0
176,136,88558,2,0,B|176:208,1,69.9999976158143
176,136,88911,2,0,B|244:136,1,69.9999976158143,8|0
324,68,89264,1,0
328,248,89441,1,0
392,112,89617,1,8
392,200,89794,1,0
460,156,89970,1,0
480,236,90146,1,0
436,304,90323,1,8
256,192,90676,5,4
408,68,101970,6,0,B|408:152|408:152|332:204,1,139.999995231629
320,112,103029,1,0
240,112,103205,1,0
180,164,103382,2,0,B|124:164,2,34.9999988079071
408,308,104441,1,0
328,308,104617,1,0
248,308,104794,6,0,B|184:308|184:308|148:224,1,139.999995231629
164,160,105323,1,0
208,92,105499,2,0,B|280:92|280:92|332:184,1,139.999995231629
60,60,106205,2,0,B|60:132,1,69.9999976158143
464,320,106911,2,0,B|464:248,1,69.9999976158143
340,256,107617,5,0
220,144,107970,1,0
340,144,108323,1,0
280,200,108676,1,0
220,256,109029,2,0,B|136:256,2,69.9999976158143
280,200,110088,1,0
384,100,110441,6,2,B|384:140,4,34.9999988079071
236,84,111499,1,0
120,244,111852,2,2,B|120:188,6,34.9999988079071
216,108,113264,5,0
296,108,113441,1,0
376,108,113617,2,0,B|376:252,2,139.999995231629
456,108,114499,1,0
456,188,114676,1,0
456,268,114852,1,0
376,268,115029,1,0
40,60,115735,5,0
100,116,115911,1,0
40,172,116088,2,0,B|40:256|40:256|112:320,1,140
176,64,116794,1,0
380,260,117146,1,0
420,40,117499,6,0,B|420:144|324:196,1,139.999995231629
80,336,118205,2,0,B|80:260|156:216,1,139.999995231629
256,192,118911,1,0
104,84,119441,5,0
104,84,119617,1,0
256,192,120146,1,0
256,192,120323,1,0
412,284,120852,1,0
412,284,121029,1,0
264,104,121558,1,0
264,104,121735,2,0,B|112:104,1,139.999995231629
68,44,122441,5,0
68,176,122794,1,0
92,320,123146,1,2
112,320,123235,1,2
132,320,123323,1,2
156,320,123411,1,2
176,320,123499,1,2
268,320,123676,2,0,B|340:320,1,69.9999976158143
448,136,124205,5,0
328,124,124558,2,0,B|380:124|380:124|404:20,1,140
192,124,125264,2,0,B|192:72|192:72|88:60,1,140
188,244,125970,2,0,B|132:252|132:252|132:376,1,139.999995231629
340,240,126676,2,0,B|340:292|340:292|468:320,1,140
328,60,127382,5,0
180,60,127735,1,0
332,300,128088,1,0
176,300,128441,1,0
92,128,128794,2,0,B|152:200|232:204|228:196,1,139.999995231629
408,196,129499,1,0
200,80,129852,5,0
104,324,130205,2,0,B|104:172,1,139.999995231629
164,140,130911,2,0,B|164:288,1,139.999995231629
256,192,131617,1,0
400,152,132146,1,0
288,48,132323,1,0
248,200,132499,1,0
312,132,132676,1,0
280,280,132852,1,0
160,176,133029,2,0,B|92:176|92:176|68:80,2,139.999995231629
156,268,134088,1,0
440,68,134441,6,0,B|372:120,1,69.9999976158143
436,136,134794,2,0,B|376:184,1,69.9999976158143
100,96,135146,2,0,B|156:148,1,69.9999976158143
100,176,135499,2,0,B|164:228,1,69.9999976158143
212,132,135852,2,0,B|232:192|308:196|328:152|340:144,1,139.999995231629
276,108,137088,5,0
240,64,137264,1,0
96,292,137617,1,0
448,216,137970,1,0
124,92,138323,1,0
232,120,138676,6,0,B|204:56|108:124|160:244|288:252|288:252|392:164|360:12|228:48|272:180,1,560,4|0
336,208,139735,1,8
432,48,140088,6,0,B|340:56|248:160,1,139.999995231629
400,100,140441,2,0,B|340:156|348:272,1,139.999995231629,8|0
72,332,140794,2,0,B|156:296|188:156,1,139.999995231629
92,268,141146,2,0,B|128:192|92:104,1,139.999995231629,8|0
112,0,141499,5,0
244,148,141676,1,0
328,72,141852,1,8
244,228,142029,1,0
164,228,142205,1,0
244,308,142382,1,0
420,304,142558,2,0,B|496:252|496:112|416:60,1,279.999990463257,8|0
328,244,143264,5,8
160,248,143441,1,0
180,80,143617,1,0
180,80,143970,2,0,B|208:92|208:92|236:92|236:92|224:116|224:116|256:116|256:116|312:140,1,140,8|0
328,152,144323,1,0
400,0,144499,1,0
424,168,144676,1,8
268,228,144852,1,0
156,100,145029,1,0
232,100,145382,5,8
232,100,145735,2,0,B|224:128|224:128|228:156|228:156|204:148|204:148|208:176|208:176|188:236,1,140
236,328,146088,1,8
84,252,146264,1,0
252,252,146441,1,0
420,252,146617,1,0
268,180,146794,1,8
216,0,147146,6,0,B|156:40|140:148|140:152,1,139.999995231629
200,68,147499,2,0,B|268:116|296:204,1,139.999995231629,8|0
224,140,147852,2,0,B|180:216|192:296,1,139.999995231629
244,212,148205,1,8
300,276,148382,1,0
328,356,148558,1,0
52,40,148911,1,4
460,40,149264,1,4
256,352,149617,1,4
384,192,149970,6,0,B|320:192|320:192|308:180|308:180|308:208|308:208|288:180|288:180|288:208|288:208|268:180|268:180|268:208|268:208|248:180|248:180|248:208|248:208|232:180|232:180|232:208|232:208|216:180|216:180|216:208|216:208|200:180|200:180|200:208|200:208|188:192|188:192|149:190|72:192,1,560,4|0
88,72,151029,1,8
172,44,151382,6,0,B|112:40|88:96|108:168|180:180,1,140
192,164,151735,2,0,B|192:224|136:248|68:228|56:156,1,140,8|0
248,100,152088,2,0,B|308:96|332:156|312:224|240:236,1,140
236,240,152441,2,0,B|236:300|288:324|360:304|372:232,1,140,8|0
388,108,152794,5,0
228,220,152970,1,0
308,120,153146,1,8
140,220,153323,1,0
180,36,153499,5,0
56,188,153676,1,0
192,116,153852,1,8
68,268,154029,1,0
148,304,154205,5,0
324,92,154558,2,0,B|324:184,1,70,8|8
376,232,154911,2,0,B|376:156,1,70,0|8
436,152,155264,1,8
264,140,155617,5,0
208,80,155970,5,8
48,240,156146,1,0
128,72,156323,1,0
112,292,156499,1,0
60,112,156676,1,8
480,248,157029,5,0
432,312,157382,5,8
280,136,157558,1,0
360,344,157735,1,0
348,96,157911,1,0
292,312,158088,1,8
364,216,158441,5,0
64,56,158794,2,0,B|64:132,1,69.9999976158143,8|0
104,184,159146,2,0,B|168:96,1,69.9999976158143
200,168,159499,2,0,B|304:168,1,69.9999976158143,8|0
312,120,159852,2,0,B|384:188,1,69.9999976158143
400,216,160205,5,8
268,224,160382,1,0
192,116,160558,1,0
320,112,160735,1,0
376,0,160911,1,8
184,48,161264,1,0
184,48,161617,2,0,B|88:40|92:172,2,140,8|0|8
344,176,162676,5,0
344,176,163029,2,0,B|272:252|408:340,2,139.999995231629,8|0|8
384,96,164088,1,0
452,144,164264,1,0
452,228,164441,1,8
384,276,164617,1,0
316,228,164794,5,0
316,144,164970,1,0
248,96,165146,1,8
176,140,165323,1,0
176,224,165499,5,0
248,272,165676,2,0,B|248:180,2,70,0|8|0
248,272,166205,1,4
256,192,175382,12,0,176441
392,120,176794,5,0
424,208,177146,2,0,B|336:208,4,69.9999976158143
68,124,178205,2,0,B|152:136|132:240,1,140
112,316,178911,2,0,B|156:244|268:292,1,139.999995231629
212,176,179617,1,0
404,80,179970,1,0
256,48,180323,5,0
64,168,180676,1,0
292,160,181029,2,0,B|292:248,1,69.9999976158143
408,296,181735,2,0,B|408:220,1,69.9999976158143
64,136,182441,2,0,B|148:136,1,69.9999976158143
200,72,182970,5,2
308,136,183146,1,2
196,200,183323,1,2
308,264,183499,1,2
196,328,183676,1,2
440,84,183852,6,0,B|440:160,2,69.9999976158143
336,84,184911,1,0
120,136,185264,2,2,B|120:168,4,17.4999994039536
184,192,185794,1,0
364,112,185970,6,2,B|364:136,4,17.4999994039536
304,52,186499,1,0
440,96,186676,6,0,B|440:184|392:256,1,139.999995231629
112,248,187382,2,0,B|112:168|168:120,1,139.999995231629
260,184,188088,5,0
200,240,188264,1,2
192,264,188352,1,2
184,288,188441,1,2
176,312,188529,1,2
168,336,188617,1,2
260,184,188794,5,0
312,128,188970,1,2
320,104,189058,1,2
328,80,189146,1,2
336,56,189235,1,2
344,32,189323,1,2
176,96,189499,5,0
232,224,189676,1,0
288,96,189852,1,0
344,224,190029,1,0
440,320,190558,1,0
352,320,190911,2,0,B|208:320,1,139.999995231629
152,224,191617,5,0
256,40,191970,1,0
280,52,192146,1,0
304,64,192323,2,0,B|304:152|368:208,1,139.999995231629
272,116,193029,2,0,B|272:196|216:260,1,139.999995231629
216,184,193735,2,0,B|200:104|120:96,3,139.999995231629
72,152,195146,5,2
72,232,195323,1,2
144,112,195499,1,2
144,272,195676,1,2
216,72,195852,1,2
216,312,196029,1,2
216,152,196205,1,2
296,232,196382,1,2
216,232,196558,5,2
296,152,196735,1,2
296,72,196911,1,2
296,312,197088,1,2
368,112,197264,1,2
368,272,197441,1,2
440,152,197617,1,2
440,232,197794,1,2
256,192,197970,5,0
256,192,198499,2,0,B|256:120,1,69.9999976158143
256,192,199029,1,0
256,192,199558,2,0,B|256:272,1,69.9999976158143
256,192,200088,5,4
256,192,209264,12,0,210323
256,192,210676,12,0,211735
400,208,212088,6,0,B|152:248|152:112|216:64|288:64|336:112|336:240|96:288,1,559.999980926514,4|0
104,160,213146,1,8
288,176,213499,2,0,B|184:200|208:352,1,139.999995231629
288,240,213852,2,0,B|312:344|464:320,1,139.999995231629,8|0
356,240,214205,6,0,B|460:216|436:64,1,139.999995231629,0|0
352,176,214558,2,0,B|328:72|176:96,1,139.999995231629,8|0
104,104,214911,1,0
160,152,215088,1,0
200,64,215264,1,8
56,192,215441,1,0
408,136,215617,5,0
352,192,215794,1,0
456,240,215970,1,8
304,96,216146,1,0
164,96,216323,1,0
296,148,216499,1,0
152,148,216676,1,8
392,40,217029,6,0,B|392:144,2,69.9999976158143,0|0|8
224,52,217735,1,0
156,100,217911,1,0
136,176,218088,2,0,B|176:248,2,69.9999976158143,8|0|0
352,104,218794,1,8
280,288,219146,2,0,B|368:288,1,69.9999976158143
320,232,219499,2,0,B|240:232,1,69.9999976158143,8|0
180,264,219852,1,0
160,128,220205,5,8
292,112,220558,2,0,B|244:184|276:264,1,139.999995231629
304,208,220911,2,0,B|312:272|392:336,1,139.999995231629,8|0
364,256,221264,2,0,B|420:288|500:288,1,139.999995231629
428,252,221617,1,8
476,188,221794,1,0
472,108,221970,1,0
288,64,222323,5,8
112,192,222676,1,0
288,320,223029,1,8
212,56,223382,6,0,B|260:148|152:208|152:208|256:184|296:288|296:288|280:156|376:144|376:144|428:132,1,560,4|0
104,192,224441,1,8
416,88,224794,2,0,B|384:192|264:224,1,139.999995231629
404,192,225146,2,0,B|412:264|476:312,1,139.999995231629,8|0
112,292,225499,6,0,B|128:220|200:188,1,139.999995231629
112,192,225852,2,0,B|128:112|64:64,1,139.999995231629,8|0
240,40,226205,1,0
320,188,226382,1,0
152,176,226558,2,0,B|180:163|180:163|204:164|204:164|192:144|192:144|216:144|216:144|256:124,1,140,8|0
240,272,226911,5,0
76,236,227088,1,0
144,92,227264,2,0,B|280:44,2,139.999995231629,8|0|0
328,80,227794,1,0
192,176,227970,1,8
360,160,228146,1,8
348,196,228323,2,0,B|412:252|404:348,2,139.999995231629,8|0|8
348,64,229029,5,0
184,32,229205,1,0
132,192,229382,2,0,B|140:256|228:296,1,139.999995231629,8|0
341,256,229735,1,0
204,352,229911,1,0
148,192,230088,6,0,B|116:176|116:176|104:156|104:156|92:176|92:176|80:156|80:156|38:136,1,140,8|0
248,64,230441,1,0
400,160,230617,1,0
304,160,230794,1,8
456,64,230970,1,0
456,256,231146,1,0
280,332,231499,5,8
228,200,231676,1,0
96,240,231852,1,0
64,112,232029,1,0
64,112,232205,6,0,B|224:112,1,139.999995231629,8|0
64,48,232558,2,0,B|208:48,1,139.999995231629
464,128,232911,2,0,B|312:128,1,139.999995231629,8|0
464,192,233264,2,0,B|312:192,1,139.999995231629
144,88,233617,5,8
140,228,233794,1,0
268,168,233970,1,0
264,308,234146,1,0
392,252,234323,1,8
400,80,234676,6,0,B|400:168|336:256,1,139.999995231629,0|8
328,120,235382,2,0,B|328:192|240:272,1,139.999995231629,0|8
128,272,236088,2,0,B|200:272|256:200,1,139.999995231629,0|8
168,320,236794,2,0,B|232:320|296:248,1,139.999995231629,0|8
208,92,237499,1,0
208,172,237676,1,0
208,252,237852,1,8
208,332,238029,1,0
296,284,238205,5,0
296,204,238382,1,0
296,124,238558,1,8
296,44,238735,1,0
384,160,238911,6,0,B|472:160,2,69.9999976158143,0|0|8
332,96,239441,1,0
252,96,239617,1,0
200,160,239794,1,0
120,160,239970,1,8
408,104,240323,6,0,B|408:184,1,69.9999976158143
408,244,241029,2,0,B|408:168,1,70
452,148,241735,5,2
320,212,241911,1,0
336,64,242088,1,0
204,124,242264,1,0
320,212,242441,1,2
336,64,242617,1,0
204,124,242794,1,0
92,180,243146,6,0,B|92:252,1,70
92,320,243852,2,0,B|92:244,1,70
160,284,244558,5,2
292,348,244734,1,0
276,200,244911,1,0
408,260,245087,1,0
292,348,245264,1,2
276,200,245440,1,0
408,260,245617,1,0
100,96,245970,6,0,B|100:192,2,69.9999976158143
176,64,247029,1,0
176,148,247382,2,0,B|176:244,2,69.9999976158143
256,192,248441,5,0
256,192,248617,1,0
256,192,248794,12,0,253735
256,88,254441,6,0,B|256:112,22,17.4999994039536
256,192,256735,5,4
