osu file format v8

[General]
AudioFilename: Hajimete no Koi ga Owaru Toki [Choucho].mp3
AudioLeadIn: 0
PreviewTime: 89559
Countdown: 0
SampleSet: Normal
StackLeniency: 0.7
Mode: 0
LetterboxInBreaks: 1

[Editor]
DistanceSpacing: 1.2
BeatDivisor: 4
GridSize: 8

[Metadata]
Title:Hajimete no Koi ga Owaru Toki
Artist:supercell feat. Choucho
Creator:Kotomi-chan
Version:Sayonara
Source:VOCALOID
Tags:When the first love ends hatsune miku

[Difficulty]
HPDrainRate:7
CircleSize:5
OverallDifficulty:8
ApproachRate:8
SliderMultiplier:1
SliderTickRate:0.5

[Events]
//Background and Video events
0,0,"Konachan.com - 49097 hatsune_miku miwa_shirow polychromatic vocaloid when_the_first_love_ends_(vocaloid).jpg"
//Break Periods
2,68425,76642
2,127092,136809
2,220425,227475
2,258425,258809
2,276425,278142
//Storyboard Layer 0 (Background)
//Storyboard Layer 1 (Fail)
//Storyboard Layer 2 (Pass)
//Storyboard Layer 3 (Foreground)
//Storyboard Sound Samples
//Background Colour Transformations
3,100,163,162,255

[TimingPoints]
24226,333.333333333333,4,2,0,100,1,0
34642,-100,4,1,0,100,0,0
36226,-100,4,2,0,12,0,1
38892,-100,4,1,2,60,0,0
78892,-100,4,1,1,60,0,0
84142,-200,4,1,0,31,0,0
88975,-100,4,1,1,31,0,0
89559,-100,4,1,2,51,0,1
90726,-50,4,1,2,51,0,1
91892,-100,4,1,2,51,0,1
100225,-100,4,1,2,51,0,1
101392,-50,4,1,2,51,0,1
102725,-100,4,1,2,51,0,1
104059,-50,4,1,2,51,0,1
105725,-100,4,1,2,51,0,1
123892,-100,4,1,2,51,0,0
156225,-50,4,1,2,51,0,0
158559,-100,4,1,1,51,0,0
164059,-200,4,1,2,22,0,0
168892,-100,4,1,1,51,0,0
169559,-100,4,1,2,51,0,1
170726,-50,4,1,2,51,0,1
172059,-100,4,1,2,51,0,1
174892,-200,4,1,2,51,0,0
180225,-100,4,1,2,51,0,1
181392,-50,4,1,2,51,0,1
182725,-100,4,1,2,51,0,1
185892,-100,4,1,2,51,0,0
204225,-200,4,1,2,51,0,0
212225,-100,4,1,2,51,0,0
215809,-50,4,1,2,30,0,0
216392,-50,4,1,2,79,0,0
217559,-50,4,1,2,79,0,1
220225,-100,4,1,2,70,0,0
238892,-200,4,2,0,70,0,0
249559,-100,4,2,0,100,0,0
252059,-200,4,2,0,100,0,0
253725,-100,4,2,0,70,0,0
259475,-100,4,1,1,70,0,0
260225,-50,4,1,2,70,0,1
269892,-100,4,1,2,70,0,0
270892,-50,4,1,2,70,0,1
276225,-100,4,1,2,70,0,0
279559,-100,4,1,2,38,0,0
280559,-100,4,1,2,100,0,0
281559,-100,4,1,2,70,0,0
287059,-100,4,1,2,0,0,0

[Colours]
Combo1 : 73,73,73
Combo2 : 84,197,203
Combo3 : 255,255,255

[HitObjects]
448,88,24226,1,4
392,160,24559,5,0
336,88,24892,1,0
288,160,25226,1,0
200,160,25559,2,0,B|200:272,2,100,2|0|0
200,72,26559,2,0,B|136:80|120:152,1,112.5,0|2
120,224,27226,1,0
120,224,27392,2,0,B|120:312|224:312,1,150
312,312,28226,2,0,B|424:312,3,100,2|0|0|0
416,224,29559,1,6
416,136,29892,5,0
368,136,30059,1,0
320,136,30226,1,0
272,136,30392,2,0,B|168:136,1,100
168,184,30892,2,0,B|104:184|104:232|24:232,1,150,2|0
32,96,31892,1,0
120,96,32226,2,0,B|232:96,1,100,2|0
264,96,32726,1,0
352,96,33059,2,0,B|456:96,4,100,2|0|2|0|2
216,96,34892,5,0
168,96,35059,1,0
32,96,35559,1,0
80,96,35726,1,0
256,192,36226,12,4,38892
88,192,39892,5,0
112,192,39976,1,0
136,192,40059,1,0
160,192,40142,1,0
184,192,40226,2,0,B|336:192,1,150
424,192,41059,1,0
424,192,41559,5,4
360,88,41892,1,8
320,128,42059,1,0
200,128,42392,1,0
152,88,42559,1,8
96,96,42726,1,0
56,136,42892,5,0
56,264,43226,1,8
96,312,43392,1,0
216,312,43726,1,0
248,264,43892,1,8
272,280,43976,1,0
296,296,44059,1,0
352,320,44226,5,0
360,72,44892,1,0
360,312,45559,5,0
272,312,45892,1,8
184,312,46226,1,0
96,312,46559,1,8
96,312,46726,5,0
96,248,46892,2,0,B|248:248,1,150
248,184,47559,2,0,B|80:184,1,150
40,184,48226,2,0,B|40:128|112:120,1,100
168,120,48726,2,0,B|336:120,1,150
312,32,49559,5,0
272,72,49726,1,0
232,32,49892,1,8
144,32,50226,1,0
88,56,50392,1,0
32,32,50559,6,0,B|32:136,1,100,8|0
88,144,51059,1,0
120,192,51226,1,8
152,144,51392,2,0,B|216:144|216:208,1,100
216,264,51892,1,8
336,264,52226,6,0,B|440:264,1,100,0|8
436,264,52726,1,0
440,320,52892,1,0
384,344,53059,1,0
328,320,53226,1,8
328,200,53559,6,0,B|448:200,1,100,0|8
464,152,54059,1,0
432,104,54225,1,0
376,88,54392,1,0
320,96,54559,1,8
224,160,54892,6,0,B|224:96|136:96,1,100,0|8
120,152,55392,1,0
80,104,55559,1,0
40,152,55726,1,0
40,152,55892,1,8
40,216,56059,5,0
40,280,56226,2,0,B|96:312|144:272,1,100,0|8
136,216,56726,1,0
184,184,56892,2,0,B|184:144,2,25,0|0|8
232,216,57226,1,8
328,288,57559,6,0,B|328:176,1,100,0|8
328,88,58059,1,0
368,136,58226,2,0,B|368:20,1,100,0|8
248,56,58726,1,0
192,56,58892,2,0,B|72:56,1,100,0|8
80,112,59392,2,0,B|136:136,1,50
80,176,59726,2,0,B|32:208,1,50,0|8
152,248,60226,5,0
152,312,60392,1,0
152,248,60559,1,8
272,248,60892,1,0
272,184,61059,1,0
272,248,61226,2,0,B|328:248|328:288|384:288,2,100,8|0|8
272,248,62059,5,0
352,160,62392,1,0
272,72,62725,1,0
272,72,62892,6,0,B|208:72,1,50
120,112,63225,1,8
224,144,63392,2,0,B|280:144,2,50
120,192,63892,2,0,B|120:264|176:264,1,100,8|0
264,272,64392,2,0,B|320:272,1,50,0|8
416,216,64725,2,0,B|352:216,1,50
264,144,65059,1,0
320,144,65225,1,8
200,144,65559,6,0,B|88:144,1,100,0|8
56,184,66059,1,0
96,224,66225,1,0
56,184,66392,1,0
96,224,66559,1,8
200,280,66892,5,0
240,240,67059,2,0,B|312:240,1,50,0|8
336,280,67392,1,0
384,312,67559,1,0
416,312,67642,1,0
440,312,67725,1,8
488,280,67892,1,8
408,192,68225,5,4
72,192,77392,5,0
72,192,77475,1,0
72,192,77559,1,6
424,192,77892,5,0
424,192,78059,1,2
248,192,78392,5,0
248,192,78559,1,2
128,192,78892,6,0,B|152:112|240:96,1,150,4|0
296,96,79559,2,0,B|400:96,1,100,8|0
448,128,80059,1,0
400,168,80225,2,0,B|352:192,1,50,8|0
296,192,80559,1,0
240,168,80725,2,0,B|240:240,1,50,0|8
240,280,81059,1,0
240,336,81225,1,0
240,336,81392,1,0
96,336,81559,6,0,B|48:296,1,50,12|0
112,248,81892,2,0,B|160:288,1,50,0|0
40,232,82225,2,0,B|40:160,1,50,8|0
64,104,82559,1,0
168,144,82725,2,0,B|224:176,2,50,0|8|0
256,72,83225,2,0,B|312:72|352:120,2,100,0|8|0
256,72,84225,5,4
152,136,84559,1,0
48,192,84892,1,0
152,264,85225,1,0
256,312,85559,1,4
360,256,85892,1,0
464,192,86225,1,0
368,120,86559,1,0
256,64,86892,6,0,B|256:168,1,100,4|0
256,304,88225,1,0
312,304,88392,1,0
360,288,88559,1,0
384,248,88725,1,0
392,200,88892,5,0
392,184,88975,1,8
392,168,89059,1,8
392,152,89142,1,8
384,136,89225,1,8
376,120,89309,1,8
360,104,89392,1,8
344,96,89475,1,8
320,96,89559,6,0,B|248:96,1,50,4|0
224,160,89892,1,8
128,80,90059,2,0,B|192:80,1,50
224,160,90392,1,0
224,160,90559,1,8
152,144,90726,6,0,B|32:144,1,100,2|0
144,272,91059,2,0,B|256:272,1,100,2|0
184,208,91392,2,0,B|80:208,1,100,2|0
192,336,91726,2,0,B|320:336,1,100,2|0
392,336,92059,5,0
336,264,92225,2,0,B|392:264,1,50,0|0
386,264,92559,1,8
456,184,92725,2,0,B|456:256,1,50,0|0
456,112,93059,1,0
384,144,93225,1,8
384,216,93392,2,0,B|384:104,1,100,0|0
384,56,93892,1,8
320,56,94059,2,0,B|264:56,1,50,0|0
208,56,94392,1,8
144,56,94559,1,8
144,176,94892,6,0,B|200:176,1,50,0|0
208,232,95225,2,0,B|272:232,1,50,8|0
304,272,95559,2,0,B|264:312|208:296,2,100,0|8|0
304,272,96392,1,0
304,208,96559,2,0,B|424:208,2,100,8|0|8
184,208,97559,6,0,B|184:264,2,50,0|0|8
136,176,98059,1,0
128,120,98225,2,0,B|64:120,1,50
128,120,98559,2,0,B|192:120,1,50,8|0
240,120,98892,1,0
240,120,98975,1,0
240,120,99059,1,0
304,120,99225,1,8
368,120,99392,2,0,B|432:120,2,50
368,256,100059,1,0
312,256,100225,6,0,B|240:256,1,50,4|0
312,256,100559,2,0,B|296:304,1,50,8|0
312,256,100892,2,0,B|360:280,1,50
312,256,101225,1,8
192,248,101392,6,0,B|80:248,1,100,2|0
192,184,101725,2,0,B|304:184,1,100,2|0
192,120,102059,2,0,B|80:120,1,100,2|0
192,56,102392,2,0,B|320:56,1,100,2|0
352,56,102725,5,0
416,56,102892,2,0,B|464:88,3,50,2|0|0|2
480,136,103559,1,0
488,200,103725,1,2
440,240,103892,1,8
224,264,104059,6,0,B|96:264,1,100,2|0
224,264,104392,2,0,B|144:176,1,100,2|0
224,264,104725,2,0,B|224:152,1,100,2|0
224,264,105059,2,0,B|304:200,1,100,2|0
224,264,105392,5,0
224,264,105559,1,4
344,264,105892,6,0,B|344:320|416:336,2,100,8|0|8
344,200,106725,1,0
344,136,106892,2,0,B|344:80|416:64,2,100,0|8|0
464,136,107892,1,8
472,264,108225,2,0,B|368:264,1,100,0|8
372,264,108725,2,0,B|200:264,1,150,0|8
104,264,109559,2,0,B|0:264,2,100,0|8|0
104,264,110392,1,0
104,264,110559,1,8
104,264,110725,1,0
104,264,110892,1,4
104,144,111225,6,0,B|104:88,1,50
160,104,111559,2,0,B|184:56,1,50,8|0
224,104,111892,2,0,B|272:72,1,50
328,64,112225,1,8
384,96,112392,2,0,B|384:160|368:200,1,100,0|0
304,232,112892,1,8
320,304,113059,5,0
320,304,113225,2,0,B|208:304,1,100,0|4
216,240,113725,1,0
152,240,113892,1,8
216,240,114059,2,0,B|328:240,1,100
320,176,114559,2,0,B|352:128|288:128|320:72,1,100,8|0
192,80,115225,1,8
176,136,115392,2,0,B|64:136,1,100,0|0
56,80,115892,1,8
256,192,116225,12,0,118892
376,88,119225,5,8
256,88,119559,1,0
136,88,119892,1,8
136,120,119975,1,0
136,152,120059,1,0
136,184,120142,1,0
136,216,120225,1,0
256,192,120725,12,0,123892
192,96,124225,6,0,B|312:96,1,100
296,216,124892,2,0,B|176:216,1,100
88,160,125559,2,0,B|208:160,1,100
192,280,126225,2,0,B|80:280,1,100
192,280,126892,1,4
48,48,137559,6,0,B|160:48,1,100,0|8
208,48,138059,1,0
200,104,138225,2,0,B|96:104,1,100,0|8
40,104,138725,1,0
40,168,138892,2,0,B|33:208|40:240|88:264,1,100,0|8
104,200,139392,2,0,B|176:200|176:248|264:248,1,150,0|8
376,264,140225,6,0,B|448:264,2,50,0|0|8
368,144,140892,1,0
368,144,141059,1,0
368,144,141225,6,0,B|320:120|264:128,1,100,8|0
272,192,141725,1,0
272,256,141892,1,8
272,192,142059,2,0,B|216:192,1,50,0|0
176,224,142392,1,8
208,272,142559,1,8
208,328,142725,5,0
208,328,142892,2,0,B|360:328,1,150
416,328,143559,1,0
416,200,143892,1,8
416,264,144059,5,0
416,200,144225,2,0,B|416:40,1,150
352,48,144892,1,0
288,152,145225,1,8
288,88,145392,1,0
288,152,145559,6,0,B|288:256,1,100,0|8
232,336,146059,2,0,B|232:272,1,50
184,232,146392,1,0
144,296,146559,1,8
104,352,146725,1,0
144,296,146892,5,0
80,296,147059,1,0
184,232,147225,1,8
48,232,147392,1,0
144,168,147559,1,0
80,168,147725,1,8
80,168,147892,1,8
80,96,148225,6,0,B|200:96,1,100,4|8
248,96,148725,2,0,B|296:72,1,50
320,128,149059,2,0,B|264:160,1,50,0|8
304,208,149392,2,0,B|360:200,2,50
240,208,149892,5,8
128,256,150225,1,0
240,312,150559,1,8
344,256,150892,1,0
392,288,151059,2,0,B|392:344,2,50,0|8|0
440,256,151559,2,0,B|480:288,2,50,0|0|8
392,144,152225,5,0
328,144,152392,1,0
264,144,152559,1,8
168,72,152892,1,0
232,72,153059,1,0
296,72,153225,1,8
192,144,153559,6,0,B|72:144,1,100,4|8
92,144,154059,1,0
176,232,154392,1,0
240,232,154559,1,8
152,312,154892,1,4
24,312,155225,1,8
88,312,155392,1,0
216,312,155725,1,0
280,312,155892,1,8
344,312,156059,1,0
416,312,156225,6,0,B|480:312,2,50
408,248,156475,2,0,B|472:232,2,50
384,192,156725,2,0,B|448:160,4,50
360,136,157142,2,0,B|408:96,2,50
312,104,157392,2,0,B|352:48,2,50,0|0|2
88,192,157892,1,0
88,192,158059,1,2
304,296,158392,1,0
304,296,158559,1,2
160,72,158892,6,0,B|224:72|224:112|312:112,1,150,4|0
304,48,159559,2,0,B|368:48,1,50,8|0
424,72,159892,1,0
352,120,160059,1,0
416,160,160225,2,0,B|416:264,1,100,0|8
416,328,160725,2,0,B|344:328|344:272,1,100
288,280,161225,6,0,B|288:312|264:328,1,50,8|0
208,328,161559,2,0,B|96:328,1,100,0|8
104,264,162059,2,0,B|104:200,1,50,0|0
216,136,162559,1,8
296,168,162725,1,0
232,216,162892,1,0
232,328,163225,2,0,B|296:328|320:288,2,100,0|8|0
232,328,164226,5,4
232,48,164892,1,0
32,184,165559,1,4
416,184,166226,1,0
232,328,166892,1,4
232,328,167559,2,0,B|232:224,1,100
232,200,168392,1,0
232,168,168559,1,0
232,136,168726,1,0
240,112,168892,5,0
256,88,168976,1,8
280,72,169059,1,8
304,64,169142,1,8
336,56,169226,1,8
368,56,169309,1,8
400,64,169392,1,8
424,80,169476,1,8
440,104,169559,6,0,B|440:216,1,100,4|8
432,264,170059,2,0,B|384:296|328:264,1,100
288,240,170559,1,8
176,288,170726,6,0,B|120:312|64:296,1,100,2|0
168,216,171059,2,0,B|144:160|160:104,1,100,2|0
240,200,171392,2,0,B|296:176|352:192,1,100,2|0
248,272,171726,2,0,B|272:328|256:384,1,100,2|0
200,336,172059,5,0
144,336,172225,2,0,B|144:232,1,100,0|8
208,240,172725,2,0,B|208:168|144:168,1,100
96,168,173225,1,8
32,168,173392,1,0
112,80,173725,1,0
192,168,174059,2,0,B|312:168,1,100,0|8
352,168,174559,1,8
408,168,174892,6,0,B|448:208,1,50,0|8
384,224,175559,2,0,B|408:272,2,50,0|8|0
320,224,176559,2,0,B|312:280,1,50,8|0
296,336,177225,1,8
232,336,177559,2,0,B|176:336,1,50,0|8
152,336,178059,1,0
120,336,178225,1,8
88,336,178392,1,0
56,336,178559,2,0,B|24:336,1,25,8|0
32,216,179392,5,0
64,216,179559,1,0
96,216,179725,1,0
96,40,180225,6,0,B|160:40|184:80,1,100,4|8
136,120,180725,2,0,B|160:184|224:192,1,100
224,128,181225,1,8
312,64,181392,6,0,B|312:168,1,100,2|0
312,288,181725,2,0,B|176:288,1,100,2|0
144,184,182059,2,0,B|144:304,1,100,2|0
256,232,182392,2,0,B|256:104,1,100,2|0
256,64,182725,5,0
192,64,182892,2,0,B|136:64|136:104|80:104,1,100,0|8
96,40,183392,2,0,B|32:48|32:120,1,100
32,168,183892,1,0
32,232,184059,5,0
152,232,184392,1,0
32,232,184725,1,0
152,232,185059,1,0
208,232,185225,5,0
264,232,185392,1,0
320,232,185559,1,4
440,232,185892,6,0,B|440:120,1,100,0|8
376,232,186559,2,0,B|376:120,1,100,0|8
304,232,187225,2,0,B|304:112,2,100,0|8|0
232,136,188225,1,8
112,136,188559,2,0,B|112:208,1,50
112,304,189059,1,0
232,304,189392,5,0
288,272,189559,1,0
320,224,189725,1,0
328,168,189892,1,0
328,104,190059,1,0
304,48,190225,5,0
240,48,190392,1,0
304,48,190559,1,0
240,48,190725,1,0
176,48,190892,1,4
120,56,191059,5,0
80,96,191225,2,0,B|24:96,2,50,8|0|0
80,160,191725,2,0,B|80:216,2,50,0|8|0
80,96,192225,2,0,B|144:96|160:168,1,100
160,208,192725,2,0,B|160:272|232:272,1,100
280,272,193225,5,8
368,192,193559,1,0
416,160,193725,1,0
368,120,193892,1,8
312,104,194059,2,0,B|256:72,2,50
264,144,194559,2,0,B|264:208|200:208,2,100,8|0|8
200,144,195392,2,0,B|200:80|136:80,1,100,0|8
80,80,195892,1,8
88,200,196225,6,0,B|88:312,1,100
208,296,196892,2,0,B|208:192,1,100
208,72,197559,2,0,B|208:192,1,100
296,256,198225,2,0,B|296:152,1,100
296,32,198892,2,0,B|296:136,1,100,0|8
400,192,199559,1,0
296,256,199892,1,8
176,256,200225,5,0
72,192,200559,1,8
184,152,200892,1,0
72,104,201225,1,8
184,64,201559,6,0,B|288:64,1,100
384,136,202225,2,0,B|264:136,1,100
184,200,202892,2,0,B|296:200,2,100
64,200,203892,1,0
64,288,204225,6,0,B|120:288,1,50
176,288,204892,2,0,B|232:288,1,50,8|0
288,288,205559,2,0,B|344:288,2,50,0|0|8
288,224,206559,5,0
288,168,206892,2,0,B|288:112,2,50,4|0|8
224,168,207892,1,0
168,168,208225,2,0,B|168:112,2,50,0|0|8
104,168,209225,1,0
40,168,209559,2,0,B|40:280,1,100,4|8
40,296,210392,1,0
40,328,210559,2,0,B|96:328,3,50,0|0|0|8
152,328,211892,2,0,B|176:312|176:352|208:328,1,50,0|4
320,328,212559,5,0
320,208,212892,1,0
320,208,213225,5,0
256,104,213559,1,0
200,208,213892,1,0
144,104,214225,1,0
88,208,214559,1,0
32,104,214892,5,4
96,104,215059,1,0
160,104,215225,1,0
280,104,215559,1,0
288,344,215892,2,2,B|184:344,2,100
192,128,216559,2,0,B|304:128,2,100,2|0|2
192,128,217225,1,2
256,192,217559,12,4,220225
256,280,228225,5,0
136,280,228559,1,8
192,280,228725,1,0
312,280,229059,1,0
368,280,229225,1,8
368,152,229559,2,0,B|296:152|296:192|200:192,2,150
368,32,230892,5,0
248,32,231225,5,8
312,32,231392,1,0
192,32,231725,5,0
248,32,231892,1,8
128,32,232225,5,0
88,72,232392,1,0
128,120,232559,1,8
168,160,232725,2,0,B|224:240|152:320,1,150,0|8
288,304,233559,6,0,B|408:304,2,100,0|8|0
168,304,234559,1,8
288,304,234892,1,0
288,184,235225,1,8
288,184,235559,2,0,B|232:184|232:136|176:136,1,100
256,192,236225,12,4,238892
64,336,239225,5,0
96,336,239392,2,0,B|152:336,1,50,2|0
208,336,239975,1,4
256,336,240225,2,0,B|312:336,3,50
368,336,241559,6,0,B|368:280,1,50,6|0
368,256,242059,1,0
368,200,242392,1,0
368,152,242725,2,0,B|368:96,2,50,2|0|2
304,152,243725,2,0,B|216:152,1,75,0|4
168,152,244559,5,2
136,208,244892,1,0
112,152,245225,1,2
88,208,245559,2,0,B|32:208,2,50,0|2|0
128,256,246559,1,2
168,304,246892,6,0,B|128:352,2,50,2|0|2
184,280,247725,1,0
216,272,247892,1,0
248,280,248059,2,0,B|248:344|312:344,1,100,0|0
336,344,248892,1,2
368,344,249059,1,0
408,344,249559,5,6
408,344,249892,1,0
408,344,250059,2,0,B|408:240,1,100,2|0
408,128,250725,2,2,B|360:88|312:104,3,100,2|2|2|2
264,136,252059,1,0
240,152,252225,6,0,B|200:192,1,50,4|0
144,208,252892,2,0,B|96:176,1,50
48,136,253559,5,4
48,200,253892,1,0
48,256,254225,1,0
48,312,254559,5,0
168,312,254892,2,4,B|272:312,1,100,4|0
328,312,255392,2,0,B|480:312,1,150
472,192,256225,2,0,B|400:192|400:232|304:232,1,150,4|0
208,224,257059,1,0
152,224,257225,1,0
152,96,257559,2,0,B|48:96,2,100,4|0|0
256,32,259559,5,8
256,64,259642,1,8
256,96,259725,1,8
256,128,259809,1,8
256,160,259892,1,8
256,192,259975,1,8
256,224,260059,1,8
256,256,260142,1,8
256,288,260225,6,0,B|440:288,1,175,4|0
432,136,260725,2,0,B|224:136,1,200
112,136,261225,1,0
112,256,261392,5,2
208,200,261559,1,0
80,184,261725,5,2
184,272,261892,1,0
160,152,262059,5,2
80,240,262225,1,0
200,224,262392,5,2
80,184,262559,1,0
80,72,262725,5,0
184,72,262892,2,0,B|272:72|296:112,1,100
328,200,263225,1,0
264,304,263392,2,0,B|208:328|128:304,2,100
376,272,263892,2,0,B|376:144,1,100,0|2
440,272,264225,2,0,B|440:144,1,100,0|2
440,48,264559,2,0,B|440:160,1,100,0|2
376,48,264892,2,0,B|376:152,1,100,0|2
376,148,265225,1,0
136,144,265559,5,2
224,56,265725,1,0
312,144,265892,1,0
136,240,266225,1,2
224,328,266391,1,0
312,240,266558,1,0
72,200,266892,5,2
376,200,267225,1,0
72,200,267559,1,2
376,200,267892,1,0
152,120,268225,2,0,B|152:256,1,100,2|0
232,128,268559,2,0,B|232:248,1,100
312,144,268892,2,0,B|312:272,1,100,2|0
400,160,269225,2,0,B|400:272,1,100
80,48,270892,6,0,B|192:48,1,100,2|0
296,64,271225,1,0
408,112,271392,2,0,B|456:208,1,100,2|0
400,312,271725,2,0,B|288:352,1,100,2|0
184,320,272059,1,0
72,272,272225,2,0,B|40:160,1,100,2|0
168,176,272559,1,0
72,104,272725,2,0,B|168:32,1,100,2|0
264,56,273059,2,0,B|368:88,1,100,2|0
456,160,273392,1,0
336,160,273559,6,0,B|256:160|192:160,1,100,2|0
112,160,273892,1,0
112,280,274059,2,0,B|232:232,1,100,2|0
168,344,274392,2,0,B|232:240,1,100,2|0
296,352,274725,2,0,B|256:216,1,100,2|0
368,320,275058,2,0,B|280:248,1,100,2|0
408,240,275392,2,0,B|304:240,2,100,2|0|2
288,240,275892,5,0
288,240,276059,1,0
288,240,276225,1,4
256,192,278892,5,0
256,192,279059,1,0
256,192,279225,1,0
240,136,279392,1,0
192,176,279559,1,0
200,248,279725,1,0
264,288,279892,1,0
336,256,280059,1,0
360,176,280225,5,0
304,104,280392,1,0
208,104,280559,1,0
144,160,280725,1,0
152,256,280892,1,0
224,320,281059,1,0
328,320,281225,1,0
392,240,281392,1,0
376,120,281559,6,0,B|352:72|288:72,1,100
176,72,282225,1,0
112,72,282392,1,0
56,112,282559,1,0
40,168,282725,1,0
40,232,282892,2,0,B|40:336,1,100
104,336,283392,2,0,B|168:336|168:288|248:288,1,150
243,288,284225,1,6
352,96,286225,5,0
352,96,286309,1,0
352,96,286392,1,0
352,96,286475,1,0
352,96,286559,1,0
352,96,286642,1,0
352,96,286725,1,0
352,96,286809,1,0
352,96,286892,1,0
256,192,286975,12,0,290559
