osu file format v9

[General]
AudioFilename: 1.mp3
AudioLeadIn: 1000
PreviewTime: 80974
Countdown: 0
SampleSet: Soft
StackLeniency: 0.7
Mode: 0
LetterboxInBreaks: 0

[Editor]
Bookmarks: 1774,1974,27374,27574,52974,53174,81774,81974,107374,107574,120174,120374,145774,145974,171374,171574,196974,197174,222574,222774,248174,248374
DistanceSpacing: 1.2
BeatDivisor: 2
GridSize: 32

[Metadata]
Title:Yoru ga Akeru yo
Artist:supercell
Creator:JoJo
Version:Two Sheep
Source:ryo
Tags:yanaginagi nagi yanagi today is a beautiful day kayesara

[Difficulty]
HPDrainRate:4
CircleSize:3
OverallDifficulty:4
ApproachRate:5
SliderMultiplier:1.4
SliderTickRate:1

[Events]
//Background and Video events
0,0,"BG.jpg"
//Break Periods
2,107579,118980
//Storyboard Layer 0 (Background)
//Storyboard Layer 1 (Fail)
//Storyboard Layer 2 (Pass)
//Storyboard Layer 3 (Foreground)
Sprite,Foreground,Centre,"SB\intro2.png",320,240 M,0,113785,,71,446 F,0,113785,114585,0,1 F,0,114585,119385,1
//Storyboard Sound Samples
//Background Colour Transformations
3,100,163,162,255

[TimingPoints]
-1415,400,4,2,2,25,1,0
1785,-200,4,2,2,30,0,0
4385,-200,4,2,2,40,0,0
4785,-200,4,2,2,30,0,0
75388,416.666666666667,4,2,1,60,1,0
75388,-200,4,2,1,25,0,0
75596,-200,4,2,1,5,0,0
76846,-200,4,2,1,25,0,0
77263,-200,4,2,1,5,0,0
78580,400,4,2,1,60,1,0
79380,-100,4,2,1,10,0,0
79780,-100,4,2,1,20,0,0
80180,-100,4,2,1,30,0,0
80580,-100,4,2,1,40,0,0
80980,-100,4,2,1,45,0,0
81380,-100,4,2,1,5,0,0
81780,-100,4,2,1,60,0,1
105580,-100,4,2,1,50,0,1
105980,-100,4,2,1,60,0,1
106380,-133.333333333333,4,2,1,60,0,1
107380,-133.333333333333,4,2,1,10,0,0
119780,-133.333333333333,4,2,2,60,0,0
125180,-133.333333333333,4,2,1,40,0,0
125580,-133.333333333333,4,2,2,60,0,0
129580,-133.333333333333,4,2,1,40,0,0
129980,-133.333333333333,4,2,2,60,0,0
131580,-133.333333333333,4,2,1,40,0,0
131980,-133.333333333333,4,2,2,60,0,0
135580,-133.333333333333,4,2,1,45,0,0
136380,-133.333333333333,4,2,2,60,0,0
143980,-133.333333333333,4,2,1,30,0,0
144380,-133.333333333333,4,2,2,60,0,0
145780,-133.333333333333,4,2,1,60,0,0
171380,-133.333333333333,4,2,2,40,0,0
193580,-133.333333333333,4,2,1,40,0,0
195180,-133.333333333333,4,2,2,40,0,0
196980,-100,4,2,1,60,0,1
197180,-100,4,2,1,60,0,0
207580,-100,4,2,1,40,0,0
207980,-100,4,2,1,60,0,0
218780,-100,4,2,1,40,0,0
219180,-100,4,2,1,60,0,0
220380,-100,4,1,1,40,0,0
220780,-100,4,2,1,60,0,0
222580,-100,4,2,1,60,0,1
248180,-100,4,2,1,5,0,0

[Colours]
Combo1 : 166,217,255
Combo2 : 176,60,255
Combo3 : 9,163,255
Combo4 : 237,166,255

[HitObjects]
74,65,1785,2,0,B|138:25|206:65,1,140,2|0
420,272,4585,2,0,B|389:361,2,70,2|0|2
450,194,5785,1,0
438,65,8185,6,0,B|374:25|305:65,1,140,2|0
92,272,10985,2,0,B|115:338,2,70,2|0|2
62,194,12185,1,0
438,319,14585,6,0,B|374:359|306:319,1,140,0|2
92,112,17385,2,0,B|123:23,2,70,2|0|2
62,190,18585,1,0
76,272,18985,1,2
62,190,19385,6,0,B|137:196|167:269,1,140,0|2
250,254,20585,2,0,B|309:305|379:277,1,140,0|2
440,217,21785,2,0,B|482:125,1,70,0|2
469,153,22385,2,0,B|413:148|353:91,1,105,0|2
290,107,23385,6,0,B|256:32,1,70,0|2
135,155,24185,2,0,B|163:218,1,70,0|2
238,181,24985,2,0,B|172:37,1,140,0|2
441,256,27385,6,0,B|391:316|305:328,1,140,0|2
285,249,28585,1,0
237,318,28985,2,0,B|152:318,1,70,2|0
47,200,29785,2,0,B|121:200,1,70,0|2
200,203,30585,2,0,B|265:234|351:211,2,140,0|2|0
159,128,32585,1,2
141,45,32985,6,0,B|238:46,1,70,0|2
288,78,33785,1,0
354,129,34185,2,0,B|400:134|440:104,2,70,2|0|2
276,162,35385,2,0,B|196:180|162:260,1,140,0|2
157,328,36585,1,0
235,297,36985,6,0,B|320:332,2,70,0|2|0
169,244,38185,1,2
299,323,38585,2,0,B|392:293,1,70,0|2
418,367,39385,2,0,B|483:230,1,140,0|0
465,157,40585,1,2
386,187,40985,6,0,B|339:188|298:161,1,70,0|2
276,169,41585,2,0,B|280:289,1,105,0|2
141,241,42585,1,0
186,311,42985,1,2
186,311,43185,1,0
186,311,43385,2,0,B|239:361|342:338,1,140,0|2
427,215,44585,5,0
427,215,44785,1,2
427,215,44985,2,0,B|411:184|369:163,1,70,0|2
303,127,45785,2,0,B|256:137|221:134,1,70,0|2
178,198,46585,2,0,B|113:171|74:105,1,140,0|2
78,272,47785,5,2
78,272,47985,2,0,B|129:304|182:360,1,105,0|2
243,326,48985,2,0,B|292:320|318:302,1,70,0|2
386,271,49785,2,0,B|380:208|390:144,1,105,0|0
387,166,50585,2,0,B|337:154|312:135,1,70,2|0
321,141,51185,2,0,B|266:152|202:144,1,105,0|2
100,266,52185,6,0,B|139:285|190:289,1,70,0|2
250,292,52985,2,0,B|331:289|396:256,2,140,0|2|0
166,286,54985,1,2
261,147,55385,1,0
385,261,55785,1,2
306,290,56185,6,0,B|234:307|164:285,2,140,0|2|0
385,261,58185,1,2
381,93,58585,2,0,B|344:110|307:117,1,70,0|2
234,139,59385,2,0,B|159:170|111:234,1,140,0|2
46,321,60785,5,2
46,321,60985,2,0,B|118:333|208:314,1,140,0|2
265,293,62185,1,0
337,249,62585,2,0,B|412:244|503:256,1,140,0|2
443,330,63785,5,2
443,330,63985,2,0,B|399:349|339:339,1,105,0|2
256,328,64985,2,0,B|178:315|112:322,1,140,0|0
126,154,66185,5,2
126,154,66385,1,0
126,154,66585,2,0,B|168:153|220:125,1,70
231,118,67185,2,0,B|271:100|307:92,1,70,2|2
339,93,67785,1,0
385,331,68185,6,0,B|369:287|370:241,1,70,0|2
418,193,68985,2,0,B|469:212|492:228,2,70,0|2|0
343,154,70185,1,0
343,154,70385,1,2
226,275,70785,1,2
226,275,70985,1,0
143,291,71385,6,0,B|119:259|77:238,1,70,0|2
56,168,72185,2,0,B|42:97|53:21,1,140,0|2
133,50,73385,5,0
133,50,73585,1,2
269,149,73985,1,2
269,149,74185,1,0
215,308,74585,1,0
215,308,74985,1,2
215,308,75388,6,0,B|284:322|383:304,1,140
278,158,77054,2,0,B|207:150|125:159,1,140
256,192,79380,12,0,81380
259,251,81780,6,0,B|186:232|126:189,2,140,4|0|8
400,343,82980,1,0
399,175,83380,2,0,B|390:103|410:31,2,140,2|2|8
400,343,84580,1,0
244,278,84980,6,0,B|176:255|92:252,1,140,2|0
24,270,85580,1,0
32,186,85780,2,0,B|74:126|157:88,2,140,8|0|2
24,270,86980,1,2
187,308,87380,1,8
392,115,87780,5,0
311,90,87980,1,0
231,118,88180,2,0,B|165:152|81:153,2,140,2|0|8
397,142,89380,1,0
363,219,89580,1,0
303,278,89780,2,0,B|246:316|137:313,2,140,2|2|8
159,190,90980,5,0
293,89,91380,2,0,B|363:55|444:50,2,140,2|0|8
345,248,92580,1,0
265,273,92780,1,0
181,282,92980,2,0,B|112:293|20:282,2,140,2|2|8
267,137,94180,1,0
433,161,94580,6,0,B|402:227|411:308,2,140,4|0|8
351,14,95780,2,0,B|430:22,1,70
384,96,96180,2,0,B|232:85,1,140,2|2
81,129,96980,2,0,B|88:204|108:284,1,140,8|0
270,243,97780,6,0,B|353:229|429:244,2,140,2|0|8
134,343,98980,1,0
85,274,99180,1,0
68,191,99380,2,0,B|80:118|121:60,1,140,2|2
241,178,100180,2,0,B|325:187|410:175,1,140,8|0
462,161,100780,1,0
507,90,100980,6,8,B|486:158|497:258,2,140,2|0|8
340,60,102180,1,0
264,97,102380,1,0
207,158,102580,2,0,B|180:230|181:294,2,140,2|2|8
62,71,103780,5,0
75,153,103980,1,0
59,235,104180,2,0,B|115:178|191:162,1,140,2|0
191,332,104980,2,0,B|271:333|361:307,1,140,8|0
443,192,105780,2,0,B|375:176|292:190,1,140,2|2
136,175,106580,6,0,B|188:75|315:36,1,209.999993741512,8|0
271,116,120180,6,0,B|328:104|383:77,2,104.999996870756,2|0|8
146,139,121380,1,0
256,199,121780,2,0,B|309:235|373:239,1,104.999996870756
478,224,122580,1,8
395,319,122980,1,0
271,295,123380,6,0,B|213:277|153:280,2,104.999996870756,0|0|8
395,319,124580,1,0
478,224,124980,2,0,B|464:165|468:111,2,104.999996870756,0|2|8
395,319,126180,1,0
295,241,126580,6,0,B|239:212|158:208,1,104.999996870756
69,192,127380,1,8
69,192,127780,1,0
174,122,128180,2,0,B|252:96|367:100,1,157.499995306134
329,99,128980,1,8
325,225,129380,1,0
412,315,129780,6,0,B|456:274|451:205,2,104.999996870756,2|0|8
287,335,130980,1,0
166,300,131380,2,0,B|119:270|104:213,2,104.999996870756,0|2|8
237,195,132580,1,0
343,261,132980,6,0,B|375:216|365:144|314:102,1,157.499995306134
328,115,133780,1,8
213,65,134180,1,0
105,129,134580,2,0,B|136:181|203:199|244:196,1,157.499995306134
239,196,135380,1,8
362,168,135780,1,2
446,74,136180,6,0,B|486:132|486:200|456:279,1,209.999993741512,2|8
340,228,137380,1,0
250,317,137780,2,0,B|196:328|135:316,1,104.999996870756
217,153,138580,2,0,B|271:142|321:152,1,104.999996870756,8|0
217,153,139380,6,0,B|304:84|409:71,1,209.999993741512,2|8
440,193,140580,1,0
369,297,140980,2,0,B|312:320|247:322,2,104.999996870756,0|2|8
440,193,142180,1,0
314,194,142580,6,0,B|199:194,2,104.999996870756,2|0|4
440,193,143780,1,0
368,89,144180,2,0,B|316:68|238:83,1,104.999996870756,8|0
142,110,144980,1,0
250,174,145380,1,0
316,281,145780,6,0,B|366:251|378:197,1,104.999996870756,2|0
342,77,146580,1,8
88,290,147180,5,0
88,290,147380,2,0,B|168:187,1,104.999996870756
261,144,148180,2,0,B|318:166|394:158,1,104.999996870756,8|0
489,176,148980,1,2
290,331,149780,5,8
123,241,150380,1,0
123,241,150580,2,0,B|80:132,1,104.999996870756,2|0
197,86,151380,2,0,B|259:97|327:83,1,104.999996870756,8|0
424,60,152180,2,0,B|381:96|368:165,1,104.999996870756,2|0
353,273,152980,1,8
170,323,153580,5,0
170,323,153780,2,0,B|109:331|56:289,1,104.999996870756,0|2
58,174,154580,2,0,B|85:223|152:240,1,104.999996870756,8|0
261,206,155380,2,0,B|320:189|379:204,2,104.999996870756,2|0|8
389,67,156780,5,0
389,67,156980,2,0,B|336:87|252:79,1,104.999996870756,0|2
160,64,157780,2,0,B|118:103|106:153,1,104.999996870756,8|0
134,275,158580,2,0,B|256:294|368:260,1,209.999993741512,2|8
421,95,159980,5,0
421,95,160180,2,0,B|382:125|312:137,1,104.999996870756,0|2
223,210,160980,2,0,B|268:243|330:250,1,104.999996870756,8|0
441,279,161780,1,2
276,88,162580,6,0,B|221:77|171:89,1,104.999996870756,8|0
86,182,163380,2,0,B|120:221|190:228,1,104.999996870756,0|2
304,229,164180,1,8
243,118,164580,1,0
178,226,164980,2,0,B|184:288|236:343,1,104.999996870756,2|0
304,229,165780,1,8
440,97,166380,5,0
440,97,166580,2,0,B|381:83|312:93,1,104.999996870756,0|2
242,175,167380,2,0,B|188:180|124:172,1,104.999996870756,8|2
58,74,168180,2,0,B|110:60|179:59,1,104.999996870756,2|0
287,60,168980,2,0,B|349:63|420:49,1,104.999996870756,8|0
420,177,169780,2,0,B|392:230|387:301,2,104.999996870756,0|0|8
457,56,170980,1,0
338,97,171380,6,0,B|234:125|126:108,2,209.999993741512,2|0|2
444,29,173380,1,0
369,130,173780,1,0
348,254,174180,1,0
435,345,174580,6,0,B|346:281|211:265,1,209.999993741512,2|0
115,280,175780,1,0
109,154,176180,1,2
223,207,176580,1,0
292,102,176980,1,2
361,206,177380,1,0
402,86,177780,6,0,B|460:69|522:64,2,104.999996870756,2|0|0
414,211,178980,2,0,B|368:232|275:228,1,104.999996870756,2|0
201,167,179780,2,0,B|146:149|58:156,1,104.999996870756,0|2
141,272,180580,1,0
141,272,180980,6,0,B|194:304|273:308,1,104.999996870756,2|0
349,243,181780,2,0,B|405:240|484:252,1,104.999996870756,0|2
371,151,182580,2,0,B|319:135|269:92,2,104.999996870756,2|0|2
493,183,183780,1,0
404,272,184180,6,0,B|363:318|295:295,1,104.999996870756,0|2
180,259,184980,2,0,B|138:221|75:236,1,104.999996870756,2|0
35,117,185780,2,0,B|97:118|139:49,1,104.999996870756,0|2
249,85,186580,2,0,B|228:149|291:188,1,104.999996870756,2|0
382,97,187380,5,0
395,222,187780,1,0
277,267,188180,1,2
193,172,188580,1,0
255,62,188980,5,0
193,172,189380,1,0
318,169,189780,1,2
132,66,190180,1,0
77,179,190580,5,0
77,179,191380,1,0
257,355,192180,1,0
257,355,192980,1,0
157,84,193780,6,0,B|259:22|361:88,1,209.999993741512,2|0
203,280,194980,2,0,B|149:163,1,104.999996870756,0|2
353,184,195780,2,0,B|309:280,1,104.999996870756,0|2
491,285,196580,1,0
327,321,196980,6,0,B|258:337|152:319,1,140,4|0
60,214,197780,2,0,B|129:198|235:216,1,140,8|0
351,282,198580,2,0,B|417:233|431:152,1,140,0|2
327,32,199380,1,8
274,191,199780,1,0
125,269,200180,6,0,B|78:204|75:124,1,140,2|0
243,121,200980,2,0,B|290:186|293:266,1,140,8|0
147,336,201780,2,0,B|212:304|300:306,1,140,2|2
439,244,202580,1,8
418,77,202980,1,0
286,181,203380,6,0,B|215:220|120:231,1,140,2|0
190,62,204180,2,0,B|261:23|356:12,1,140,8|0
426,149,204980,1,0
380,330,205380,1,2
305,166,205780,1,8
470,259,206180,1,0
283,272,206580,6,0,B|216:264|146:232,1,140,2|0
197,72,207380,2,0,B|264:80|334:112,1,140,8|8
412,258,208180,2,0,B|360:307|281:310,1,140,2|0
213,155,208980,2,0,B|130:149|65:200,2,140,8|0|2
151,311,210180,5,0
310,259,210580,2,0,B|373:217|399:142,1,140,8|0
233,108,211380,1,2
124,236,211780,2,0,B|175:292|269:295,1,140,2|8
233,108,212580,1,0
71,61,212980,6,0,B|43:139|67:206,1,140,2|0
231,213,213780,2,0,B|310:196|379:201,1,140,8|0
266,67,214580,1,2
429,110,214980,1,2
356,261,215380,2,0,B|288:288|218:284,1,140,8|0
150,130,216180,6,0,B|218:103|288:107,1,140,2|0
408,223,216980,1,8
393,55,217380,1,0
323,207,217780,2,0,B|296:274|212:308,1,140,2|2
183,139,218580,1,8
96,283,218980,1,8
241,199,219380,6,2,B|307:159|336:94,1,140,2|4
387,256,220180,1,8
447,99,220580,1,0
476,264,220980,1,2
370,133,221380,1,2
310,290,221780,1,2
289,123,222180,1,2
225,278,222580,6,0,B|150:269|97:213,1,140,4|0
212,90,223380,2,0,B|287:99|340:155,1,140,8|0
436,284,224180,2,0,B|367:320|288:318,1,140,2|2
157,230,224980,2,0,B|226:194|305:196,1,140,8|2
458,176,225780,6,0,B|475:100|447:19,2,140,2|2|8
396,332,226980,1,0
396,332,227380,2,0,B|314:322|256:290,1,140,2|2
146,171,228180,2,0,B|84:119,2,70,8|0|0
304,228,228980,6,0,B|372:180|393:108,2,140,2|0|8
151,300,230180,1,0
254,167,230580,2,0,B|300:95,2,70,2|0|0
151,301,231380,2,0,B|143:218|178:153,1,140,8|0
303,59,232180,6,0,B|396:36,2,70,2|0|0
250,219,232980,2,0,B|324:258|397:256,1,140,8|0
401,88,233780,2,0,B|474:41,2,70,2|0|0
233,94,234580,2,0,B|164:116|64:108,1,140,8|0
176,256,235380,6,0,B|249:258|342:278,2,140,2|0|8
35,163,236580,1,0
198,122,236980,2,0,B|281:119|340:65,1,140,2|2
494,59,237780,1,8
393,193,238180,1,0
287,323,238580,6,0,B|214:292|124:278,1,140,2|2
110,120,239380,1,8
270,170,239780,1,0
408,74,240180,1,2
345,229,240580,1,2
187,171,240980,1,8
97,313,241380,1,0
256,259,241780,6,0,B|347:240|390:193,1,140,2|0
281,336,242580,1,8
114,316,242980,1,0
204,174,243380,2,0,B|255:131|343:114,1,140,0|2
237,253,244180,2,0,B|181:305|95:321,1,140,8|0
281,332,244980,6,0,B|365:338|430:316,1,140,2|0
306,195,245780,1,8
306,195,246180,1,0
156,119,246580,2,0,B|129:189|157:284,1,140,2|0
306,195,247380,1,8
306,195,247780,1,0
256,192,248180,12,0,249780
