osu file format v9

[General]
AudioFilename: supercell - Yakusoku wo Shiyou.mp3
AudioLeadIn: 2000
PreviewTime: 40497
Countdown: 0
SampleSet: Soft
StackLeniency: 0.7
Mode: 0
LetterboxInBreaks: 0
StoryFireInFront: 0

[Editor]
DistanceSpacing: 1.2
BeatDivisor: 4
GridSize: 8

[Metadata]
Title:Yakusoku wo Shiyou
Artist:supercell
Creator:Colin Hou
Version:Normal
Source:
Tags:nagi ryo Sayonara Memories

[Difficulty]
HPDrainRate:2
CircleSize:4
OverallDifficulty:3
ApproachRate:4
SliderMultiplier:0.8
SliderTickRate:0.5

[Events]
//Background and Video events
0,0,"BG.jpg"
//Break Periods
//Storyboard Layer 0 (Background)
//Storyboard Layer 1 (Fail)
//Storyboard Layer 2 (Pass)
//Storyboard Layer 3 (Foreground)
//Storyboard Sound Samples
//Background Colour Transformations
3,100,189,200,200

[TimingPoints]
778.887040187441,461.537466543608,4,2,1,25,1,0
3548,-100,4,2,1,35,0,0
40471,-100,4,2,1,20,0,0
40932,-100,4,2,1,35,0,0
72317,-100,4,2,1,20,0,0
77855,-100,4,2,1,25,0,0
78317,-100,4,2,1,35,0,0
146163,-100,4,2,1,25,0,0
152163,-100,4,2,1,35,0,0
194800,461.538461538462,4,2,1,35,1,0
195276,461.538461538462,4,2,1,35,1,0
195835,461.538461538462,4,2,1,35,1,0
197313,461.538461538462,4,2,1,25,1,0
197543,-100,4,2,1,15,0,0
197889,-100,4,2,1,0,0,0

[Colours]
Combo1 : 253,230,168
Combo2 : 244,157,79

[HitObjects]
256,144,778,1,0
120,96,1701,1,0
48,216,2625,1,0
328,312,4067,5,0
328,312,4529,1,0
97,112,6317,1,2
240,88,8163,6,0,B|285:63|312:56,1,80,8|0
382,121,9086,2,0,B|320:140|302:161,1,80
264,232,10009,2,0,B|320:288|416:272,1,160,2|0
384,112,11855,6,0,B|376:280|200:352,1,320,8|0
104,184,14548,5,0
184,208,15009,2,0,B|216:160|272:160,1,93.3333333333333
336,288,16471,2,0,B|416:280|488:240,1,160
392,72,18317,1,2
312,88,18778,6,0,B|288:144,1,53.3333333333333
264,144,19240,2,0,B|184:97|104:152,2,160,0|0|0
240,304,22009,1,0
352,192,22932,6,0,B|391:216|432:224,1,80,8|0
472,160,23855,2,0,B|440:128|432:88,1,80,2|0
360,120,24778,2,0,B|312:192|216:192,1,160
160,144,26163,1,0
104,200,26624,2,0,B|160:352,2,160,8|2|0
264,96,29394,6,0,B|336:128,1,80
368,200,30317,2,0,B|296:240|264:328,1,160,8|0
192,104,32163,6,0,B|256:48|344:48,2,160,0|2|0
176,296,34932,1,2
312,160,35855,6,0,B|310:118|312:80,1,80
392,136,36778,2,0,B|393:178|392:224,1,80
472,160,37701,5,0
256,272,38624,1,0
40,160,39548,1,0
256,48,40471,1,2
304,232,41394,6,0,B|200:264|144:304,1,160,8|0
176,104,43240,2,0,B|272:128|328:64,1,160,0|0
448,216,45086,5,8
296,264,46009,2,0,B|328:344,2,80,0|0|2
208,56,47855,5,0
168,128,48317,1,0
88,104,48778,2,0,B|48:184|96:256,1,160,8|0
248,200,50624,6,0,B|328:168,1,80,8|0
336,248,51548,2,0,B|416:232,1,80
408,312,52471,2,0,B|344:368|248:352,1,160,8|0
128,168,54317,2,0,B|64:224,2,80,0|0|2
304,304,56163,6,0,B|384:264|400:176,1,160,8|0
288,72,58009,2,0,B|128:104,1,160,2|0
168,176,59394,1,0
120,240,59855,2,0,B|72:312,1,80,8|0
160,320,60778,2,0,B|208:240,1,80
250,188,61701,2,0,B|328:144|402:188,1,160,2|0
272,344,63547,6,0,B|184:336,1,80,8|0
224,248,64471,2,0,B|136:240,1,80
152,144,65394,1,8
168,48,65855,1,2
264,40,66317,1,0
304,128,66778,1,2
360,208,67240,6,0,B|392:240|440:232,1,80,8|0
496,176,68163,2,0,B|464:144|416:152,1,80,0|0
360,208,69086,2,0,B|320:288|218:300,1,160
72,272,70701,1,0
72,272,70932,6,0,B|130:253|160:208|160:208|208:224|264:200|288:161,1,240,8|0
192,96,72778,1,2
368,240,73701,1,0
160,312,74624,6,0,B|80:272,1,80,8|0
64,184,75547,2,0,B|128:216|224:208,1,160
464,56,77855,6,0,B|408:72,1,53.3333333333333
392,48,78317,2,0,B|376:136|296:176,2,160,8|0|0
248,48,80855,2,0,B|192:48,4,40
224,88,82009,6,0,B|224:176,1,80,8|0
312,208,82932,2,0,B|328:160|384:160,1,80
400,248,83855,2,0,B|384:296|328:296,2,80
370,160,85240,1,0
280,128,85701,6,0,B|208:184|128:128,1,160,8|0
104,320,87547,2,0,B|72:296|72:240,1,80,2|0
168,248,88471,2,0,B|248:248,1,80
344,248,89394,2,0,B|432:216|432:120,1,160,8|0
376,48,90778,1,0
328,128,91240,1,0
48,192,92624,5,0
48,192,93086,2,0,B|128:192,1,80,8|0
192,264,94009,2,0,B|208:208|304:208|320:270,1,160
256,56,95855,6,0,B|256:136,1,80,2|0
208,216,96778,1,8
304,216,97240,1,0
256,136,97701,2,0,B|256:304,1,160,0|2
88,144,99547,6,0,B|132:147|168:128,1,80
248,80,100470,2,0,B|344:64|384:144,2,160,8|0|2
160,288,103240,5,0
88,224,103701,1,0
160,160,104163,2,0,B|160:80,1,80,8|0
72,40,105086,2,0,B|72:120,1,80
160,160,106009,2,0,B|256:144|296:232,1,160,0|2
360,296,107394,1,0
400,208,107855,6,0,B|360:128,1,80,8|0
448,96,108778,1,2
224,56,109701,6,0,B|144:80,1,80,0|2
208,152,110624,2,0,B|120:192,1,80,0|2
192,264,111547,2,0,B|240:336|328:336,2,160,0|2|0
344,144,114317,1,2
128,72,115240,5,8
32,240,116163,1,0
216,288,117086,2,0,B|272:304|336:256|328:192,1,160,0|0
240,40,118932,2,0,B|240:208,2,160,8|0|0
448,128,121701,5,0
360,88,122163,1,0
320,176,122624,2,0,B|312:264|224:296,1,160,8|0
160,224,124009,1,0
96,296,124470,2,0,B|64:264|16:272,2,80,0|2|0
176,88,126317,6,0,B|256:112,1,80,8|0
325,48,127240,1,0
404,101,127701,1,0
328,160,128163,2,0,B|280:224|288:312,1,160,8|0
364,368,129547,1,0
448,320,130009,6,0,B|472:288|472:232,1,80,8|0
416,168,130932,2,0,B|392:200|392:256,1,80,0|0
312,288,131855,2,0,B|224:312|152:256,1,160,0|0
312,64,133701,6,0,B|312:144,1,80,8|0
392,184,134624,2,0,B|392:104,1,80,0|0
312,144,135547,2,0,B|236:184|152:144,1,160,0|2
72,104,136932,1,0
72,200,137393,6,0,B|72:288,1,80,8|0
166,259,138317,1,0
256,232,138778,2,0,B|256:312,2,80,0|0|0
344,200,140163,2,0,B|426:173,1,80,0|0
448,80,141086,2,0,B|384:25|288:48,2,160,0|2|0
328,232,143855,1,2
192,184,144547,1,0
192,184,144778,2,0,B|184:264|96:304,1,160,8|0
136,80,146624,6,0,B|304:80,1,160
344,264,148470,2,0,B|352:312|392:336,1,80,8|0
440,256,149393,2,0,B|432:208|392:184,1,80
344,264,150317,2,0,B|304:344|208:344,1,160,0|2
128,272,151701,6,0,B|168:224,1,53.3333333333333
184,200,152163,2,0,B|264:168|344:200,2,160,2|0|0
48,64,154932,6,0,B|128:64,1,80
224,64,155855,1,8
173,145,156317,1,0
128,229,156778,2,0,B|208:229,1,80
275,161,157701,2,0,B|323:233|421:230,1,160
448,144,159086,1,0
360,112,159547,6,0,B|353:64|304:40,1,80,8|0
221,47,160470,2,0,B|185:63|178:111,1,80,0|0
272,120,161393,2,0,B|272:288,1,160
221,361,162778,1,0
168,280,163240,6,0,B|168:120,1,160,8|0
220,39,164624,1,0
312,80,165086,2,0,B|352:56|392:80,1,80
352,168,166009,2,0,B|352:256,1,80
272,304,166932,6,0,B|248:216|152:216,1,160,8|0
56,48,168778,2,0,B|80:88|56:128,1,80
154,124,169701,2,0,B|130:84|154:44,1,80
240,80,170624,2,0,B|320:80,1,80,8|0
408,48,171547,1,0
480,112,172009,1,0
392,136,172470,2,0,B|448:200|448:288,1,160
376,344,173855,1,0
346,252,174316,6,0,B|309:279|258:260,1,80,8|0
216,184,175240,2,0,B|253:157|304:176,1,80
269,263,176163,2,0,B|224:344|136:344,1,160,2|0
64,288,177547,1,0
64,192,178009,6,0,B|64:146|104:112,1,80,8|0
168,64,178932,1,0
264,56,179393,1,0
352,88,179855,2,0,B|436:120|448:216,1,160,2|0
432,304,181240,1,0
336,280,181701,6,0,B|304:312|256:320,1,80,8|0
208,240,182624,2,0,B|144:192|56:192,1,160,2|0
8,280,184009,1,0
104,296,184470,2,0,B|120:344|160:360,1,80,2|0
200,272,185393,5,8
185,180,185855,1,2
268,137,186316,1,0
334,203,186778,1,2
291,286,187240,2,0,B|363:336|448:320,1,160,0|2
376,104,189086,6,0,B|296:112|231:85|231:85|248:144|164:68|87:138,1,320
64,328,191855,2,0,B|144:288,1,80
224,248,192778,2,0,B|256:336|392:336|423:248,1,253.333333333333
376,144,194800,5,0
288,96,195276,1,0
176,136,195835,1,0
192,272,197313,6,0,B|216:288,4,20,2|0|0|0|0
256,192,197889,12,0,201928
