osu file format v9

[General]
AudioFilename: supercell - Yakusoku wo Shiyou.mp3
AudioLeadIn: 2000
PreviewTime: 40497
Countdown: 0
SampleSet: Soft
StackLeniency: 0.7
Mode: 0
LetterboxInBreaks: 0
StoryFireInFront: 0

[Editor]
DistanceSpacing: 1.2
BeatDivisor: 8
GridSize: 8

[Metadata]
Title:Yakusoku wo Shiyou
Artist:supercell
Creator:Colin Hou
Version:Hard
Source:
Tags:nagi ryo Sayonara Memories

[Difficulty]
HPDrainRate:6
CircleSize:4
OverallDifficulty:6
ApproachRate:6
SliderMultiplier:1.4
SliderTickRate:0.5

[Events]
//Background and Video events
0,0,"BG.jpg"
//Break Periods
//Storyboard Layer 0 (Background)
//Storyboard Layer 1 (Fail)
//Storyboard Layer 2 (Pass)
//Storyboard Layer 3 (Foreground)
//Storyboard Sound Samples
//Background Colour Transformations
3,100,189,200,200

[TimingPoints]
778.887040187441,461.537466543608,4,2,1,30,1,0
3548,-100,4,2,1,35,0,0
8163,-133.333333333333,4,2,1,35,0,0
19240,-200,4,2,1,35,0,0
21086,-133.333333333333,4,2,1,35,0,0
22317,-133.333333333333,4,2,1,25,0,0
22471,-133.333333333333,4,2,1,35,0,0
22778,-133.333333333333,4,2,1,35,0,0
22932,-133.333333333333,4,2,1,35,0,0
26624,-133.333333333333,4,2,1,25,0,0
26740,-133.333333333333,4,2,1,35,0,0
31240,-200,4,2,1,35,0,0
34009,-133.333333333333,4,2,1,35,0,0
40471,-133.333333333333,4,2,1,20,0,0
41394,-100,4,2,1,35,0,0
46932,-133.333333333333,4,2,1,35,0,0
47394,-100,4,2,1,35,0,0
69086,-200,4,2,1,35,0,0
70009,-200,4,2,1,25,0,0
71778,-200,4,2,1,20,0,0
71932,-200,4,2,1,35,0,0
72317,-200,4,2,1,20,0,0
74624,-133.333333333333,4,2,1,20,0,0
78317,-133.333333333333,4,2,1,35,0,0
81086,-200,4,2,1,35,0,0
81547,-133.333333333333,4,2,1,35,0,0
107855,-200,4,2,1,35,0,0
108778,-133.333333333333,4,2,1,35,0,0
112470,-200,4,2,1,40,0,0
112932,-133.333333333333,4,2,1,35,0,0
115240,-100,4,2,1,35,0,0
116163,-100,4,2,1,25,0,0
116394,-133.333333333333,4,2,1,35,0,0
117778,-200,4,2,1,35,0,0
121701,-133.333333333333,4,2,1,35,0,0
129086,-100,4,2,1,35,0,0
130009,-133.333333333333,4,2,1,35,0,0
136470,-100,4,2,1,35,0,0
141086,-200,4,2,1,35,0,0
141778,-133.333333333333,4,2,1,35,0,0
146163,-133.333333333333,4,2,1,25,0,0
152163,-200,4,2,1,35,0,0
154701,-133.333333333333,4,2,1,35,0,0
160470,-200,4,2,1,35,0,0
163240,-133.333333333333,4,2,1,35,0,0
170624,-100,4,2,1,35,0,0
171547,-133.333333333333,4,2,1,35,0,0
189086,-200,4,2,1,35,0,0
194800,461.538461538462,4,2,1,35,1,0
195276,461.538461538462,4,2,1,35,1,0
195835,461.538461538462,4,2,1,35,1,0
197313,461.538461538462,4,2,1,25,1,0
197543,-100,4,2,1,15,0,0
197889,-100,4,2,1,0,0,0

[Colours]
Combo1 : 253,230,168
Combo2 : 244,157,79

[HitObjects]
80,80,778,1,0
296,152,1701,1,0
192,352,2625,1,0
472,144,4067,5,0
472,144,4528,1,0
72,320,6317,1,2
352,136,8163,6,0,B|472:136,1,104.999996870756,8|0
424,216,9086,2,0,B|304:216,1,104.999996870756
280,288,10009,2,0,B|240:360|125:355|100:261,1,209.999993741512
206,97,11855,5,8
432,312,13701,1,0
278,168,14548,2,0,B|242:219|187:219,1,104.999996870756
181,297,15394,1,0
181,297,15548,2,0,B|308:288|356:188,1,209.999993741512
384,96,16932,1,0
480,144,17394,1,0
48,160,18778,5,0
136,104,19086,1,0
136,104,19240,2,0,B|264:136|192:264|328:288,1,280,2|0
344,104,21855,5,0
344,104,22009,2,0,B|384:168,1,65.6249980442227
352,192,22471,2,0,B|392:256,1,65.6249980442227
376,288,22932,6,0,B|288:344,1,104.999996870756,8|0
128,280,23855,2,0,B|216:224,1,104.999996870756,2|0
232,56,24778,2,0,B|144:112,2,104.999996870756
400,144,26163,5,0
304,232,26624,2,0,B|272:344|176:368|100:346|72:264|96:200|180:180|238:217|213:264|174:274,1,419.999987483025,8|0
88,56,29394,5,0
224,144,29855,1,0
352,56,30317,2,0,B|408:88|400:144,1,104.999996870756,8|0
294,144,31240,6,0,B|224:144,1,70
88,224,32163,2,0,B|120:336|248:344,1,210
445,155,34009,6,0,B|416:200|360:208,1,104.999996870756,8|0
256,192,34932,1,2
192,272,35394,1,0
128,184,35855,2,0,B|76:217|80:280,1,104.999996870756
248,360,36778,2,0,B|300:327|296:264,1,104.999996870756,2|0
192,272,37701,6,0,B|176:328|120:344,1,104.999996870756,8|2
80,250,38624,1,0
72,192,38855,1,2
80,136,39086,1,0
72,88,39317,1,2
80,40,39548,6,0,B|80:248,1,209.999993741512,0|2
384,96,41394,5,8
272,224,41855,1,0
192,192,42086,2,0,B|120:224,2,70,0|0|2
40,128,43009,5,0
304,48,43471,1,0
472,264,43932,1,0
208,344,44394,1,2
216,192,44855,5,0
272,120,45086,2,0,B|302:192|384:192,1,140,8|0
272,263,45778,2,0,B|302:192|381:192,1,140,0|2
216,192,46701,1,0
216,192,46932,6,0,B|104:192,1,104.999996870756,8|2
192,48,47855,5,0
392,248,48317,1,0
176,296,48778,6,0,B|120:336|32:320,1,140,8|0
80,248,49471,2,0,B|112:176|56:112,1,140
60,117,50163,1,2
264,32,50624,6,0,B|248:112|320:160,1,140,8|0
392,136,51317,1,0
368,216,51548,2,0,B|352:288|272:328,1,140,0|2
283,321,52240,1,0
200,344,52471,5,8
256,96,52932,1,2
384,160,53394,5,0
168,216,53855,1,2
312,264,54317,6,0,B|368:320|440:320,1,140,8|0
312,192,55009,1,0
312,120,55240,2,0,B|256:64|184:64,1,140,0|2
88,336,56163,6,0,B|160:320|216:264,1,140,8|0
272,328,56855,1,0
176,192,57317,1,2
288,64,57778,6,0,B|354:39|432:48,1,140
488,312,58701,2,0,B|422:337|344:328,1,140,0|2
224,192,59624,5,0
224,192,59855,2,0,B|192:256|104:280,1,140,8|0
80,200,60547,2,0,B|112:128|80:48,1,140,0|2
328,48,61471,1,2
328,48,61701,2,0,B|352:112|416:160,1,140,8|2
208,304,62624,5,0
64,96,63086,1,0
280,40,63547,2,0,B|304:112|384:152,1,140,8|0
440,96,64240,1,0
256,272,64932,1,0
192,216,65163,6,0,B|112:248,1,70,0|8
24,104,65855,1,2
232,24,66317,1,0
328,224,66778,1,2
120,304,67240,6,0,B|80:240|112:160,1,140,8|0
392,80,68163,2,0,B|432:144|400:224,1,140
184,192,69086,6,0,B|328:192,1,140,0|2
256,72,70701,5,0
256,72,70932,2,0,B|240:136|280:208|256:280,1,210,8|0
120,312,72778,2,0,B|144:232,1,70
120,160,73701,1,2
432,72,74624,6,0,B|448:128|432:176,1,104.999996870756,8|0
328,192,75547,2,0,B|232:136|128:192,1,209.999993741512
80,64,77394,5,0
160,136,77855,2,0,B|192:114|208:80,1,69.9999979138375
240,96,78317,2,0,B|264:199|339:241|376:240|376:240|400:240|443:240|469:188|454:133|410:112|368:136|372:159,1,419.999987483025,8|0
224,248,80932,5,0
224,248,81086,2,0,B|191:282,1,46.6666666666667
160,304,81547,2,0,B|85:297,1,69.9999979138375
104,256,82009,2,0,B|128:208|104:144,1,104.999996870756,8|0
264,216,82932,2,0,B|304:176|368:176,1,104.999996870756
456,256,83855,5,0
336,344,84317,1,0
176,288,84778,1,0
104,112,85240,1,0
304,168,85701,6,0,B|408:136,1,104.999996870756,8|0
112,272,86624,2,0,B|216:240,2,104.999996870756,2|0|0
32,176,88009,1,0
192,72,88471,6,0,B|232:112|232:168,1,104.999996870756
296,72,89240,1,0
296,72,89394,2,0,B|337:151|304:225|304:225|344:264,1,209.999993741512,8|0
440,336,90778,1,0
312,352,91240,2,0,B|240:280|240:280|197:316|136:296,1,209.999993741512,0|2
168,136,92624,6,0,B|239:113,1,69.9999979138375,0|0
256,80,93086,2,0,B|280:128|344:136,1,104.999996870756,8|0
240,216,94009,2,0,B|144:256,1,104.999996870756
360,336,94932,2,0,B|416:248|416:128,1,209.999993741512,0|2
304,88,96317,2,0,B|231:112,1,69.9999979138375
208,80,96778,2,0,B|208:144|168:184,1,104.999996870756,8|0
48,160,97701,1,0
272,136,98163,1,0
134,316,98624,6,0,B|176:296|192:232,1,104.999996870756
272,136,99547,2,0,B|320:168|376:160,1,104.999996870756
432,296,100470,1,8
280,360,100932,1,0
136,240,101394,2,0,B|183:212|240:208,1,104.999996870756
24,160,102317,6,0,B|160:120|200:40,1,209.999993741512,0|0
195,47,103701,1,0
392,104,104163,2,0,B|408:160|448:192,1,104.999996870756,8|0
376,296,105086,2,0,B|339:341|288:357,1,104.999996870756
288,232,106009,2,0,B|248:280|184:296|112:288|80:184|144:152|200:144|216:200,1,314.999990612269,0|2
211,189,107855,6,0,B|248:176|256:128,1,70,8|0
440,112,108778,2,0,B|336:152,1,104.999996870756,2|0
80,64,109701,2,0,B|112:112|112:176,1,104.999996870756,0|2
96,288,110624,1,0
160,304,110855,1,0
216,272,111086,1,2
272,40,111547,6,0,B|280:96|336:128,1,104.999996870756,8|2
304,232,112470,2,0,B|344:224,1,35,0|2
344,288,112932,2,0,B|400:272,1,52.4999984353781,0|2
304,232,113394,2,0,B|256:336|128:344,1,209.999993741512,0|2
96,64,115240,6,0,B|128:128|216:144,1,140,8|0
280,112,115932,2,0,B|344:80,1,70,0|2
272,192,116394,2,0,B|216:224|224:288,1,104.999996870756
96,112,117317,1,2
440,224,117778,2,0,B|432:296,1,70,0|2
72,160,118701,1,0
72,160,118932,6,0,B|80:88,1,70,8|0
128,72,119624,2,0,B|160:96,2,35,0|0|2
264,248,120547,1,0
304,280,120778,2,0,B|384:256,1,70,8|2
248,48,121701,6,0,B|144:56,1,104.999996870756,0|2
64,296,122624,2,0,B|120:280|152:216,1,104.999996870756,8|0
216,248,123317,1,0
248,312,123547,2,0,B|368:320,1,104.999996870756,0|2
312,72,124470,2,0,B|192:64,2,104.999996870756,0|2|0
448,240,126086,5,0
384,200,126317,2,0,B|368:256|320:288,1,104.999996870756,8|0
97,239,127240,2,0,B|200:216,1,104.999996870756
208,72,128163,2,0,B|240:32,1,52.4999984353781,8|2
240,104,128624,2,0,B|240:160,1,52.4999984353781,0|2
184,112,129086,2,0,B|344:88,1,140,0|2
272,280,130009,6,0,B|312:320|368:320,1,104.999996870756,8|0
416,280,130701,1,0
368,72,131163,1,0
176,152,131624,6,0,B|160:208|112:232,1,104.999996870756,0|2
320,232,132547,2,0,B|424:224,1,104.999996870756,0|2
224,48,133470,5,0
208,112,133701,2,0,B|160:152|96:160,1,104.999996870756,8|0
56,136,134393,2,0,B|8:152,2,52.4999984353781,0|0|2
408,296,135317,1,0
408,296,135547,2,0,B|432:240|400:176,1,104.999996870756,0|2
80,256,136470,6,0,B|232:216,1,140,8|0
168,144,137163,1,0
248,112,137393,2,0,B|304:168|392:152,1,140,8|0
456,200,138086,2,0,B|384:248|368:320,1,140
371,307,138778,1,2
192,328,139240,5,0
80,184,139701,1,0
200,32,140163,1,0
400,96,140624,1,2
224,208,141086,6,0,B|221:248|257:273,1,70,0|2
120,224,142009,2,0,B|121:288|168:327,1,104.999996870756,8|2
320,192,142932,2,0,B|356:195|440:172,2,104.999996870756,0|0|2
112,120,144547,5,0
144,80,144778,2,0,B|240:104|192:208|240:144|144:240|248:304|320:304,1,314.999990612269,8|0
408,264,146624,1,0
96,336,147547,1,0
136,72,148470,6,0,B|149:128|209:149,1,104.999996870756,8|0
376,72,149393,2,0,B|362:128|302:149,1,104.999996870756
256,48,150317,2,0,B|248:104|272:208|252:272,1,209.999993741512,0|2
64,256,151701,6,0,B|96:264|128:288,1,69.9999979138375
120,320,152163,2,0,B|256:288|256:288|392:320,1,280,2|0
400,80,154701,5,0
352,112,154932,1,0
304,80,155163,2,0,B|280:136|224:144,1,104.999996870756
176,120,155855,6,0,B|208:224,1,104.999996870756,8|0
352,344,156778,2,0,B|321:243,1,104.999996870756
88,288,157701,2,0,B|200:288|275:195,1,209.999993741512
328,88,159086,1,0
392,192,159547,6,0,B|408:248|456:272,1,104.999996870756,8|0
336,248,160470,2,0,B|320:288|288:304,1,70
116,223,161393,2,0,B|256:223,1,140
344,133,162778,1,0
206,26,163240,6,0,B|277:113|256:223,1,209.999993741512,8|0
256,222,164624,1,0
160,320,165086,1,0
344,256,165547,1,0
240,72,166009,2,0,B|304:64|352:104,1,104.999996870756
256,248,166932,6,0,B|232:312|184:328,1,104.999996870756,8|0
144,208,167855,2,0,B|152:96|264:24,1,209.999993741512
336,120,169240,2,0,B|352:160|384:176,1,65.6249980442227
424,184,169701,2,0,B|392:208|384:240,1,65.6249980442227
344,216,170163,2,0,B|312:240|304:272,1,65.6249980442227
350,281,170624,6,0,B|275:252|204:284,1,140,8|0
80,56,171547,2,0,B|96:112|144:152,1,104.999996870756
344,104,172470,1,0
200,296,172932,1,0
400,352,173393,6,0,B|360:304|352:248,1,104.999996870756
416,128,174316,2,0,B|312:160,1,104.999996870756,8|0
112,264,175240,2,0,B|212:233,1,104.999996870756
240,165,175932,1,0
216,96,176163,2,0,B|240:48|304:48,1,104.999996870756,2|0
296,288,177086,6,0,B|272:336|208:336,1,104.999996870756
96,232,178009,1,8
168,96,178470,1,0
344,192,178932,2,0,B|448:160,1,104.999996870756
296,48,179855,2,0,B|240:104|280:192|208:232,1,209.999993741512,8|2
104,208,181240,1,0
176,128,181701,6,0,B|288:160,1,104.999996870756,8|0
352,88,182624,1,2
424,264,183086,1,0
280,248,183547,2,0,B|240:296|176:296,1,104.999996870756
168,152,184470,2,0,B|189:93|157:37,1,104.999996870756,2|0
344,232,185393,6,0,B|322:290|354:346,1,104.999996870756,8|2
408,176,186316,1,0
392,112,186547,1,2
344,72,186778,1,0
280,64,187009,1,2
224,88,187240,2,0,B|216:208|104:264,1,209.999993741512,0|2
288,336,189086,6,0,B|360:296|368:216|368:216|376:233|390:234|390:234|416:184|480:168,1,280
216,48,191855,5,0
128,152,192316,1,0
352,160,192778,2,0,B|368:240|440:264,1,140
288,360,194240,1,0
72,96,194800,5,0
208,64,195276,1,0
224,224,195835,1,0
384,136,197313,6,0,B|424:144,4,35,2|0|0|0|0
256,192,197889,12,0,201928
