osu file format v12

[General]
AudioFilename: Utakata Hanabi.mp3
AudioLeadIn: 1000
PreviewTime: 56598
Countdown: 0
SampleSet: Soft
StackLeniency: 0.7
Mode: 0
LetterboxInBreaks: 0
EpilepsyWarning: 1
WidescreenStoryboard: 0

[Editor]
DistanceSpacing: 1.1
BeatDivisor: 4
GridSize: 4

[Metadata]
Title:Utakata Hanabi (TV Size)
TitleUnicode:うたかた花火 (TV Size)
Artist:supercell
ArtistUnicode:supercell
Creator:mintong89
Version:Bubbles
Source:Naruto Shippuuden
Tags:ED 泡沫花火 nagi yanaginagi ryo gazelle ending
BeatmapID:281543
BeatmapSetID:107417

[Difficulty]
HPDrainRate:4
CircleSize:3
OverallDifficulty:3
ApproachRate:5
SliderMultiplier:1.2
SliderTickRate:1

[Events]
//Background and Video events
0,0,"BG.jpg",0,0
//Break Periods
//Storyboard Layer 0 (Background)
//Storyboard Layer 1 (Fail)
//Storyboard Layer 2 (Pass)
//Storyboard Layer 3 (Foreground)
//Storyboard Sound Samples
//Background Colour Transformations
3,100,163,162,255

[TimingPoints]
1420.29268292683,714.285714285714,4,2,1,40,1,0
23027,-100,4,2,1,5,0,0
24277,-100,4,2,1,40,0,0
29277,-100,4,2,1,15,0,0
29991,-100,4,2,1,40,0,0
58563,-100,4,2,1,40,0,1
87134,-100,4,2,1,5,0,0

[Colours]
Combo1 : 137,67,104
Combo2 : 108,117,136
Combo3 : 103,35,154
Combo4 : 120,136,250
SliderBorder : 255,255,255

[HitObjects]
108,96,1420,1,2,0:0:0:0:
108,96,2134,1,2,0:0:0:0:
108,96,2848,2,0,P|144:116|236:96,1,120,2|2,0:0|0:0,0:0:0:0:
272,68,3920,1,0,0:0:0:0:
332,100,4277,2,0,B|352:124|360:156|360:156|344:188|360:228,1,120,2|2,0:0|0:0,0:0:0:0:
360,276,5348,1,0,0:0:0:0:
228,260,6063,2,0,L|152:252,2,60,0|2|0,0:0|0:0|0:0,0:0:0:0:
280,220,7134,6,0,P|300:188|280:88,1,120,2|2,0:0|0:0,0:0:0:0:
256,52,8206,1,0,0:0:0:0:
192,44,8563,2,0,L|116:48,1,60,2|0,0:0|0:0,0:0:0:0:
76,84,9277,2,0,L|56:156,1,60,2|0,0:0|0:0,0:0:0:0:
48,208,9991,2,0,P|76:244|152:252,1,120,2|2,0:0|0:0,0:0:0:0:
216,368,11420,2,0,P|260:340|272:252,1,120,2|2,0:0|0:0,0:0:0:0:
256,148,12848,6,0,L|240:64,1,60,2|0,0:0|0:0,0:0:0:0:
188,56,13563,2,0,P|132:40|60:64,1,120,2|2,0:0|0:0,0:0:0:0:
36,108,14634,1,0,0:0:0:0:
24,172,14991,2,0,P|32:216|48:240,1,60,2|0,0:0|0:0,0:0:0:0:
100,252,15706,2,0,P|156:264|220:256,2,120,2|2|2,0:0|0:0|0:0,0:0:0:0:
160,136,17848,1,2,0:0:0:0:
268,56,18563,6,0,P|308:44|392:64,1,120,2|2,0:0|0:0,0:0:0:0:
432,100,19634,1,0,0:0:0:0:
456,160,19991,2,0,L|428:292,1,120,2|2,0:0|0:0,0:0:0:0:
388,328,21063,1,0,0:0:0:0:
328,352,21420,2,0,P|272:372|200:340,2,120,2|2|2,0:0|0:0|0:0,0:0:0:0:
268,236,23563,1,0,0:0:0:0:
164,152,24277,6,0,P|104:140|48:168,1,120,2|2,0:0|0:0,0:0:0:0:
128,272,25706,2,0,P|188:284|244:256,1,120,2|2,0:0|0:0,0:0:0:0:
308,148,27134,1,2,0:0:0:0:
408,60,27848,1,2,0:0:0:0:
472,176,28563,2,0,P|424:184|340:176,1,120,2|0,0:0|0:0,0:0:0:0:
228,140,29991,6,0,P|184:132|96:144,1,120,2|2,0:0|0:0,0:0:0:0:
64,188,31063,1,0,0:0:0:0:
40,244,31420,2,0,P|44:300|92:356,1,120,2|2,0:0|0:0,0:0:0:0:
172,252,32848,2,0,P|204:208|204:136,1,120,2|2,0:0|0:0,0:0:0:0:
192,80,33920,2,0,P|228:64|328:80,1,120
364,100,34991,2,0,P|400:108|440:104,1,60,2|0,0:0|0:0,0:0:0:0:
480,76,35706,6,0,L|460:216,1,120,2|2,0:0|0:0,0:0:0:0:
380,296,37134,2,0,L|348:172,1,120,2|2,0:0|0:0,0:0:0:0:
292,144,38206,1,0,0:0:0:0:
236,112,38563,2,0,P|164:104|112:132,1,120,2|2,0:0|0:0,0:0:0:0:
80,172,39634,2,0,L|108:296,1,120
164,320,40706,2,0,P|212:320|244:308,1,60,2|0,0:0|0:0,0:0:0:0:
272,276,41420,6,0,P|320:260|392:264,1,120,2|2,0:0|0:0,0:0:0:0:
500,192,42848,2,0,P|472:164|372:144,1,120,2|2,0:0|0:0,0:0:0:0:
332,144,43920,2,0,L|208:156,1,120
148,168,44991,1,2,0:0:0:0:
104,216,45348,2,0,P|104:256|144:332,1,120
204,344,46420,2,0,L|264:336,1,60,2|0,0:0|0:0,0:0:0:0:
328,324,47134,5,2,0:0:0:0:
416,224,47848,1,2,0:0:0:0:
340,116,48563,2,0,L|268:96,1,60,2|0,0:0|0:0,0:0:0:0:
220,120,49277,2,0,L|152:128,1,60,2|0,0:0|0:0,0:0:0:0:
96,144,49991,2,0,P|80:200|124:272,1,120,2|2,0:0|0:0,0:0:0:0:
144,304,51063,2,0,P|192:332|264:340,1,120
320,344,52134,2,0,L|392:332,1,60,2|0,0:0|0:0,0:0:0:0:
444,316,52848,6,0,P|464:276|452:188,1,120,2|2,0:0|0:0,0:0:0:0:
436,140,53920,1,0,0:0:0:0:
384,100,54277,2,0,P|316:92|256:128,1,120,2|2,0:0|0:0,0:0:0:0:
244,172,55348,1,0,0:0:0:0:
256,236,55706,1,2,0:0:0:0:
256,236,56777,5,8,0:0:0:0:
212,288,57134,2,0,P|140:316|76:296,1,120,6|8,0:0|0:0,0:0:0:0:
168,192,58563,6,0,P|232:180|292:220,1,120,4|8,2:1|0:0,0:0:0:0:
332,240,59634,1,0,0:0:0:0:
392,268,59991,2,0,L|456:260,1,60,6|4,0:0|0:0,0:0:0:0:
504,220,60705,1,8,0:0:0:0:
472,92,61420,2,0,P|436:68|356:68,1,120,4|8,0:0|0:0,0:0:0:0:
316,116,62491,2,0,P|248:136|192:120,1,120
136,108,63563,2,0,L|64:120,1,60,8|0,0:0|0:0,0:0:0:0:
12,132,64277,6,0,P|-8:180|20:260,1,120,6|8,0:0|0:0,0:0:0:0:
128,300,65705,2,0,P|176:260|192:196,1,120,4|8,0:0|0:0,0:0:0:0:
176,76,67134,2,0,L|264:72,1,60,4|0,0:0|0:0,0:0:0:0:
300,72,67848,2,0,L|384:76,1,60,8|0,0:0|0:0,0:0:0:0:
424,84,68563,1,4,0:0:0:0:
444,148,68920,1,10,0:0:0:0:
424,212,69277,1,8,0:0:0:0:
392,340,69991,6,0,P|328:332|292:284,1,120,4|8,2:1|0:0,0:0:0:0:
260,236,71063,1,0,0:0:0:0:
196,224,71420,2,0,P|168:252|176:332,1,120,4|10,0:0|0:0,0:0:0:0:
300,296,72848,2,0,P|328:268|320:188,1,120,6|8,0:0|0:0,0:0:0:0:
288,136,73920,2,0,L|324:60,1,60,0|6,0:0|0:0,0:0:0:0:
356,28,74634,2,0,P|416:40|472:96,1,120,2|0,0:0|0:0,0:0:0:0:
452,144,75705,6,0,L|404:264,1,120,6|8,0:0|0:0,0:0:0:0:
284,304,77134,2,0,P|220:312|176:280,1,120,4|8,0:0|0:0,0:0:0:0:
140,228,78205,1,4,0:0:0:0:
160,164,78563,2,0,P|180:112|148:32,1,120,4|8,0:0|0:0,0:0:0:0:
104,24,79634,1,0,0:0:0:0:
76,84,79991,2,0,L|52:144,1,60,4|2,0:0|0:0,0:0:0:0:
28,200,80705,2,2,L|40:288,1,60,8|0,0:0|0:0,0:0:0:0:
48,324,81420,6,0,P|104:340|176:316,1,120,4|8,0:0|0:0,0:0:0:0:
208,276,82491,2,0,P|248:272|324:300,1,120,0|0,0:0|0:0,0:0:0:0:
372,344,83562,2,0,L|452:328,1,60,8|0,0:0|0:0,0:0:0:0:
484,292,84277,2,0,P|500:228|488:172,1,120,4|8,0:0|0:0,0:0:0:0:
444,128,85348,1,4,0:0:0:0:
380,108,85705,2,0,L|296:116,1,60,12|4,0:0|0:0,0:0:0:0:
256,120,86420,1,8,0:0:0:0:
212,166,86777,6,0,P|184:220|192:118,1,360,2|0,0:0|0:0,0:0:0:0:
