osu file format v14

[General]
AudioFilename: Magi_-_The_Bravery_TV_Size.mp3
AudioLeadIn: 0
PreviewTime: 51777
Countdown: 0
SampleSet: Normal
StackLeniency: 0.7
Mode: 0
LetterboxInBreaks: 0
WidescreenStoryboard: 0

[Editor]
DistanceSpacing: 1
BeatDivisor: 4
GridSize: 4
TimelineZoom: 2.300005

[Metadata]
Title:The Bravery (TV Edit)
TitleUnicode:The Bravery (TV Edit)
Artist:supercell
ArtistUnicode:supercell
Creator:monstrata
Version:Normal
Source:マギ
Tags:ryo the bravery magi the labyrinth of magic ending 2 aladdin koeda size alibaba morgiana
BeatmapID:692454
BeatmapSetID:308912

[Difficulty]
HPDrainRate:4
CircleSize:3.5
OverallDifficulty:4
ApproachRate:5
SliderMultiplier:1.1
SliderTickRate:1

[Events]
//Background and Video events
0,0,"68747470733a2f2f646c2e64726f70626f7875736572636f6e74656e742e636f6d2f752f36343330393535332f6f73752f496d70726f76656420496d616765732f6d6f6e7374726174612f6d61672e6a7067.jpg",0,0
//Break Periods
//Storyboard Layer 0 (Background)
//Storyboard Layer 1 (Fail)
//Storyboard Layer 2 (Pass)
//Storyboard Layer 3 (Foreground)
//Storyboard Sound Samples

[TimingPoints]
705,317.460317460317,4,1,1,60,1,8
1339,317.460317460317,4,1,1,50,1,0
11338,-100,4,2,0,40,0,0
21656,-100,4,2,0,50,0,0
30545,-100,4,2,1,50,0,0
31815,-100,4,1,1,50,0,0
49593,-100,4,2,1,60,0,0
52132,-100,4,1,1,60,0,1
72370,-100,4,1,0,60,0,0
72450,-100,4,1,1,60,0,1
88958,-100,4,1,0,40,0,1
89276,-100,4,1,0,30,0,1
89593,-100,4,1,0,20,0,1
89911,-100,4,1,0,10,0,1
90227,-100,4,1,0,5,0,0

[Colours]
Combo1 : 0,128,255
Combo2 : 255,159,43
Combo3 : 244,19,75

[HitObjects]
92,190,1181,6,0,B|136:191|161:170|174:129|174:129|226:98,1,165,4|8,0:2|0:0,0:0:0:0:
315,155,1973,2,0,L|426:215,1,110,2|8,0:2|0:0,0:0:0:0:
461,231,2450,2,0,B|462:312|462:312|416:327|402:377,1,165,4|8,0:0|0:0,0:0:0:0:
295,380,3243,2,0,P|241:382|183:319,1,110,2|8,0:2|0:0,0:0:0:0:
195,295,3719,6,0,B|196:240|196:240|224:192|224:192|224:100,1,165,4|8,0:0|0:0,0:0:0:0:
324,96,4513,2,0,B|376:80|376:80|432:96,1,110,2|8,0:2|0:0,0:0:0:0:
482,111,4989,2,0,B|444:162|444:162|480:210|456:256,1,165,4|8,0:0|0:0,0:0:0:0:
364,324,5783,2,0,L|371:415,2,55,0|2|8,0:0|0:2|0:0,0:0:0:0:
314,300,6259,6,0,B|214:251|214:251|280:208,1,165,4|8,0:0|0:0,0:0:0:0:
349,159,7053,2,0,L|432:101,2,55,2|0|8,0:2|0:0|0:0,0:0:0:0:
299,135,7529,2,0,B|265:118|265:118|189:164|189:164|154:150,1,165,4|8,0:0|0:0,0:0:0:0:
54,104,8323,2,0,L|-27:60,2,55,2|0|8,0:2|0:0|0:0,0:0:0:0:
56,159,8799,6,0,B|58:214|58:214|5:275,2,110,4|0|0,0:0|0:0|0:0,0:0:0:0:
102,129,9592,2,0,L|179:80,1,55,4|0,0:3|0:0,0:0:0:0:
241,39,10069,2,0,L|347:93,1,110,4|4,0:0|0:0,0:0:0:0:
437,138,10704,2,0,P|397:181|331:199,1,110,4|4,0:2|0:2,0:0:0:0:
247,153,11338,6,0,B|200:129|200:129|186:173|141:198|115:199,1,165,4|0,0:0|0:0,0:0:0:0:
97,89,12132,2,0,P|137:40|216:23,1,110,2|0,0:2|0:0,0:0:0:0:
282,61,12767,2,0,L|388:115,1,110,2|0,0:2|0:0,0:0:0:0:
428,136,13243,2,0,B|387:180|387:180|369:242|410:293,1,165
425,329,13878,1,0,0:0:0:0:
395,374,14037,6,0,B|360:375|336:350|336:350|267:350,1,110,2|0,0:2|0:0,0:0:0:0:
210,275,14672,2,0,L|88:275,1,110,2|0,0:2|0:0,0:0:0:0:
155,179,15307,2,0,L|216:73,1,110,2|0,0:2|0:0,0:0:0:0:
236,35,15783,2,0,B|275:74|275:74|328:82|328:82|371:124,1,165,0|2,0:0|0:0,0:0:0:0:
404,162,16418,1,0,0:0:0:0:
439,201,16577,6,0,B|414:274|414:274|380:298,1,110,2|0,0:2|0:0,0:0:0:0:
331,292,17053,2,0,B|303:310|303:310|278:383,2,110,0|0|2,0:0|0:0|0:2,0:0:0:0:
364,186,18005,2,0,B|313:128|313:128|261:132,1,110,2|0,0:0|0:0,0:0:0:0:
226,140,18481,1,2,0:2:0:0:
116,158,18799,2,0,L|87:231,1,55
76,260,19116,6,0,P|137:312|217:306,1,165,2|0,0:0|0:0,0:0:0:0:
278,214,19910,1,0,0:0:0:0:
388,219,20227,2,0,L|447:336,1,110,2|0,0:0|0:0,0:0:0:0:
327,312,20862,2,0,L|195:305,1,110,2|0,0:0|3:0,0:0:0:0:
162,303,21338,1,4,0:2:0:0:
113,203,21656,6,0,L|59:91,1,110,0|2,3:0|3:3,0:0:0:0:
175,102,22291,2,0,L|264:16,1,110,2|0,0:2|0:0,0:0:0:0:
290,129,22926,2,0,L|399:187,1,110,2|2,0:2|0:3,0:0:0:0:
299,246,23561,2,0,L|276:368,1,110,2|0,0:2|0:0,0:0:0:0:
190,290,24196,6,0,L|117:299,2,55,2|0|0,0:2|0:0|0:0,0:0:0:0:
210,238,24672,2,0,L|235:174,1,55,2|0,0:2|0:0,0:0:0:0:
245,81,25148,2,0,L|200:23,2,55,2|0|0,0:3|0:0|0:0,0:0:0:0:
296,102,25624,2,0,L|361:92,1,55,2|0,0:2|0:0,0:0:0:0:
459,77,26100,2,0,B|441:121|441:121|459:203,1,110,2|0,0:2|0:0,0:0:0:0:
488,282,26735,6,0,L|519:326,2,55,0|0|2,0:0|0:0|0:3,0:0:0:0:
434,287,27212,2,0,L|302:300,1,110,0|0,0:0|0:0,0:0:0:0:
215,307,27846,2,0,P|165:292|129:187,1,165,0|2,0:0|0:3,0:0:0:0:
128,138,28481,2,0,B|125:102|125:102|85:30,2,110,0|0|0,0:0|0:0|0:0,0:0:0:0:
175,166,29275,6,0,B|227:177|227:177|283:165,1,110,2|0,0:2|0:0,0:0:0:0:
335,150,29751,2,0,B|387:139|387:139|443:151,1,110,2|0,0:2|0:0,0:0:0:0:
491,176,30227,2,0,L|508:235,1,55,2|0,0:2|0:0,0:0:0:0:
469,270,30545,6,0,B|397:297|397:242|327:270|327:270|308:308|255:336|202:335|152:284,1,330
236,214,31815,6,0,L|315:116,1,110,4|8,0:1|0:0,0:0:0:0:
195,140,32450,2,0,L|126:34,1,110,0|8,0:0|0:0,0:0:0:0:
112,156,33085,2,0,L|-9:188,1,110,0|8,0:0|0:0,0:0:0:0:
101,239,33720,2,0,L|94:364,1,110,0|8,0:0|0:0,0:0:0:0:
175,277,34355,6,0,B|275:319|275:319|342:306,1,165,2|0,0:2|0:0,0:0:0:0:
438,285,35149,1,0,0:0:0:0:
471,180,35466,2,0,L|510:55,2,110
363,203,36419,1,4,0:3:0:0:
309,214,36577,2,0,L|245:227,1,55,8|0,0:0|0:0,0:0:0:0:
218,182,36895,6,0,L|134:88,1,110,4|8,0:0|0:0,0:0:0:0:
255,104,37530,2,0,L|319:-4,1,110,0|8,0:0|0:0,0:0:0:0:
341,114,38165,2,0,L|464:141,1,110,0|8,0:0|0:0,0:0:0:0:
358,198,38800,2,0,L|370:323,1,110,0|8,0:0|0:0,0:0:0:0:
283,240,39435,6,0,B|182:284|182:284|149:281|120:248,1,165,2|0,0:2|0:0,0:0:0:0:
73,169,40228,1,0,0:0:0:0:
125,72,40546,2,0,P|176:52|232:62,1,110
295,155,41181,1,0,0:0:0:0:
244,254,41498,2,0,P|193:273|137:264,1,110,8|0,0:3|0:0,0:0:0:0:
102,223,41974,6,0,L|63:113,1,110,4|8,0:2|0:0,0:0:0:0:
102,76,42450,1,0,0:0:0:0:
138,34,42609,2,0,L|251:54,1,110,8|8,0:0|0:0,0:0:0:0:
282,159,43244,2,0,L|206:246,1,110,8|8,0:0|0:0,0:0:0:0:
229,294,43720,1,0,0:0:0:0:
247,346,43879,2,0,L|354:367,1,110,8|8,0:0|0:0,0:0:0:0:
427,283,44514,6,0,L|384:164,1,110,8|8,0:0|0:0,0:0:0:0:
336,167,44990,1,0,0:0:0:0:
282,159,45149,2,0,L|206:246,1,110,8|8,0:0|0:0,0:0:0:0:
102,221,45784,2,0,L|81:161,1,55,8|0,0:0|0:0,0:0:0:0:
119,126,46101,1,8,0:0:0:0:
190,40,46419,1,8,0:0:0:0:
229,144,46736,1,8,0:3:0:0:
156,232,47054,6,0,L|202:356,1,110,4|8,0:0|0:0,0:0:0:0:
235,371,47530,1,4,0:0:0:0:
289,363,47689,2,0,B|326:351|356:365|356:365|387:329,1,110,0|8,3:0|0:0,0:0:0:0:
424,233,48323,2,0,P|391:189|342:165,1,110,4|8,0:0|0:0,0:0:0:0:
302,125,48800,1,4,0:0:0:0:
248,138,48958,2,0,B|205:137|178:109|178:109|141:138,1,110,0|12,0:3|0:0,0:0:0:0:
117,218,49593,6,0,B|166:291|198:233|246:284|246:284|283:272|314:294,2,220,2|2|2,2:0|2:0|2:0,0:0:0:0:
293,86,51498,2,0,B|337:72|372:86|372:86|401:86,1,110,2|2,2:2|2:0,0:0:0:0:
429,192,52133,6,0,B|445:266|445:266|431:310,2,110,4|8|0,0:0|0:0|0:0,0:0:0:0:
415,137,52927,2,0,L|345:118,1,55,0|8,0:0|0:0,0:0:0:0:
257,87,53403,2,0,B|244:32|244:32|209:26|185:-9,2,110,2|8|0,0:2|0:0|0:0,0:0:0:0:
265,141,54196,2,0,L|276:212,1,55,0|8,0:0|0:0,0:0:0:0:
287,305,54673,6,0,P|346:324|405:298,2,110,4|8|0,0:0|0:0|0:0,0:0:0:0:
234,287,55466,2,0,L|167:261,1,55,0|8,0:0|0:0,0:0:0:0:
79,228,55942,2,0,B|70:162|70:162|88:118,2,110,2|8|0,0:2|0:0|0:0,0:0:0:0:
89,282,56736,2,0,L|100:353,1,55,0|8,0:0|0:0,0:0:0:0:
173,257,57212,6,0,P|222:234|275:245,1,110,4|8,0:0|0:0,0:0:0:0:
324,271,57689,2,0,L|368:237,1,55,0|2,0:0|0:2,0:0:0:0:
452,165,58165,2,0,B|483:137|483:137|482:100|502:61,2,110,8|0|8,0:0|0:0|0:0,0:0:0:0:
368,237,59117,2,0,L|324:271,1,55
282,305,59435,1,8,0:0:0:0:
196,373,59752,6,0,P|136:362|99:310,1,110,4|8,0:0|0:0,0:0:0:0:
91,273,60228,2,0,L|79:218,1,55,0|2,0:0|0:2,0:0:0:0:
60,112,60704,1,8,0:0:0:0:
149,46,61022,2,0,B|184:41|218:56|240:78|240:78|308:41,2,165,4|4|4,0:2|0:2|0:2,0:0:0:0:
164,154,62292,6,0,L|218:252,1,110,4|8,0:0|0:0,0:0:0:0:
327,255,62927,2,0,L|382:256,2,55,0|0|8,0:0|0:0|0:0,0:0:0:0:
268,347,63562,2,0,P|213:359|150:335,1,110,2|8,0:2|0:0,0:0:0:0:
106,249,64196,2,0,L|50:247,2,55,0|0|8,0:0|0:0|0:0,0:0:0:0:
164,154,64831,6,0,L|221:58,1,110,4|8,0:0|0:0,0:0:0:0:
331,61,65466,2,0,L|386:62,2,55,0|0|8,3:0|0:0|0:0,0:0:0:0:
275,155,66101,2,0,L|246:202,1,55,2|0,0:2|0:0,0:0:0:0:
218,248,66419,1,8,0:0:0:0:
271,345,66736,2,0,P|324:363|393:345,1,110,0|8,0:0|0:0,0:0:0:0:
452,274,67371,6,0,L|509:274,2,55,4|0|8,0:2|0:0|0:0,0:0:0:0:
356,218,68006,2,0,L|251:158,1,110,0|8,0:0|0:0,0:0:0:0:
165,109,68641,2,0,L|98:109,2,55,4|0|8,0:2|0:0|0:0,0:0:0:0:
259,53,69276,2,0,L|292:-5,2,55,0|0|8,0:0|0:0|0:0,0:0:0:0:
260,163,69911,6,0,L|293:220,1,55,4|0,0:0|0:0,0:0:0:0:
315,257,70228,1,8,0:0:0:0:
423,256,70546,2,0,L|456:197,1,55,0|0,0:0|0:0,0:0:0:0:
476,161,70863,1,8,0:0:0:0:
420,67,71181,2,0,L|295:66,1,110,8|8,0:3|0:0,0:0:0:0:
280,113,71657,2,0,L|217:222,1,110,8|8,0:3|3:0,0:0:0:0:
170,207,72133,1,8,0:3:0:0:
116,108,72450,6,0,P|135:51|211:-2,1,110,4|8,0:0|0:0,0:0:0:0:
228,112,73085,2,0,L|192:169,1,55,2|0,0:2|0:0,0:0:0:0:
170,206,73403,1,8,0:0:0:0:
224,305,73720,2,0,P|277:320|348:301,1,110,2|8,0:2|0:0,0:0:0:0:
281,209,74355,2,0,L|248:149,1,55,2|0,0:2|0:0,0:0:0:0:
228,112,74673,1,8,0:0:0:0:
116,108,74990,6,0,P|95:160|131:218,1,110,4|8,0:2|0:0,0:0:0:0:
167,300,75625,2,0,L|244:302,1,55,2|0,0:2|0:0,0:0:0:0:
276,302,75942,1,8,0:0:0:0:
332,208,76260,2,0,B|331:173|331:173|294:152|292:93,2,110,2|8|2,0:2|0:0|0:2,0:0:0:0:
386,304,77213,1,8,0:0:0:0:
443,210,77530,6,0,B|470:161|470:161|462:98,1,110,4|8,0:0|0:0,0:0:0:0:
361,65,78165,2,0,L|282:67,1,55,2|0,0:2|0:2,0:2:0:0:
251,69,78482,1,8,0:0:0:0:
200,166,78800,2,0,B|184:195|184:195|143:214|130:256,1,110,2|8,0:2|0:0,0:0:0:0:
233,296,79435,2,0,L|288:257,1,55,2|0,0:2|0:0,0:0:0:0:
323,232,79752,1,8,0:0:0:0:
413,168,80069,6,0,P|357:125|299:124,1,110,4|8,0:2|0:0,0:0:0:0:
223,178,80704,2,0,L|169:213,1,55,2|0,0:2|0:0,0:0:0:0:
131,239,81022,1,8,0:0:0:0:
32,189,81339,2,0,P|15:142|32:69,1,110,2|8,0:2|0:0,0:0:0:0:
58,40,81815,2,0,P|97:21|185:36,1,110,0|0,0:0|0:0,0:0:0:0:
207,56,82292,1,8,0:0:0:0:
123,128,82609,6,0,L|137:199,1,55,8|0,0:0|0:0,0:0:0:0:
174,218,82927,1,8,0:0:0:0:
278,180,83244,2,0,L|332:132,2,55,8|0|8,0:0|0:0|0:0,0:0:0:0:
290,233,83720,2,0,L|311:342,1,110,4|0,0:0|0:0,0:0:0:0:
363,358,84196,2,0,L|415:376,1,55,8|0,0:0|0:0,0:0:0:0:
455,337,84514,1,8,0:0:0:0:
503,238,84831,1,8,0:0:0:0:
456,138,85149,6,0,P|410:100|359:100,1,110,4|8,0:2|0:0,0:0:0:0:
306,102,85625,2,0,B|265:93|265:93|258:60|220:37,2,110
380,187,86577,2,0,B|389:256|389:256|349:303,1,110
328,329,87054,2,0,L|238:314,2,55,2|0|8,3:2|0:0|0:3,0:0:0:0:
436,347,87689,5,4,0:0:0:0:
256,192,87768,12,0,90228,2:0:0:0:
