osu file format v14

[General]
AudioFilename: Magi_-_The_Bravery_TV_Size.mp3
AudioLeadIn: 0
PreviewTime: 51777
Countdown: 0
SampleSet: Normal
StackLeniency: 0.7
Mode: 0
LetterboxInBreaks: 0
WidescreenStoryboard: 0

[Editor]
Bookmarks: 1339,1815,2292,3561,31657,72212,72292,78642,82451,83404,85784,86816,87213
DistanceSpacing: 0.7
BeatDivisor: 4
GridSize: 4
TimelineZoom: 5.400002

[Metadata]
Title:The Bravery (TV Edit)
TitleUnicode:The Bravery (TV Edit)
Artist:supercell
ArtistUnicode:supercell
Creator:monstrata
Version:Magi
Source:マギ
Tags:ryo the bravery magi the labyrinth of magic ending 2 aladdin koeda size alibaba morgiana
BeatmapID:690778
BeatmapSetID:308912

[Difficulty]
HPDrainRate:6.5
CircleSize:4
OverallDifficulty:8.7
ApproachRate:9.2
SliderMultiplier:1.9
SliderTickRate:1

[Events]
//Background and Video events
0,0,"68747470733a2f2f646c2e64726f70626f7875736572636f6e74656e742e636f6d2f752f36343330393535332f6f73752f496d70726f76656420496d616765732f6d6f6e7374726174612f6d61672e6a7067.jpg",0,0
//Break Periods
//Storyboard Layer 0 (Background)
//Storyboard Layer 1 (Fail)
//Storyboard Layer 2 (Pass)
//Storyboard Layer 3 (Foreground)
//Storyboard Sound Samples

[TimingPoints]
705,317.460317460317,4,2,0,60,1,8
705,-133.333333333333,4,2,0,60,0,0
1181,-100,4,1,0,60,0,0
1339,317.460317460317,4,1,1,50,1,0
11497,-133.333333333333,4,2,0,40,0,0
21656,-133.333333333333,4,2,0,50,0,0
30545,-200,4,2,1,60,0,0
31816,-133.333333333333,4,1,1,50,0,0
36895,-114.285714285714,4,1,1,60,0,0
41974,-100,4,1,1,60,0,0
49593,-166.666666666667,4,2,1,60,0,0
52132,-100,4,1,1,60,0,1
72370,-100,4,1,0,60,0,0
72450,-100,4,1,1,60,0,1
88958,-100,4,1,0,40,0,1
89276,-100,4,1,0,30,0,1
89593,-100,4,1,0,20,0,1
89911,-100,4,1,0,10,0,1
90227,-100,4,1,0,5,0,0

[Colours]
Combo1 : 0,128,255
Combo2 : 255,159,43
Combo3 : 244,19,75

[HitObjects]
279,99,705,6,0,P|224:53|134:72,1,142.500005435944,0|0,2:0|2:0,0:0:0:0:
191,237,1181,6,0,L|274:290,1,95,4|0,0:2|0:0,0:0:0:0:
359,149,1498,1,0,0:0:0:0:
195,143,1657,2,0,P|134:162|101:215,1,95,8|0,0:0|0:0,0:0:0:0:
275,193,1974,1,2,0:2:0:0:
279,99,2133,1,0,0:0:0:0:
191,237,2291,1,8,0:0:0:0:
354,244,2451,6,0,P|415:225|448:172,1,95
279,99,2767,1,0,0:0:0:0:
270,288,2927,1,8,0:0:0:0:
359,149,3085,1,0,0:0:0:0:
198,48,3244,1,2,0:2:0:0:
275,193,3403,1,0,0:0:0:0:
362,54,3562,1,8,0:0:0:0:
195,143,3720,6,0,P|180:196|216:266,1,95,4|0,0:0|0:0,0:0:0:0:
354,244,4037,1,0,0:0:0:0:
279,99,4196,2,0,P|240:59|161:55,1,95,8|0,0:0|0:0,0:0:0:0:
111,187,4513,1,2,0:2:0:0:
195,143,4672,1,0,0:0:0:0:
30,136,4831,1,8,0:0:0:0:
191,237,4989,6,0,L|281:295,1,95,4|0,0:0|0:0,0:0:0:0:
185,331,5307,1,2,0:2:0:0:
275,193,5465,1,8,0:0:0:0:
354,244,5624,1,2,0:2:0:0:
270,288,5783,1,0,0:0:0:0:
195,143,5942,1,2,0:2:0:0:
359,149,6100,1,8,0:0:0:0:
191,237,6259,6,0,L|95:285,1,95,4|0,0:0|0:0,0:0:0:0:
115,93,6577,1,0,0:0:0:0:
275,193,6735,2,0,L|364:251,2,95,8|0|2,0:0|0:0|0:2,0:0:0:0:
115,93,7212,1,0,0:0:0:0:
191,237,7370,1,8,0:0:0:0:
359,149,7529,6,0,L|454:100,1,95,4|0,0:0|0:0,0:0:0:0:
279,99,7846,1,0,0:0:0:0:
270,287,8005,2,0,P|291:314|382:334,2,95,8|0|2,0:0|0:0|0:2,0:0:0:0:
195,143,8481,1,0,0:0:0:0:
106,280,8640,1,8,0:0:0:0:
275,193,8799,6,0,L|280:68,1,95,4|0,0:0|0:0,0:0:0:0:
191,237,9116,2,0,L|80:295,1,95,0|8,0:0|0:0,0:0:0:0:
354,244,9434,1,0,0:0:0:0:
195,143,9592,1,4,0:3:0:0:
270,287,9751,1,0,0:0:0:0:
279,99,9910,1,8,0:0:0:0:
111,187,10069,6,0,P|98:243|123:303,1,95,4|0,0:0|0:0,0:0:0:0:
359,149,10386,2,0,P|372:93|347:33,1,95,0|8,0:0|0:0,0:0:0:0:
115,93,10704,2,0,P|60:109|20:161,1,95,4|0,0:2|0:0,0:0:0:0:
354,244,11021,2,0,P|408:227|448:175,1,95,4|0,0:2|0:0,0:0:0:0:
275,193,11338,1,4,0:0:0:0:
270,287,11497,6,0,P|331:334|414:318,1,142.500005435944,2|2,0:2|0:3,0:0:0:0:
437,200,11973,1,0,0:0:0:0:
280,99,12132,2,0,P|208:128|181:208,1,142.500005435944,2|0,0:2|0:0,0:0:0:0:
270,287,12608,1,0,0:0:0:0:
437,200,12767,6,0,L|526:151,1,71.2500027179719,2|0,0:2|0:0,0:0:0:0:
359,149,13085,1,2,0:3:0:0:
275,193,13243,2,0,L|186:242,1,71.2500027179719
354,244,13561,1,0,0:0:0:0:
359,149,13719,1,0,0:0:0:0:
280,99,13878,1,0,0:0:0:0:
197,142,14037,6,0,L|115:90,2,71.2500027179719,2|0|2,0:2|0:0|0:3,0:0:0:0:
275,193,14513,1,0,0:0:0:0:
437,200,14672,2,0,L|526:151,2,71.2500027179719,2|0|0,0:2|0:0|0:0,0:0:0:0:
354,244,15148,1,0,0:0:0:0:
270,287,15307,6,0,P|204:253|183:172,1,142.500005435944,2|2,0:2|0:3,0:0:0:0:
359,149,15783,2,0,P|368:198|358:236,1,71.2500027179719,2|0,0:0|0:0,0:0:0:0:
280,99,16100,2,0,P|317:66|355:56,1,71.2500027179719,0|2,0:0|0:2,0:0:0:0:
275,193,16418,1,0,0:0:0:0:
111,187,16577,6,0,L|37:140,1,71.2500027179719,2|0,0:2|0:0,0:0:0:0:
195,143,16894,1,2,0:3:0:0:
354,244,17053,2,0,L|349:337,1,71.2500027179719
280,99,17370,2,0,L|285:6,1,71.2500027179719,0|0,0:0|0:0,0:0:0:0:
275,193,17688,6,0,P|194:238|130:213,2,142.500005435944,2|2|0,0:2|0:2|0:0,0:0:0:0:
359,149,18482,2,0,L|438:107,1,71.2500027179719,2|0,0:2|0:0,0:0:0:0:
280,99,18799,1,2,0:2:0:0:
275,193,18958,1,0,0:0:0:0:
354,244,19116,6,0,L|432:294,1,71.2500027179719
359,149,19434,1,2,0:3:0:0:
280,99,19593,2,0,L|195:45,1,71.2500027179719
111,187,19910,2,0,L|184:233,1,71.2500027179719,0|2,0:0|0:2,0:0:0:0:
275,193,20227,6,0,L|190:140,1,71.2500027179719
106,281,20545,2,0,L|179:327,1,71.2500027179719,0|2,0:0|0:3,0:0:0:0:
270,287,20862,2,0,P|328:272|351:246,1,71.2500027179719,0|2,0:0|0:2,0:0:0:0:
347,252,21100,1,0,3:0:0:0:
357,237,21179,1,0,3:0:0:0:
363,221,21259,1,0,3:0:0:0:
367,203,21338,1,4,0:2:0:0:
111,187,21656,6,0,L|61:157,4,35.625001358986,0|0|0|0|2,3:0|3:0|3:0|3:0|3:3,3:0:0:0:
191,237,22132,1,0,0:0:0:0:
275,193,22291,2,0,L|363:145,1,71.2500027179719,2|0,0:2|0:0,0:0:0:0:
195,143,22608,2,0,L|198:42,1,71.2500027179719
111,187,22926,6,0,L|26:134,1,71.2500027179719,2|0,0:2|0:0,0:0:0:0:
105,281,23243,2,0,L|29:321,1,71.2500027179719,2|0,0:3|0:0,0:0:0:0:
185,331,23561,1,2,0:2:0:0:
270,287,23719,1,0,0:0:0:0:
195,143,23878,1,0,0:0:0:0:
191,237,24037,1,0,0:0:0:0:
354,244,24196,6,0,P|394:236|432:207,1,71.2500027179719,2|0,0:2|0:0,0:0:0:0:
275,193,24513,1,2,0:3:0:0:
270,287,24672,2,0,P|296:317|341:336,1,71.2500027179719,2|0,0:0|0:0,0:0:0:0:
275,193,24989,1,0,0:3:0:0:
191,237,25148,2,0,P|177:275|184:323,1,71.2500027179719,2|0,0:0|0:0,0:0:0:0:
275,193,25465,1,0,0:0:0:0:
195,143,25624,2,0,P|154:151|116:180,1,71.2500027179719,2|0,0:0|0:0,0:0:0:0:
275,193,25942,5,0,0:0:0:0:
359,149,26100,1,2,0:2:0:0:
280,99,26259,1,0,0:0:0:0:
270,287,26418,1,2,0:3:0:0:
354,244,26577,1,0,0:0:0:0:
191,237,26735,6,0,P|177:275|184:323,2,71.2500027179719,0|0|2,0:0|0:0|0:2,0:0:0:0:
275,193,27212,1,0,0:0:0:0:
359,149,27370,2,0,P|372:110|332:20,1,142.500005435944,2|0,0:2|0:0,0:0:0:0:
195,143,27846,6,0,L|106:190,1,71.2500027179719
270,287,28164,1,2,0:3:0:0:
275,193,28323,1,0,0:0:0:0:
191,237,28481,2,0,P|177:275|184:323,1,71.2500027179719,2|0,0:0|0:0,0:0:0:0:
354,244,28799,2,0,P|368:206|361:158,1,71.2500027179719
280,99,29116,1,0,0:0:0:0:
270,287,29275,6,0,L|341:331,2,71.2500027179719,2|0|2,0:2|0:0|2:3,0:0:0:0:
195,143,29751,2,0,L|124:99,2,71.2500027179719,2|0|0,0:2|0:0|0:0,0:0:0:0:
275,193,30227,1,2,0:2:0:0:
280,99,30386,1,0,0:0:0:0:
191,237,30545,6,0,B|165:319|241:343|241:343|305:251|353:355|414:278,1,332.5,0|0,0:0|2:0,0:0:0:0:
359,149,31816,6,0,L|371:57,1,71.2500027179719,4|0,0:1|0:0,0:0:0:0:
280,99,32133,2,0,L|268:7,1,71.2500027179719,8|0,0:0|0:0,0:0:0:0:
195,143,32450,2,0,L|207:51,1,71.2500027179719
116,93,32768,2,0,L|104:1,1,71.2500027179719,8|0,0:0|0:0,0:0:0:0:
111,187,33085,6,0,L|24:232,1,71.2500027179719
191,237,33403,2,0,L|187:334,1,71.2500027179719,8|0,0:0|0:0,0:0:0:0:
275,193,33720,2,0,L|357:244,1,71.2500027179719
280,99,34038,2,0,L|366:53,1,71.2500027179719,8|0,0:0|0:0,0:0:0:0:
195,143,34355,6,0,L|108:188,1,71.2500027179719,2|0,0:2|0:0,0:0:0:0:
275,193,34673,1,8,0:0:0:0:
198,48,34831,2,0,L|103:27,1,71.2500027179719
191,237,35149,2,0,L|285:216,1,71.2500027179719,0|8,0:0|0:0,0:0:0:0:
349,114,35466,6,0,L|254:93,1,71.2500027179719
342,303,35784,2,0,L|411:287,1,71.2500027179719,0|8,0:0|0:0,0:0:0:0:
502,167,36101,2,0,L|407:146,1,71.2500027179719,0|2,0:0|0:3,0:0:0:0:
275,193,36419,1,4,0:3:0:0:
117,234,36577,2,0,L|22:213,1,71.2500027179719,8|0,0:0|0:0,0:0:0:0:
280,99,36895,6,0,P|317:109|357:152,1,83.1250007927418,4|0,0:0|0:0,0:0:0:0:
275,193,37212,2,0,P|284:230|268:289,1,83.1250007927418,8|0,0:0|0:0,0:0:0:0:
191,237,37530,2,0,P|163:264|104:281,1,83.1250007927418
111,187,37847,2,0,P|74:176|33:134,1,83.1250007927418,8|0,0:0|0:0,0:0:0:0:
116,93,38165,6,0,L|104:1,1,83.1250007927418
195,143,38482,2,0,L|180:246,1,83.1250007927418,8|0,0:0|0:0,0:0:0:0:
280,99,38800,2,0,L|268:7,1,83.1250007927418
359,149,39117,2,0,L|347:241,1,83.1250007927418,8|0,0:0|0:0,0:0:0:0:
441,105,39435,6,0,P|475:116|514:150,1,83.1250007927418,2|0,0:2|0:0,0:0:0:0:
437,200,39752,1,8,0:0:0:0:
362,53,39911,2,0,P|391:24|430:9,1,83.1250007927418
359,149,40228,2,0,P|329:177|290:192,1,83.1250007927418,0|8,0:0|0:0,0:0:0:0:
195,143,40546,6,0,P|224:114|263:99,1,83.1250007927418
191,237,40863,2,0,P|161:265|122:280,1,83.1250007927418,0|8,0:0|0:0,0:0:0:0:
30,136,41181,2,0,P|59:107|98:92,1,83.1250007927418
275,193,41498,2,0,P|284:230|190:330,1,166.250001585484,8|0,0:3|0:0,0:0:0:0:
280,98,41974,6,0,L|367:31,1,95,4|0,0:2|0:0,0:0:0:0:
198,48,42292,1,8,0:0:0:0:
195,143,42450,1,0,0:0:0:0:
280,98,42609,1,8,0:0:0:0:
116,93,42768,1,0,0:0:0:0:
111,187,42927,1,8,0:0:0:0:
195,143,43085,1,0,0:0:0:0:
30,136,43244,5,8,0:0:0:0:
26,231,43403,1,0,0:0:0:0:
191,237,43562,1,8,0:0:0:0:
111,187,43720,1,0,0:0:0:0:
185,331,43879,1,8,0:0:0:0:
270,288,44037,1,0,0:0:0:0:
105,281,44196,1,8,0:0:0:0:
101,376,44355,1,0,0:0:0:0:
191,237,44514,5,8,0:0:0:0:
265,381,44673,1,0,0:0:0:0:
275,193,44831,1,8,0:0:0:0:
185,331,44990,1,0,0:0:0:0:
195,143,45149,1,8,0:0:0:0:
355,243,45308,1,0,0:0:0:0:
278,98,45466,1,8,0:0:0:0:
270,288,45625,1,0,0:0:0:0:
439,199,45784,5,8,0:0:0:0:
350,338,45942,1,0,0:0:0:0:
275,193,46101,1,8,0:3:0:0:
275,193,46181,1,0,0:3:0:0:
275,193,46260,1,8,0:3:0:0:
435,293,46419,1,8,0:3:0:0:
435,293,46498,1,0,0:3:0:0:
435,293,46577,1,8,0:3:0:0:
265,381,46736,1,8,0:3:0:0:
265,381,46815,1,0,0:3:0:0:
265,381,46895,1,8,0:3:0:0:
359,149,47054,6,4,P|387:119|447:107,1,95
355,243,47371,1,8,0:0:0:0:
278,98,47530,1,4,0:0:0:0:
439,199,47689,1,0,3:0:0:0:
439,199,47768,1,0,3:0:0:0:
439,199,47847,1,0,3:0:0:0:
275,193,48006,1,8,0:0:0:0:
362,53,48165,1,0,0:0:0:0:
355,243,48323,6,0,P|320:275|251:284,1,95,4|0,0:0|0:0,0:0:0:0:
111,187,48641,2,0,P|146:155|215:146,1,95,8|4,0:0|0:0,0:0:0:0:
439,199,48958,2,0,P|449:245|422:309,1,95,0|0,0:3|0:0,0:0:0:0:
275,193,49276,1,12,0:0:0:0:
441,105,49435,1,0,0:0:0:0:
355,243,49593,6,0,B|315:282|315:282|258:299|258:299|216:341,1,170.999994781494,2|0,2:0|2:0,0:0:0:0:
175,269,50228,2,0,B|214:229|214:229|271:212|271:212|310:172,1,170.999994781494,2|0,2:0|2:0,0:0:0:0:
266,102,50863,2,0,B|227:142|227:142|170:159|170:159|131:199,1,170.999994781494,2|0,2:0|2:0,0:0:0:0:
86,128,51498,2,0,B|125:88|125:88|182:71|182:71,1,113.999996520996,2|0,2:0|2:0,0:0:0:0:
101,376,52133,6,0,P|48:355|20:319,1,95,4|0,0:0|0:0,0:0:0:0:
109,186,52450,2,0,P|162:207|190:243,1,95,8|0,0:0|0:0,0:0:0:0:
24,230,52768,1,0,0:0:0:0:
116,93,52927,1,0,0:0:0:0:
105,281,53085,2,0,P|137:315|181:330,1,95,8|0,0:0|0:0,0:0:0:0:
275,193,53403,6,0,P|242:158|198:143,1,95,2|0,0:2|0:0,0:0:0:0:
270,288,53720,2,0,P|302:322|346:337,1,95,8|0,0:0|0:0,0:0:0:0:
359,149,54038,1,0,0:0:0:0:
191,237,54196,1,0,0:0:0:0:
355,243,54355,2,0,P|400:232|436:200,1,95,8|0,0:0|0:0,0:0:0:0:
363,55,54673,6,0,P|317:65|281:97,1,95,4|0,0:0|0:0,0:0:0:0:
191,237,54990,2,0,P|236:226|272:194,1,95,8|0,0:0|0:0,0:0:0:0:
109,186,55308,1,0,0:0:0:0:
185,331,55466,1,0,0:0:0:0:
195,143,55625,2,0,P|162:108|118:93,1,95,8|0,0:0|0:0,0:0:0:0:
24,230,55942,6,0,P|56:264|100:279,1,95,2|0,0:2|0:0,0:0:0:0:
275,193,56260,2,0,P|319:207|351:242,1,95,8|0,0:0|0:0,0:0:0:0:
191,237,56577,1,0,0:0:0:0:
195,143,56736,1,0,0:0:0:0:
270,288,56895,1,8,0:0:0:0:
185,331,57054,1,0,0:0:0:0:
275,193,57212,5,4,0:0:0:0:
350,338,57371,1,0,0:0:0:0:
191,237,57530,1,8,0:0:0:0:
359,149,57689,1,0,0:0:0:0:
270,288,57847,2,0,L|166:341,1,95
195,143,58165,2,0,L|299:90,1,95,8|0,0:0|0:0,0:0:0:0:
191,237,58482,6,0,P|143:221|109:176,1,95,2|0,0:2|0:0,0:0:0:0:
275,193,58800,2,0,P|323:209|357:254,1,95,8|0,0:0|0:0,0:0:0:0:
185,331,59117,1,0,0:0:0:0:
195,143,59276,1,0,0:0:0:0:
270,288,59435,2,0,L|263:404,1,95,8|0,0:0|0:0,0:0:0:0:
191,237,59752,5,4,0:0:0:0:
195,143,59911,1,0,0:0:0:0:
108,282,60069,1,8,0:0:0:0:
270,288,60228,1,0,0:0:0:0:
112,188,60387,2,0,P|66:197|30:228,1,95
185,331,60704,1,8,0:0:0:0:
275,193,60863,1,0,0:0:0:0:
116,92,61022,6,0,L|19:29,1,95,4|0,0:2|0:0,0:0:0:0:
31,137,61339,1,8,0:0:0:0:
195,143,61498,2,0,P|210:92|191:36,1,95,4|0,0:2|0:0,0:0:0:0:
31,137,61815,1,0,0:0:0:0:
191,237,61974,2,0,L|290:186,1,95,4|0,0:2|0:0,0:0:0:0:
115,91,62292,6,0,L|19:28,1,95,4|0,0:0|0:0,0:0:0:0:
24,230,62609,2,0,L|17:345,1,95,8|0,0:0|0:0,0:0:0:0:
112,188,62927,1,0,0:0:0:0:
31,137,63085,1,0,0:0:0:0:
108,282,63244,2,0,P|157:325|275:275,1,190,8|2,0:0|0:2,0:0:0:0:
308,142,63720,5,0,0:0:0:0:
191,237,63879,1,8,0:0:0:0:
341,228,64037,1,0,0:0:0:0:
215,147,64196,2,0,P|161:149|112:191,1,95
167,327,64514,2,0,B|256:376|256:296|361:342,2,190,8|4|8,0:0|0:0|0:0,0:0:0:0:
125,171,65308,6,0,L|185:110,2,47.5
10,285,65625,1,0,0:0:0:0:
191,237,65784,1,8,0:0:0:0:
59,105,65942,1,0,0:0:0:0:
101,262,66101,5,2,0:2:0:0:
215,147,66260,1,0,0:0:0:0:
35,195,66419,1,8,0:0:0:0:
167,327,66577,1,0,0:0:0:0:
125,171,66736,2,0,P|93:122|27:103,1,95
10,285,67054,2,0,P|42:334|108:353,1,95,8|0,0:0|0:0,0:0:0:0:
215,147,67371,5,4,0:2:0:0:
101,262,67530,1,0,0:0:0:0:
281,212,67689,2,0,P|307:159|290:93,1,95,8|0,0:0|0:0,0:0:0:0:
149,83,68006,1,0,0:0:0:0:
191,237,68165,1,0,0:0:0:0:
345,277,68323,2,0,L|440:251,1,95,8|0,0:0|0:0,0:0:0:0:
215,147,68641,5,4,0:2:0:0:
256,302,68800,1,0,0:0:0:0:
306,122,68958,2,0,P|277:76|231:54,1,95,8|0,0:0|0:0,0:0:0:0:
125,171,69276,1,0,0:0:0:0:
281,212,69435,1,0,0:0:0:0:
394,97,69593,2,0,L|419:1,1,95,8|0,0:0|0:0,0:0:0:0:
215,147,69911,5,4,0:0:0:0:
345,277,70069,1,0,0:0:0:0:
306,122,70228,1,8,0:0:0:0:
125,171,70387,1,0,0:0:0:0:
281,212,70546,1,0,0:0:0:0:
331,32,70704,1,0,0:0:0:0:
215,147,70863,1,8,0:0:0:0:
372,189,71022,1,0,0:0:0:0:
240,55,71181,6,0,L|123:84,1,95,8|0,0:3|0:0,0:0:0:0:
345,277,71498,1,8,0:0:0:0:
215,147,71657,2,0,L|98:176,1,95,8|0,0:3|0:0,0:0:0:0:
318,365,71974,1,8,0:0:0:0:
191,237,72133,2,0,L|74:266,1,95,8|0,0:3|0:0,0:0:0:0:
407,344,72450,6,0,P|437:280|353:184,2,190,4|8|2,0:0|0:0|0:2,0:0:0:0:
256,302,73244,1,0,0:0:0:0:
215,147,73403,2,0,L|332:118,1,95,8|0,0:0|0:0,0:0:0:0:
191,237,73720,6,0,L|74:266,1,95,2|0,0:2|0:0,0:0:0:0:
240,55,74038,2,0,L|357:26,1,95,8|0,0:0|0:0,0:0:0:0:
281,212,74355,1,2,0:2:0:0:
125,171,74514,1,0,0:0:0:0:
306,122,74673,1,8,0:0:0:0:
256,302,74831,1,0,0:0:0:0:
215,147,74990,6,0,P|232:64|353:40,2,190,4|8|2,0:0|0:0|0:2,0:0:0:0:
345,277,75784,1,0,0:0:0:0:
394,97,75942,2,0,P|417:47|416:2,1,95,8|0,0:0|0:0,0:0:0:0:
306,122,76260,6,0,P|281:171|284:217,1,95,2|0,0:2|0:0,0:0:0:0:
434,252,76577,2,0,P|459:203|456:157,1,95,8|0,0:0|0:0,0:0:0:0:
331,32,76895,1,2,0:2:0:0:
372,189,77054,1,0,0:0:0:0:
487,74,77212,2,0,P|460:26|411:3,1,95,8|0,0:0|0:0,0:0:0:0:
240,55,77530,5,4,0:0:0:0:
281,212,77689,1,0,0:0:0:0:
306,122,77847,1,8,0:0:0:0:
191,237,78006,1,0,0:0:0:0:
372,189,78165,1,2,0:2:0:0:
215,147,78323,1,0,0:0:0:0:
256,302,78482,2,0,P|300:304|349:273,1,95,8|0,0:0|0:0,0:0:0:0:
394,98,78800,6,0,P|349:98|301:127,1,95,2|0,0:2|0:0,0:0:0:0:
434,252,79117,2,0,P|489:251|530:225,1,95,8|0,0:0|0:0,0:0:0:0:
372,189,79435,1,2,0:2:0:0:
407,344,79593,1,0,0:0:0:0:
463,166,79752,2,0,L|497:61,1,95,8|0,0:0|0:0,0:0:0:0:
281,212,80069,6,0,L|247:317,1,95,4|0,0:2|0:0,0:0:0:0:
372,189,80387,2,0,P|350:147|301:120,1,95,8|0,0:0|0:0,0:0:0:0:
345,277,80704,1,2,0:2:0:0:
463,166,80863,1,0,0:0:0:0:
281,212,81022,1,8,0:0:0:0:
434,252,81181,1,0,0:0:0:0:
256,302,81339,6,0,P|213:277|189:198,1,95,2|0,0:2|0:0,0:0:0:0:
305,124,81657,1,8,0:0:0:0:
345,277,81815,2,0,P|344:326|288:387,1,95
281,212,82133,1,0,0:0:0:0:
434,252,82292,1,8,0:0:0:0:
256,302,82450,1,0,0:0:0:0:
305,124,82609,5,12,0:0:0:0:
345,277,82768,1,0,0:0:0:0:
215,147,82927,1,8,0:0:0:0:
394,97,83085,1,0,0:0:0:0:
191,237,83244,1,8,0:0:0:0:
331,32,83403,1,0,0:0:0:0:
434,252,83562,1,8,0:0:0:0:
141,382,83720,6,0,P|98:357|74:278,1,95,4|0,0:0|0:0,0:0:0:0:
130,133,84038,1,0,0:0:0:0:
285,177,84196,1,8,0:0:0:0:
104,222,84355,1,0,0:0:0:0:
156,44,84514,1,8,0:0:0:0:
195,200,84673,1,0,0:0:0:0:
65,66,84831,1,8,0:0:0:0:
245,20,84990,1,0,0:0:0:0:
260,267,85149,6,0,P|258:318|231:362,1,95,4|0,0:0|0:0,0:0:0:0:
195,200,85466,1,8,0:0:0:0:
374,150,85625,2,0,L|484:116,1,95
414,305,85942,2,0,P|367:332|301:314,1,95,0|8,0:0|0:0,0:0:0:0:
195,200,86260,2,0,P|242:173|308:191,1,95,0|0,0:0|3:0,0:0:0:0:
236,355,86577,2,0,B|146:385|146:385|46:368,1,190,0|0,0:0|3:0,0:0:0:0:
29,375,86974,1,0,3:0:0:0:
6,382,87054,5,2,3:2:0:0:
139,303,87212,1,0,0:0:0:0:
108,94,87371,1,8,0:3:0:0:
404,94,87689,5,4,0:0:0:0:
256,192,87768,12,0,90228,2:0:0:0:
