osu file format v14

[General]
AudioFilename: Magi_-_The_Bravery_TV_Size.mp3
AudioLeadIn: 0
PreviewTime: 51777
Countdown: 0
SampleSet: Normal
StackLeniency: 0.7
Mode: 0
LetterboxInBreaks: 0
WidescreenStoryboard: 0

[Editor]
DistanceSpacing: 1
BeatDivisor: 4
GridSize: 4
TimelineZoom: 3.100004

[Metadata]
Title:The Bravery (TV Edit)
TitleUnicode:The Bravery (TV Edit)
Artist:supercell
ArtistUnicode:supercell
Creator:monstrata
Version:Insane
Source:マギ
Tags:ryo the bravery magi the labyrinth of magic ending 2 aladdin koeda size alibaba morgiana
BeatmapID:691384
BeatmapSetID:308912

[Difficulty]
HPDrainRate:5.5
CircleSize:4
OverallDifficulty:8
ApproachRate:8.8
SliderMultiplier:1.7
SliderTickRate:1

[Events]
//Background and Video events
0,0,"68747470733a2f2f646c2e64726f70626f7875736572636f6e74656e742e636f6d2f752f36343330393535332f6f73752f496d70726f76656420496d616765732f6d6f6e7374726174612f6d61672e6a7067.jpg",0,0
//Break Periods
//Storyboard Layer 0 (Background)
//Storyboard Layer 1 (Fail)
//Storyboard Layer 2 (Pass)
//Storyboard Layer 3 (Foreground)
//Storyboard Sound Samples

[TimingPoints]
705,317.460317460317,4,2,0,60,1,8
705,-133.333333333333,4,2,0,60,0,0
1181,-100,4,1,0,60,0,0
1339,317.460317460317,4,1,1,50,1,0
11497,-133.333333333333,4,2,0,40,0,0
21656,-133.333333333333,4,2,0,50,0,0
30545,-200,4,2,1,60,0,0
31816,-133.333333333333,4,1,1,50,0,0
36895,-114.285714285714,4,1,1,60,0,0
41974,-100,4,1,1,60,0,0
49593,-200,4,2,1,60,0,0
52132,-100,4,1,1,60,0,1
72370,-100,4,1,0,60,0,0
72450,-100,4,1,1,60,0,1
88958,-100,4,1,0,40,0,1
89276,-100,4,1,0,30,0,1
89593,-100,4,1,0,20,0,1
89911,-100,4,1,0,10,0,1
90227,-100,4,1,0,5,0,0

[Colours]
Combo1 : 0,128,255
Combo2 : 255,159,43
Combo3 : 244,19,75

[HitObjects]
127,117,705,6,0,B|107:207|107:207|165:186,1,127.500004863739,0|0,2:0|0:0,0:0:0:0:
298,134,1181,6,0,L|414:90,1,85,4|0,0:2|0:0,0:0:0:0:
283,217,1497,1,0,0:0:0:0:
269,301,1656,2,0,L|152:344,1,85,8|0,0:0|0:0,0:0:0:0:
219,164,1973,2,0,L|239:41,2,85,2|0|8,0:2|0:0|0:0,0:0:0:0:
348,271,2450,6,0,P|352:324|332:360,1,85,0|0,0:0|0:0,0:0:0:0:
205,247,2767,1,0,0:0:0:0:
361,187,2926,2,0,P|408:210|430:245,2,85,8|0|2,0:0|0:0|0:2,0:0:0:0:
283,217,3402,1,0,0:0:0:0:
348,271,3561,1,8,0:0:0:0:
374,103,3719,6,0,L|390:0,1,85,4|0,0:0|0:0,0:0:0:0:
298,134,4037,1,0,0:0:0:0:
219,164,4196,2,0,L|198:286,1,85,8|0,0:0|0:0,0:0:0:0:
361,187,4513,2,0,P|413:179|453:137,2,85,2|0|8,0:2|0:0|0:0,0:0:0:0:
235,81,4989,6,0,P|183:89|143:131,1,85,4|0,0:0|0:0,0:0:0:0:
283,217,5307,1,2,0:2:0:0:
298,134,5465,1,8,0:0:0:0:
219,164,5624,1,2,0:2:0:0:
269,301,5783,2,0,P|319:295|363:247,2,85,0|2|8,0:0|0:2|0:0,0:0:0:0:
140,194,6259,6,0,P|90:200|46:248,1,85,4|0,0:0|0:0,0:0:0:0:
205,247,6577,1,0,0:0:0:0:
154,109,6735,2,0,L|36:89,1,85,8|0,0:0|0:0,0:0:0:0:
126,278,7053,2,0,L|108:382,2,85,2|0|8,0:2|0:0|0:0,0:0:0:0:
219,164,7529,6,0,L|237:60,1,85,4|0,0:0|0:0,0:0:0:0:
140,194,7846,1,0,0:0:0:0:
61,224,8005,2,0,L|-24:255,1,85,8|0,0:0|0:0,0:0:0:0:
204,246,8323,2,0,P|250:242|281:220,2,85,2|0|8,0:2|0:0|0:0,0:0:0:0:
76,142,8799,6,0,P|33:144|-9:179,1,85,4|0,0:0|0:0,0:0:0:0:
140,194,9116,2,0,L|225:163,1,85,0|8,0:0|0:0,0:0:0:0:
89,60,9434,1,0,0:0:0:0:
61,224,9592,2,0,L|45:313,2,85,4|0|8,0:3|0:0|0:0,0:0:0:0:
154,109,10069,6,0,L|174:-9,1,85,4|0,0:0|0:0,0:0:0:0:
76,142,10386,2,0,L|-21:183,1,85,4|0,0:0|0:0,0:0:0:0:
235,81,10704,2,0,L|336:46,1,85,4|0,0:2|0:0,0:0:0:0:
140,194,11021,2,0,L|124:283,1,85,4|0,0:2|0:0,0:0:0:0:
76,142,11338,1,4,0:0:0:0:
219,164,11497,6,0,P|271:195|287:264,1,127.500004863739,2|2,0:2|0:3,0:0:0:0:
205,247,11973,1,0,0:0:0:0:
140,194,12132,2,0,L|70:135,2,63.7500024318696,2|0|0,0:2|0:0|0:0,0:0:0:0:
126,278,12608,1,0,0:0:0:0:
191,330,12767,6,0,B|225:354|225:354|267:342|313:357,1,127.500004863739,2|2,0:2|0:3,0:0:0:0:
394,364,13243,2,0,P|438:316|440:255,2,127.500004863739,2|0|0,0:0|0:0|0:0,0:0:0:0:
358,285,14037,6,0,L|295:155,1,127.500004863739,2|2,0:2|0:3,0:0:0:0:
349,99,14513,1,0,0:0:0:0:
434,105,14672,2,0,L|473:46,2,63.7500024318696,2|0|0,0:2|0:0|0:0,0:0:0:0:
388,176,15148,1,0,0:0:0:0:
302,170,15307,6,0,B|264:167|264:167|162:222,1,127.500004863739,2|2,0:2|0:3,0:0:0:0:
158,289,15783,2,0,B|120:308|120:308|96:344|96:344|52:364,2,127.500004863739,2|0|0,0:0|0:0|0:0,0:0:0:0:
239,273,16577,6,0,B|318:298,1,63.7500024318696,2|0,0:2|0:0,0:0:0:0:
213,353,16894,1,2,0:3:0:0:
267,193,17053,2,0,B|314:47,2,127.500004863739,0|0|2,0:0|0:0|0:2,0:0:0:0:
322,256,17846,6,0,B|415:361,1,127.500004863739,0|2,0:0|0:3,0:0:0:0:
296,337,18323,1,0,0:0:0:0:
348,175,18481,2,0,B|373:97,2,63.7500024318696,2|0|0,0:2|0:0|0:0,0:0:0:0:
322,256,18958,1,0,0:0:0:0:
239,273,19116,6,0,B|158:290,2,63.7500024318696,2|0|2,0:0|0:0|0:3,0:0:0:0:
267,193,19592,2,0,B|341:176,1,63.7500024318696,0|2,0:0|0:0,0:0:0:0:
384,242,19910,2,0,B|309:258,1,63.7500024318696
337,102,20227,6,0,B|411:85,1,63.7500024318696,0|2,0:0|0:2,0:0:0:0:
454,151,20545,2,0,B|379:167,1,63.7500024318696,0|2,0:0|0:3,0:0:0:0:
322,256,20862,2,0,B|295:336,1,63.7500024318696,0|2,0:0|0:0,0:0:0:0:
213,353,21180,2,0,B|161:363,2,31.8750012159348,0|0|4,3:0|3:0|0:2,0:0:0:0:
348,175,21656,6,0,B|387:165,4,31.8750012159348,0|0|0|0|2,3:0|3:0|3:0|3:0|3:3,0:0:0:0:
267,193,22132,1,0,0:0:0:0:
239,273,22291,2,0,B|214:352,1,63.7500024318696,2|0,0:2|0:0,0:0:0:0:
183,208,22608,2,0,B|102:225,1,63.7500024318696
211,127,22926,6,0,B|155:65,1,63.7500024318696,2|0,0:2|0:0,0:0:0:0:
295,110,23243,2,0,B|320:30,1,63.7500024318696,2|0,0:3|0:0,0:0:0:0:
348,175,23561,2,0,B|428:157,1,63.7500024318696,2|0,0:2|0:0,0:0:0:0:
322,256,23878,2,0,B|377:317,1,63.7500024318696
239,273,24196,6,0,B|158:290,2,63.7500024318696,2|0|2,0:2|0:0|0:3,0:0:0:0:
267,193,24672,2,0,B|310:55,1,127.500004863739,2|0,0:0|0:0,0:0:0:0:
387,55,25148,2,0,B|467:37,2,63.7500024318696,2|0|0,0:3|0:0|0:0,0:0:0:0:
360,133,25624,2,0,P|301:155|237:118,1,127.500004863739,2|0,0:0|0:0,0:0:0:0:
168,92,26100,6,0,L|100:60,1,63.7500024318696,2|0,0:2|0:0,0:0:0:0:
174,176,26418,1,2,0:2:0:0:
180,260,26577,1,0,0:0:0:0:
255,296,26735,6,0,L|323:328,2,63.7500024318696,0|0|2,0:0|0:0|0:3,0:0:0:0:
180,260,27212,1,0,0:0:0:0:
112,307,27370,2,0,L|50:349,2,63.7500024318696,2|0|0,0:2|0:0|0:0,0:0:0:0:
106,225,27846,6,0,P|91:160|143:99,1,127.500004863739,0|0,0:0|0:0,0:0:0:0:
174,176,28323,1,2,0:3:0:0:
180,260,28481,2,0,B|167:287|145:305|111:306|111:306|68:341,2,127.500004863739,0|0|0,0:0|0:0|0:0,0:0:0:0:
249,212,29275,6,0,L|334:252,2,63.7500024318696,2|0|2,0:2|0:0|0:3,0:0:0:0:
174,176,29751,2,0,B|57:122|57:122|142:100,1,191.250007295609,2|2,0:2|0:2,0:0:0:0:
200,87,30386,1,0,0:0:0:0:
282,67,30545,6,0,B|368:43|362:109|446:80|446:80|402:113|427:174,1,255
256,316,31816,6,0,L|246:384,2,63.7500024318696,4|0|8,0:1|0:0|0:0,0:0:0:0:
325,265,32292,1,0,0:0:0:0:
394,214,32450,2,0,L|462:224,2,63.7500024318696,0|0|8,0:0|0:0|0:0,0:0:0:0:
343,145,32927,1,0,0:0:0:0:
292,76,33085,6,0,L|302:8,2,63.7500024318696,0|0|8,0:0|0:0|0:0,0:0:0:0:
223,127,33562,1,0,0:0:0:0:
154,178,33720,2,0,L|86:168,2,63.7500024318696,0|0|8,0:0|0:0|0:0,0:0:0:0:
205,247,34196,1,0,0:0:0:0:
256,316,34355,6,0,P|313:351|386:327,1,127.500004863739,2|8,0:2|0:0,0:0:0:0:
274,196,34831,2,0,L|171:180,1,63.7500024318696,0|0,0:0|0:0,0:0:0:0:
264,111,35149,2,0,L|247:8,1,63.7500024318696,0|8,0:0|0:0,0:0:0:0:
341,75,35466,6,0,L|433:27,1,63.7500024318696,0|0,0:0|0:0,0:0:0:0:
399,137,35784,2,0,L|472:210,1,63.7500024318696,0|8,0:0|0:0,0:0:0:0:
357,211,36101,2,0,L|309:304,1,63.7500024318696,0|2,0:0|0:3,0:0:0:0:
205,247,36419,1,4,0:3:0:0:
81,226,36577,2,0,L|33:319,1,63.7500024318696,8|0,0:0|0:0,0:0:0:0:
120,150,36895,6,0,L|26:102,1,74.3750007092953,4|0,0:0|0:0,0:0:0:0:
159,74,37212,2,0,L|206:-19,1,74.3750007092953,8|0,0:0|0:0,0:0:0:0:
235,113,37530,2,0,L|328:160,1,74.3750007092953,0|0,0:0|0:0,0:0:0:0:
196,189,37847,2,0,L|148:282,1,74.3750007092953,8|0,0:0|0:0,0:0:0:0:
348,267,38165,6,0,L|441:314,1,74.3750007092953,0|0,0:0|0:0,0:0:0:0:
387,191,38482,2,0,L|434:97,1,74.3750007092953,8|0,0:0|0:0,0:0:0:0:
311,152,38800,2,0,L|217:104,1,74.3750007092953,0|0,0:0|0:0,0:0:0:0:
272,228,39117,2,0,L|224:321,1,74.3750007092953,8|0,0:0|0:0,0:0:0:0:
120,150,39435,6,0,P|74:94|87:23,1,148.750001418591,2|8,0:2|0:0,0:0:0:0:
312,78,39911,2,0,P|316:114|310:151,1,74.3750007092953,0|0,0:0|0:0,0:0:0:0:
196,189,40228,2,0,P|191:152|197:115,1,74.3750007092953,0|8,0:0|0:0,0:0:0:0:
387,191,40546,6,0,P|391:227|385:264,1,74.3750007092953,0|0,0:0|0:0,0:0:0:0:
271,302,40863,2,0,P|266:265|272:228,1,74.3750007092953,0|8,0:0|0:0,0:0:0:0:
426,115,41181,2,0,P|461:147|469:201,1,74.3750007092953,0|0,0:0|0:0,0:0:0:0:
349,339,41498,2,0,P|293:386|222:374,1,148.750001418591,8|0,0:3|0:0,0:0:0:0:
113,209,41974,6,0,L|223:182,1,85,4|0,0:2|0:0,0:0:0:0:
218,106,42292,1,8,0:0:0:0:
301,83,42450,1,0,0:0:0:0:
362,142,42609,2,0,L|337:239,1,85,8|0,0:0|0:0,0:0:0:0:
401,283,42927,1,8,0:0:0:0:
482,260,43085,1,0,0:0:0:0:
502,178,43244,6,0,L|396:209,1,85,8|0,0:0|0:0,0:0:0:0:
462,342,43562,1,8,0:0:0:0:
482,260,43720,1,0,0:0:0:0:
341,224,43879,1,8,0:0:0:0:
401,283,44038,1,0,0:0:0:0:
362,142,44196,2,0,L|270:172,1,85,8|0,0:0|0:0,0:0:0:0:
319,305,44514,5,8,0:0:0:0:
341,224,44673,1,0,0:0:0:0:
195,188,44831,1,8,0:0:0:0:
262,247,44990,1,0,0:0:0:0:
218,103,45149,1,8,0:0:0:0:
132,128,45308,1,0,0:0:0:0:
178,276,45466,1,8,0:0:0:0:
195,188,45625,1,0,0:0:0:0:
44,153,45784,5,8,0:0:0:0:
95,305,45942,1,0,0:0:0:0:
262,247,46101,2,0,L|308:290,2,42.5,8|0|8,0:3|0:3|0:3,0:0:0:0:
341,224,46419,2,0,L|402:238,2,42.5,8|0|8,0:3|0:3|0:3,0:0:0:0:
397,164,46736,2,0,L|456:145,2,42.5,8|0|8,0:3|0:3|0:3,0:0:0:0:
218,103,47054,6,0,L|116:135,1,85,4|0,0:0|0:0,0:0:0:0:
262,247,47371,1,8,0:0:0:0:
282,168,47530,1,4,0:0:0:0:
195,187,47689,2,0,P|174:224|174:266,1,85,0|0,3:0|3:0,0:0:0:0:
320,306,48006,1,8,0:0:0:0:
341,224,48165,1,0,0:0:0:0:
241,325,48323,6,0,P|262:362|298:384,1,85,4|0,0:0|0:0,0:0:0:0:
401,283,48641,2,0,P|422:246|423:204,1,85,8|4,0:0|0:0,0:0:0:0:
301,83,48958,2,0,P|258:82|222:102,1,85,0|0,0:3|0:0,0:0:0:0:
262,247,49276,1,12,0:0:0:0:
362,142,49435,1,0,0:0:0:0:
195,187,49593,6,0,P|171:245|193:303,1,127.5,2|0,2:0|2:0,0:0:0:0:
341,224,50228,2,0,B|312:136|312:136|291:184,1,127.5,2|0,2:0|2:0,0:0:0:0:
320,306,50863,2,0,P|390:296|423:250,1,127.5,2|0,2:0|2:0,0:0:0:0:
262,247,51498,2,0,L|162:276,1,85,2|2,2:2|2:0,0:0:0:0:
180,270,52133,6,0,L|228:71,1,170,4|8,0:0|0:0,0:0:0:0:
241,325,52768,1,0,0:0:0:0:
163,349,52927,1,0,0:0:0:0:
104,293,53085,2,0,P|105:245|141:200,1,85,8|0,0:0|0:0,0:0:0:0:
262,247,53403,6,0,L|362:218,1,85,2|0,0:2|0:0,0:0:0:0:
384,60,53720,2,0,L|284:89,1,85,8|0,0:0|0:0,0:0:0:0:
282,168,54038,1,0,0:0:0:0:
362,142,54196,1,0,0:0:0:0:
218,106,54355,2,0,P|175:105|139:125,1,85,8|0,0:0|0:0,0:0:0:0:
180,270,54673,6,0,P|245:333|336:290,1,170,4|8,0:0|0:0,0:0:0:0:
301,83,55308,1,0,0:0:0:0:
236,24,55465,1,0,0:0:0:0:
152,50,55625,2,0,P|132:95|142:148,1,85,8|0,0:0|0:0,0:0:0:0:
282,168,55942,6,0,L|382:139,1,85,2|0,0:2|0:0,0:0:0:0:
401,283,56260,2,0,L|301:312,1,85,8|0,0:0|0:0,0:0:0:0:
195,187,56577,1,0,0:0:0:0:
341,224,56736,1,0,0:0:0:0:
180,270,56895,2,0,P|141:252|117:218,1,85,8|0,0:0|0:0,0:0:0:0:
218,106,57212,6,0,L|329:77,2,85,4|0|8,0:0|0:0|0:0,0:0:0:0:
195,187,57689,1,0,0:0:0:0:
180,270,57847,2,0,L|68:298,1,85,0|0,0:0|0:0,0:0:0:0:
137,127,58165,2,0,P|136:85|171:36,1,85,8|0,0:0|0:0,0:0:0:0:
282,168,58482,6,0,P|283:210|248:259,1,85,0|0,0:0|0:0,0:0:0:0:
218,106,58800,2,0,P|253:84|313:89,1,85,8|0,0:0|0:0,0:0:0:0:
180,270,59117,1,0,0:0:0:0:
195,187,59276,1,0,0:0:0:0:
369,149,59435,2,0,L|469:127,1,85,8|0,0:0|0:0,0:0:0:0:
341,224,59752,6,0,P|290:160|320:85,2,170,4|8|0,0:0|0:0|0:0,0:0:0:0:
401,283,60546,1,0,0:0:0:0:
379,364,60704,2,0,L|279:391,1,85,8|0,0:0|0:0,0:0:0:0:
180,270,61022,6,0,L|197:179,1,85,4|0,0:2|0:0,0:0:0:0:
104,293,61339,1,8,0:0:0:0:
256,247,61498,2,0,L|448:183,1,170,4|0,0:2|0:0,0:0:0:0:
401,283,61974,2,0,L|377:373,1,85,4|0,0:2|0:0,0:0:0:0:
238,325,62292,6,0,P|184:282|216:178,2,170,4|8|0,0:0|0:0|0:0,0:0:0:0:
256,247,63085,1,0,0:0:0:0:
335,225,63244,2,0,L|431:197,1,85,8|0,0:0|0:0,0:0:0:0:
460,344,63562,6,0,B|408:360|408:360|348:348|348:348|292:364,1,170,2|8,0:2|0:0,0:0:0:0:
92,217,64196,1,0,0:0:0:0:
107,300,64355,1,0,0:0:0:0:
171,245,64514,2,0,P|171:190|141:149,1,85,8|0,0:0|0:0,0:0:0:0:
28,272,64831,6,0,P|40:349|130:380,2,170,4|8|2,0:0|0:0|0:2,0:0:0:0:
13,189,65625,1,0,0:0:0:0:
77,134,65784,2,0,L|149:73,1,85,8|0,0:0|0:0,0:0:0:0:
171,245,66101,5,2,0:2:0:0:
92,217,66260,1,0,0:0:0:0:
154,162,66419,2,0,P|196:164|231:188,1,85,8|0,0:0|0:0,0:0:0:0:
186,327,66736,2,0,P|220:350|262:356,1,85,2|0,0:2|0:0,0:0:0:0:
313,218,67054,2,0,L|347:119,1,85,8|0,0:0|0:0,0:0:0:0:
171,245,67371,6,0,P|106:303|122:379,2,170,4|8|0,0:2|0:0|0:0,0:0:0:0:
250,273,68165,1,0,0:0:0:0:
329,301,68323,2,0,P|368:281|395:232,1,85,8|0,0:0|0:0,0:0:0:0:
234,190,68641,6,0,B|251:273|251:273|202:299|207:362,2,170,4|8|0,0:2|0:0|0:0,0:0:0:0:
218,107,69435,1,0,0:0:0:0:
281,51,69593,2,0,L|356:-16,1,85,8|0,0:0|0:0,0:0:0:0:
378,161,69911,5,4,0:0:0:0:
298,134,70069,1,0,0:0:0:0:
360,78,70228,2,0,P|399:77|443:105,1,85,8|0,0:0|0:0,0:0:0:0:
394,243,70546,1,0,0:0:0:0:
333,305,70704,2,0,B|288:304|233:347|233:347|257:282,1,170,0|0,0:0|0:0,0:0:0:0:
298,134,71181,6,0,L|334:31,1,85,8|0,0:3|0:0,0:0:0:0:
378,161,71498,1,8,0:0:0:0:
234,190,71657,2,0,P|214:152|216:110,1,85,8|0,0:3|0:0,0:0:0:0:
378,161,71974,1,8,0:0:0:0:
250,272,72133,2,0,L|143:293,1,85,8|0,0:3|0:0,0:0:0:0:
313,218,72450,6,0,P|328:301|264:355,1,170,4|8,0:0|0:0,0:0:0:0:
218,107,73085,1,2,0:2:0:0:
281,51,73244,1,0,0:0:0:0:
298,133,73403,2,0,P|274:168|237:188,1,85,8|0,0:0|0:0,0:0:0:0:
138,81,73720,6,0,P|161:46|198:26,1,85,2|0,0:2|0:0,0:0:0:0:
155,163,74038,2,0,L|79:230,1,85,8|0,0:0|0:0,0:0:0:0:
107,302,74355,1,2,0:2:0:0:
26,274,74513,1,0,0:0:0:0:
171,244,74673,2,0,P|192:284|191:328,1,85,8|0,0:0|0:0,0:0:0:0:
42,359,74990,6,0,P|21:304|81:219,1,170,4|8,0:0|0:0,0:0:0:0:
298,133,75625,1,2,0:2:0:0:
361,77,75784,1,0,0:0:0:0:
279,50,75942,2,0,P|242:67|214:113,1,85,8|0,0:0|0:0,0:0:0:0:
315,216,76260,6,0,L|407:197,1,85,2|0,0:3|0:0,0:0:0:0:
444,59,76577,2,0,L|352:77,1,85,8|0,0:0|0:0,0:0:0:0:
217,106,76895,1,2,0:2:0:0:
298,133,77054,1,0,0:0:0:0:
199,22,77212,2,0,P|143:59|131:107,1,85,8|0,0:0|0:0,0:0:0:0:
234,189,77530,6,0,P|255:258|192:329,2,170,4|8|2,0:0|0:0|0:2,0:0:0:0:
154,162,78323,1,0,0:0:0:0:
74,135,78482,2,0,B|12:113|12:113|-17:120,1,85,8|0,0:0|0:0,0:0:0:0:
91,218,78800,6,0,B|152:239|152:239|182:233,1,85,2|0,0:2|0:0,0:0:0:0:
217,106,79117,2,0,B|155:84|155:84|126:91,1,85,8|0,0:0|0:0,0:0:0:0:
234,189,79435,2,0,B|295:210|295:210|325:204,1,85,2|0,0:2|0:0,0:0:0:0:
361,77,79752,2,0,B|299:55|299:55|270:62,1,85,8|0,0:0|0:0,0:0:0:0:
154,162,80069,6,0,P|165:236|271:264,2,170,4|8|2,0:2|0:0|0:2,0:0:0:0:
140,79,80863,1,0,0:0:0:0:
279,50,81022,2,0,L|370:80,1,85,8|0,0:0|0:0,0:0:0:0:
234,189,81339,6,0,B|224:228|183:251|145:249|145:249|94:317,1,170,2|8,0:2|0:0,0:0:0:0:
153,162,81815,2,0,P|176:126|223:104,1,85,0|0,0:0|0:0,0:0:0:0:
314,214,82133,2,0,L|334:312,1,85,0|8,0:0|0:0,0:0:0:0:
250,269,82450,1,0,0:0:0:0:
298,133,82609,6,0,L|404:167,1,85,12|0,0:0|0:0,0:0:0:0:
234,189,82927,1,8,0:0:0:0:
216,105,83085,1,0,0:0:0:0:
314,214,83244,1,8,0:0:0:0:
250,269,83403,1,0,0:0:0:0:
298,133,83562,1,8,0:0:0:0:
330,295,83720,6,0,P|307:331|264:353,1,85,4|0,0:0|0:0,0:0:0:0:
234,189,84038,1,0,0:0:0:0:
314,214,84196,1,8,0:0:0:0:
250,269,84355,1,0,0:0:0:0:
298,133,84514,1,8,0:0:0:0:
394,239,84673,1,0,0:0:0:0:
234,188,84831,2,0,L|142:158,1,85,8|0,0:0|0:0,0:0:0:0:
361,77,85149,6,0,P|385:139|312:218,1,170,4|8,0:2|0:0,0:0:0:0:
153,162,85625,2,0,L|60:179,1,85,0|0,0:0|0:0,0:0:0:0:
92,331,85942,2,0,L|185:314,1,85,0|8,0:0|0:0,0:0:0:0:
314,214,86260,2,0,L|221:231,1,85,0|0,0:0|3:0,0:0:0:0:
255,382,86577,2,0,B|343:366|343:366|336:316|376:288,1,170,0|0,0:0|3:0,0:0:0:0:
445,239,87054,6,0,B|464:228|464:228|494:163,2,85,2|0|8,3:2|0:0|0:3,0:0:0:0:
298,133,87689,5,4,0:0:0:0:
256,192,87768,12,0,90228,2:0:0:0:
