osu file format v14

[General]
AudioFilename: Magi_-_The_Bravery_TV_Size.mp3
AudioLeadIn: 0
PreviewTime: 51777
Countdown: 0
SampleSet: Normal
StackLeniency: 0.7
Mode: 0
LetterboxInBreaks: 0
WidescreenStoryboard: 0

[Editor]
DistanceSpacing: 1.5
BeatDivisor: 4
GridSize: 4
TimelineZoom: 3.100004

[Metadata]
Title:The Bravery (TV Edit)
TitleUnicode:The Bravery (TV Edit)
Artist:supercell
ArtistUnicode:supercell
Creator:monstrata
Version:Hard
Source:マギ
Tags:ryo the bravery magi the labyrinth of magic ending 2 aladdin koeda size alibaba morgiana
BeatmapID:691531
BeatmapSetID:308912

[Difficulty]
HPDrainRate:5
CircleSize:3.7
OverallDifficulty:6
ApproachRate:8
SliderMultiplier:1.4
SliderTickRate:1

[Events]
//Background and Video events
0,0,"68747470733a2f2f646c2e64726f70626f7875736572636f6e74656e742e636f6d2f752f36343330393535332f6f73752f496d70726f76656420496d616765732f6d6f6e7374726174612f6d61672e6a7067.jpg",0,0
//Break Periods
//Storyboard Layer 0 (Background)
//Storyboard Layer 1 (Fail)
//Storyboard Layer 2 (Pass)
//Storyboard Layer 3 (Foreground)
//Storyboard Sound Samples

[TimingPoints]
705,317.460317460317,4,2,0,60,1,8
705,-133.333333333333,4,2,0,60,0,0
1181,-100,4,1,0,60,0,0
1339,317.460317460317,4,1,1,50,1,0
11497,-133.333333333333,4,2,0,40,0,0
21656,-133.333333333333,4,2,0,50,0,0
30545,-200,4,2,1,60,0,0
31816,-133.333333333333,4,1,1,50,0,0
36895,-114.285714285714,4,1,1,60,0,0
41974,-100,4,1,1,60,0,0
49593,-133.333333333333,4,2,1,60,0,0
52132,-100,4,1,1,60,0,1
72370,-100,4,1,0,60,0,0
72450,-100,4,1,1,60,0,1
88958,-100,4,1,0,40,0,1
89276,-100,4,1,0,30,0,1
89593,-100,4,1,0,20,0,1
89911,-100,4,1,0,10,0,1
90227,-100,4,1,0,5,0,0

[Colours]
Combo1 : 0,128,255
Combo2 : 255,159,43
Combo3 : 244,19,75

[HitObjects]
159,164,705,6,0,P|142:144|152:49,1,105.000004005432,0|0,2:0|2:0,0:0:0:0:
216,102,1181,6,0,L|381:74,1,140,4|0,0:2|0:0,0:0:0:0:
325,157,1656,1,8,0:0:0:0:
265,313,1973,2,0,L|99:340,1,140,2|8,0:2|0:0,0:0:0:0:
71,271,2450,6,0,B|68:226|16:204|16:204|16:155,1,140,0|0,0:0|0:0,0:0:0:0:
64,86,2926,1,8,0:0:0:0:
232,98,3243,2,0,L|327:105,2,70,2|0|8,0:2|0:0|0:0,0:0:0:0:
148,92,3719,6,0,B|146:144|193:173|193:173|189:228,1,140,4|0,0:0|0:0,0:0:0:0:
177,299,4196,1,8,0:0:0:0:
335,237,4513,2,0,L|428:200,2,70,2|0|8,0:2|0:0|0:0,0:0:0:0:
256,268,4989,6,0,P|303:316|371:314,1,140,4|2,0:0|0:2,0:0:0:0:
448,277,5465,2,0,L|521:241,1,70,8|2,0:0|0:2,0:0:0:0:
473,169,5783,2,0,L|499:91,2,70,0|2|8,0:0|0:2|0:0,0:0:0:0:
400,211,6259,6,0,B|306:247|306:247|319:179,1,140,4|0,0:0|0:0,0:0:0:0:
333,126,6735,1,8,0:0:0:0:
495,75,7053,2,0,L|513:-6,2,70,2|0|8,0:2|0:0|0:0,0:0:0:0:
414,101,7529,6,0,L|380:249,1,140,4|0,0:0|0:0,0:0:0:0:
302,262,8005,1,8,0:0:0:0:
140,310,8323,2,0,L|119:396,2,70,2|0|8,0:2|0:0|0:0,0:0:0:0:
221,286,8799,6,0,B|270:271|270:271|292:234|292:234|340:220,2,140,4|0|0,0:0|0:0|0:0,0:0:0:0:
159,227,9592,2,0,L|74:251,2,70,4|0|8,0:3|0:0|0:0,0:0:0:0:
178,144,10069,6,0,L|182:54,1,70,4|0,0:0|0:0,0:0:0:0:
259,118,10386,2,0,L|337:78,1,70,4|8,0:0|0:0,0:0:0:0:
322,175,10704,2,0,L|395:223,1,70,4|0,0:2|0:0,0:0:0:0:
304,258,11021,2,0,L|298:346,1,70,4|0,0:2|0:0,0:0:0:0:
221,286,11338,1,0,0:0:0:0:
140,310,11497,6,0,L|22:344,1,105.000004005432,2|0,0:2|0:0,0:0:0:0:
53,260,11973,1,0,0:0:0:0:
71,185,12132,2,0,P|99:150|162:140,1,105.000004005432,2|0,0:2|0:0,0:0:0:0:
215,191,12608,1,0,0:0:0:0:
273,243,12767,2,0,P|229:269|176:259,1,105.000004005432,2|0,0:2|0:0,0:0:0:0:
215,191,13243,2,0,B|229:122|229:122|293:102|299:62,1,157.500006008148,2|0,0:0|0:0,0:0:0:0:
170,59,14037,6,0,P|119:66|82:104,1,105.000004005432,2|0,0:2|0:0,0:0:0:0:
156,138,14513,1,0,0:0:0:0:
215,191,14672,2,0,P|266:184|303:146,1,105.000004005432,2|0,0:2|0:0,0:0:0:0:
231,112,15148,1,0,0:0:0:0:
156,138,15307,2,0,L|129:262,1,105.000004005432,2|0,0:2|0:0,0:0:0:0:
58,216,15783,2,0,L|96:40,1,157.500006008148,2|0,0:0|0:0,0:0:0:0:
170,59,16418,1,0,0:0:0:0:
245,31,16577,6,0,L|312:6,1,52.5000020027161,2|0,0:2|0:0,0:0:0:0:
354,61,16894,1,0,0:0:0:0:
415,109,17053,2,0,B|495:123|495:123|520:148,2,105.000004005432,2|0|2,0:0|0:0|0:2,0:0:0:0:
270,165,18005,2,0,L|203:189,2,52.5000020027161,2|0|0,0:0|0:0|0:0,0:0:0:0:
282,88,18481,2,0,L|293:17,1,52.5000020027161,2|0,0:2|0:0,0:0:0:0:
342,136,18799,2,0,L|397:181,1,52.5000020027161,2|0,0:0|0:0,0:0:0:0:
442,222,19116,6,0,P|460:269|442:329,1,105.000004005432,2|0,0:0|0:0,0:0:0:0:
384,373,19592,2,0,P|365:324|377:274,1,105.000004005432
458,143,20227,2,0,L|531:53,2,105.000004005432,2|0|2,0:0|0:0|0:0,0:0:0:0:
303,193,21180,2,0,L|246:183,1,52.5000020027161,0|4,3:0|0:2,0:0:0:0:
149,305,21656,6,0,L|113:349,2,52.5000020027161,0|0|2,3:0|3:0|3:3,0:0:0:0:
201,245,22132,1,0,0:0:0:0:
174,170,22291,2,0,L|131:55,1,105.000004005432,2|0,0:2|0:0,0:0:0:0:
251,184,22926,2,0,L|328:89,1,105.000004005432,2|2,0:2|0:3,0:0:0:0:
277,257,23561,2,0,L|397:277,1,105.000004005432,2|0,0:2|0:0,0:0:0:0:
225,315,24196,6,0,P|199:271|207:221,1,105.000004005432,2|2,0:2|0:3,0:0:0:0:
277,184,24672,2,0,L|383:132,1,105.000004005432,0|0,0:0|0:0,0:0:0:0:
448,153,25148,2,0,P|474:197|466:247,1,105.000004005432,2|0,0:3|0:0,0:0:0:0:
396,284,25624,2,0,L|340:310,1,52.5000020027161,2|0,0:0|0:0,0:0:0:0:
277,341,25942,1,0,0:0:0:0:
199,330,26100,2,0,L|126:317,1,52.5000020027161,2|0,0:2|0:0,0:0:0:0:
184,250,26418,2,0,L|159:179,1,52.5000020027161
180,121,26735,6,0,L|251:37,1,105.000004005432,2|2,0:2|0:3,0:0:0:0:
326,56,27212,1,0,0:0:0:0:
403,70,27370,2,0,L|469:82,2,52.5000020027161,2|0|0,0:2|0:0|0:0,0:0:0:0:
353,130,27846,2,0,L|281:213,1,105.000004005432
233,270,28323,1,2,0:3:0:0:
153,255,28481,2,0,P|158:306|194:342,2,105.000004005432
206,194,29275,6,0,L|280:106,1,105.000004005432,2|0,0:2|0:0,0:0:0:0:
329,57,29751,2,0,L|367:165,1,105.000004005432,2|0,0:2|0:0,0:0:0:0:
386,232,30227,2,0,L|323:220,1,52.5000020027161,2|0,0:2|0:0,0:0:0:0:
282,281,30545,6,0,B|144:258|144:258|208:217,1,210
335,132,31816,6,0,L|368:74,2,52.5000020027161,4|0|8,0:1|0:0|0:0,0:0:0:0:
256,132,32292,1,0,0:0:0:0:
177,132,32450,2,0,L|110:132,2,52.5000020027161,0|0|8,0:0|0:0|0:0,0:0:0:0:
217,201,32927,1,0,0:0:0:0:
259,270,33085,2,0,L|291:327,2,52.5000020027161,0|0|8,0:0|0:0|0:0,0:0:0:0:
296,200,33562,1,0,0:0:0:0:
256,132,33720,2,0,L|223:74,2,52.5000020027161,0|0|8,0:0|0:0|0:0,0:0:0:0:
259,270,34355,6,0,B|339:278|339:278|375:262,1,105.000004005432,2|8,0:2|0:0,0:0:0:0:
400,195,34831,2,0,L|470:193,1,52.5000020027161
439,122,35149,2,0,L|472:60,1,52.5000020027161,0|8,0:0|0:0,0:0:0:0:
394,50,35466,2,0,L|357:-10,1,52.5000020027161,0|0,0:0|0:0,0:0:0:0:
310,51,35784,2,0,L|239:52,1,52.5000020027161,0|8,0:0|0:0,0:0:0:0:
270,126,36101,2,0,L|235:188,1,52.5000020027161,0|2,0:0|0:3,0:0:0:0:
287,244,36419,1,4,0:3:0:0:
331,318,36577,1,8,0:0:0:0:
146,320,36895,6,0,L|70:363,2,61.2500005841255,4|0|8,0:0|0:0|0:0,0:0:0:0:
144,233,37371,1,0,0:0:0:0:
142,146,37530,2,0,L|141:59,2,61.2500005841255,0|0|8,0:0|0:0|0:0,0:0:0:0:
217,188,38006,1,0,0:0:0:0:
293,230,38165,2,0,L|293:317,2,61.2500005841255,0|0|8,0:0|0:0|0:0,0:0:0:0:
290,143,38641,1,0,0:0:0:0:
288,56,38800,2,0,L|363:12,2,61.2500005841255,0|0|8,0:0|0:0|0:0,0:0:0:0:
142,146,39435,6,0,P|145:234|187:270,1,122.500001168251,2|8,0:2|0:0,0:0:0:0:
220,330,39911,2,0,L|244:393,1,61.2500005841255
306,300,40227,2,0,L|373:296,1,61.2500005841255,0|8,0:0|0:0,0:0:0:0:
304,208,40546,2,0,L|321:142,1,61.2500005841255,0|0,0:0|0:0,0:0:0:0:
215,181,40863,2,0,L|158:144,1,61.2500005841255,0|8,0:0|0:0,0:0:0:0:
161,257,41181,2,0,L|108:299,1,61.2500005841255,0|0,0:0|0:0,0:0:0:0:
220,330,41498,1,8,0:3:0:0:
257,102,41974,6,0,L|329:33,1,70,4|0,0:2|0:0,0:0:0:0:
372,136,42292,2,0,L|468:164,1,70,8|0,0:0|0:0,0:0:0:0:
400,253,42609,2,0,L|423:350,1,70,8|0,0:0|0:0,0:0:0:0:
312,335,42927,2,0,L|239:404,1,70,8|0,0:0|0:0,0:0:0:0:
196,299,43244,6,0,L|99:270,1,70,8|0,0:0|0:0,0:0:0:0:
35,229,43562,2,0,L|131:200,1,70,8|0,0:0|0:0,0:0:0:0:
194,158,43879,2,0,L|97:129,1,70,8|0,0:0|0:0,0:0:0:0:
33,88,44197,2,0,L|129:59,1,70,8|0,0:0|0:0,0:0:0:0:
200,38,44514,5,8,0:0:0:0:
261,97,44673,1,0,0:0:0:0:
341,74,44831,2,0,L|409:136,1,70,8|0,0:0|0:0,0:0:0:0:
320,154,45149,1,8,0:0:0:0:
299,232,45308,1,0,0:0:0:0:
356,289,45466,2,0,L|341:367,1,70,8|0,0:0|0:0,0:0:0:0:
277,308,45784,5,8,0:0:0:0:
223,249,45942,1,0,0:0:0:0:
143,265,46101,2,0,L|56:284,1,70,8|0,0:3|3:0,0:0:0:0:
170,187,46419,2,0,L|195:102,1,70,8|0,0:3|3:0,0:0:0:0:
223,249,46736,2,0,L|282:314,1,70,8|0,0:3|3:0,0:0:0:0:
320,154,47054,6,0,L|470:120,1,140,4|8,0:0|0:0,0:0:0:0:
435,204,47530,1,4,0:0:0:0:
412,284,47689,2,0,B|399:330|359:334|359:334|289:309,1,140,0|8,3:0|0:0,0:0:0:0:
222,282,48165,1,0,0:0:0:0:
210,197,48323,6,0,B|196:89|196:89|229:116,1,140,4|8,0:0|0:0,0:0:0:0:
286,162,48800,1,4,0:0:0:0:
351,215,48958,2,0,B|391:214|391:214|451:187|440:117,1,140,0|12,0:3|0:0,0:0:0:0:
392,67,49434,1,0,0:0:0:0:
310,84,49593,6,0,B|259:96|259:96|207:84|207:84|151:96,1,157.500006008148,2|0,2:0|2:0,0:0:0:0:
207,166,50228,2,0,B|258:178|258:178|310:166|310:166|366:178,1,157.500006008148,2|0,2:0|2:0,0:0:0:0:
413,248,50863,2,0,B|362:260|362:260|310:248|310:248|254:260,1,157.500006008148,2|0,2:0|2:0,0:0:0:0:
313,330,51498,2,0,B|364:342|364:342|416:330|416:330,1,105.000004005432,2|2,2:2|2:0,0:0:0:0:
410,165,52133,6,0,P|350:124|286:143,2,140,4|8|0,0:0|0:0|0:0,0:0:0:0:
413,248,52927,1,0,0:0:0:0:
342,292,53085,2,0,L|268:336,1,70,8|0,0:0|0:0,0:0:0:0:
339,209,53403,6,0,L|337:66,1,140,2|8,0:2|0:0,0:0:0:0:
413,248,54038,1,0,0:0:0:0:
416,331,54196,1,0,0:0:0:0:
345,375,54355,2,0,P|299:365|272:337,1,70,8|0,0:0|0:0,0:0:0:0:
268,253,54673,6,0,B|339:211|339:211|359:145,2,140,4|8|0,0:0|0:0|0:0,0:0:0:0:
198,298,55466,1,0,0:0:0:0:
124,259,55625,2,0,L|50:219,1,70,8|0,0:0|0:0,0:0:0:0:
194,214,55942,6,0,P|240:226|280:311,1,140,2|8,0:2|0:0,0:0:0:0:
127,343,56578,1,0,0:0:0:0:
52,303,56736,1,0,0:0:0:0:
48,218,56895,2,0,L|-20:181,1,70,8|0,0:0|0:0,0:0:0:0:
121,172,57212,6,0,L|187:129,1,70,4|0,0:0|0:0,0:0:0:0:
124,259,57530,2,0,L|127:338,2,70,8|0|0,0:0|0:0|0:0,0:0:0:0:
117,85,58165,2,0,P|92:59|61:45,1,70,8|0,0:0|0:0,0:0:0:0:
45,131,58482,6,0,P|40:201|103:256,1,140,0|8,0:0|0:0,0:0:0:0:
195,125,59117,1,0,0:0:0:0:
121,172,59276,1,0,0:0:0:0:
197,211,59435,2,0,P|231:205|259:183,1,70,8|0,0:0|0:0,0:0:0:0:
271,82,59752,6,0,L|269:-7,1,70,4|0,0:0|0:0,0:0:0:0:
193,39,60069,2,0,L|123:1,2,70,8|0|0,0:0|0:0|0:0,0:0:0:0:
195,125,60546,1,0,0:0:0:0:
273,165,60704,2,0,L|342:201,1,70,8|0,0:0|0:0,0:0:0:0:
197,211,61022,6,0,P|120:168|155:49,2,210,4|4|4,0:2|0:2|0:2,0:0:0:0:
348,119,62292,6,0,B|428:70|428:70|491:80,2,140,4|8|0,0:0|0:0|0:0,0:0:0:0:
273,165,63085,1,0,0:0:0:0:
275,252,63244,2,0,L|278:342,1,70,8|0,0:0|0:0,0:0:0:0:
197,211,63562,6,0,P|186:144|242:83,1,140,2|8,0:2|0:0,0:0:0:0:
350,207,64196,1,0,0:0:0:0:
351,294,64355,1,0,0:0:0:0:
276,337,64514,2,0,L|197:384,1,70,8|0,0:0|0:0,0:0:0:0:
275,252,64831,6,0,B|319:227|319:227|344:194|344:194|385:170,2,140,4|8|0,0:0|0:0|3:0,0:0:0:0:
200,294,65625,1,0,0:0:0:0:
125,336,65784,2,0,L|53:376,1,70,8|0,0:0|0:0,0:0:0:0:
126,250,66101,6,0,L|127:167,2,70,2|0|8,0:2|0:0|0:0,0:0:0:0:
276,337,66736,1,0,0:0:0:0:
351,294,66895,1,0,0:0:0:0:
350,207,67054,2,0,L|349:118,1,70,8|0,0:0|0:0,0:0:0:0:
275,252,67371,6,0,B|214:288|214:288|199:333|138:345,1,140,4|8,0:2|0:0,0:0:0:0:
273,165,68006,1,0,0:0:0:0:
350,207,68165,1,0,0:0:0:0:
351,294,68323,2,0,L|352:387,1,70,8|0,0:0|0:0,0:0:0:0:
425,249,68641,6,0,L|505:201,2,70,4|0|8,0:2|0:0|0:0,0:0:0:0:
273,165,69276,1,0,0:0:0:0:
268,77,69435,1,0,0:0:0:0:
341,28,69593,2,0,L|421:-25,1,70,8|0,0:0|0:0,0:0:0:0:
346,115,69911,6,0,L|351:210,1,70,4|0,0:0|0:0,0:0:0:0:
357,268,70228,2,0,L|277:321,1,70,8|0,0:0|0:0,0:0:0:0:
229,354,70546,2,0,L|143:311,1,70,0|0,0:0|0:0,0:0:0:0:
90,286,70863,2,0,L|84:190,1,70,8|0,0:0|0:0,0:0:0:0:
79,131,71181,6,0,L|159:78,1,70,8|0,0:3|0:0,0:0:0:0:
208,44,71498,1,8,0:0:0:0:
214,129,71657,2,0,L|299:171,1,70,8|0,0:3|0:0,0:0:0:0:
353,197,71974,1,8,0:0:0:0:
283,244,72133,2,0,L|288:339,1,70,8|0,0:3|0:0,0:0:0:0:
213,291,72450,6,0,L|75:381,2,140,4|8|2,0:0|0:0|0:2,0:0:0:0:
207,206,73244,1,0,0:0:0:0:
201,121,73403,2,0,L|195:41,1,70,8|0,0:0|0:0,0:0:0:0:
277,158,73720,6,0,L|362:199,2,70,2|0|8,0:2|0:0|0:0,0:0:0:0:
125,85,74355,1,2,0:2:0:0:
55,132,74514,1,0,0:0:0:0:
60,216,74673,2,0,L|65:296,1,70,8|0,0:0|0:0,0:0:0:0:
130,169,74990,6,0,B|201:120|201:120|237:134|279:109,2,140,4|8|2,0:0|0:0|0:2,0:0:0:0:
136,253,75784,1,0,0:0:0:0:
67,299,75942,2,0,L|0:346,1,70,8|0,0:0|0:0,0:0:0:0:
60,216,76260,6,0,L|55:136,2,70,2|0|8,0:2|0:0|0:0,0:0:0:0:
212,290,76894,1,2,0:2:0:0:
282,242,77053,1,0,0:0:0:0:
358,278,77212,2,0,L|364:357,1,70,8|0,0:0|0:0,0:0:0:0:
427,230,77530,6,0,L|492:184,1,70,4|0,0:0|0:0,0:0:0:0:
350,194,77847,2,0,L|278:159,1,70,8|0,0:0|0:0,0:0:0:0:
217,213,78165,1,2,0:2:0:0:
139,177,78323,1,0,0:0:0:0:
68,226,78482,2,0,L|-4:276,1,70,8|0,0:0|0:0,0:0:0:0:
61,141,78800,5,2,0:2:0:0:
131,91,78958,1,0,0:0:0:0:
209,125,79117,2,0,L|279:74,1,70,8|0,0:0|0:0,0:0:0:0:
342,118,79435,1,2,0:2:0:0:
351,201,79593,1,0,0:0:0:0:
427,234,79752,2,0,L|503:265,1,70,8|0,0:0|0:0,0:0:0:0:
417,151,80069,6,0,B|417:99|417:99|407:43|327:36,2,140,4|8|2,0:2|0:0|0:2,0:0:0:0:
351,201,80863,1,0,0:0:0:0:
285,251,81022,2,0,L|217:302,1,70,8|0,0:0|0:0,0:0:0:0:
275,169,81339,6,0,L|254:12,1,140,2|8,0:2|0:0,0:0:0:0:
190,82,81815,2,0,L|122:134,1,70,0|0,0:0|0:0,0:0:0:0:
67,176,82133,1,0,0:0:0:0:
145,208,82292,2,0,L|224:240,1,70,8|0,0:0|0:0,0:0:0:0:
220,318,82609,6,0,L|299:350,1,70,8|0,0:0|0:0,0:0:0:0:
354,292,82927,2,0,L|422:240,1,70,8|0,0:0|0:0,0:0:0:0:
473,191,83244,2,0,L|462:96,1,70,8|0,0:0|0:0,0:0:0:0:
384,82,83562,1,8,0:0:0:0:
315,134,83720,6,0,L|248:184,1,70,4|0,0:0|0:0,0:0:0:0:
337,212,84038,1,0,0:0:0:0:
392,152,84196,2,0,L|381:51,1,70,8|0,0:0|0:0,0:0:0:0:
305,47,84514,2,0,L|228:13,1,70,8|0,0:0|0:0,0:0:0:0:
174,70,84831,2,0,L|107:120,1,70,8|0,0:0|0:0,0:0:0:0:
51,162,85149,6,0,B|12:212|39:254|39:254|94:289,1,140,4|8,0:2|0:0,0:0:0:0:
145,318,85625,2,0,L|242:293,1,70,0|0,0:0|0:0,0:0:0:0:
235,219,85942,2,0,L|261:122,1,70,0|8,0:0|0:0,0:0:0:0:
276,69,86260,2,0,L|344:52,1,70,0|0,0:0|0:0,0:0:0:0:
416,94,86577,2,0,B|449:115|449:115|477:158|438:208,1,140,0|0,0:0|0:0,0:0:0:0:
369,258,87054,5,2,3:2:0:0:
292,224,87212,1,0,0:0:0:0:
282,140,87371,1,8,0:3:0:0:
302,308,87689,5,4,0:0:0:0:
256,192,87768,12,0,90228,2:0:0:0:
