osu file format v7

[General]
AudioFilename: Sayonara Memories - Supercell.mp3
AudioLeadIn: 0
PreviewTime: 101463
Countdown: 0
SampleSet: Soft
StackLeniency: 0.6
Mode: 0
LetterboxInBreaks: 1

[Editor]
DistanceSpacing: 0.800000011920929
BeatDivisor: 4
GridSize: 8

[Metadata]
Title:Sayonara Memories
Artist:supercell
Creator:Colin Hou
Version:Normal
Source:
Tags:Nagi

[Difficulty]
HPDrainRate:4
CircleSize:4
OverallDifficulty:4
SliderMultiplier:1.4
SliderTickRate:2

[Events]
//Background and Video events
0,0,"BackGround.jpg"
//Break Periods
//Storyboard Layer 0 (Background)
//Storyboard Layer 1 (Fail)
//Storyboard Layer 2 (Pass)
//Storyboard Layer 3 (Foreground)
//Storyboard Sound Samples
Sample,68824,0,"soft-hitclap.wav",100
//Background Colour Transformations
3,100,245,137,197

[TimingPoints]
23441,375,4,2,1,100,1,0
35441,-200,4,2,1,100,0,0
101441,-200,4,2,1,100,0,1
111191,-200,4,2,1,100,0,0
113441,-200,4,2,1,100,0,1
122441,-200,4,2,1,100,0,0
130597,-200,4,2,1,50,0,0
130691,-100,4,2,1,50,0,1
135941,-100,4,2,1,100,0,0

[Colours]
Combo1 : 191,0,0
Combo2 : 151,0,151
Combo3 : 17,26,104
Combo4 : 232,116,0

[HitObjects]
88,80,48191,1,0
144,80,48566,1,2
200,80,48941,1,0
256,80,49316,1,2
312,80,49691,2,0,B|344:112|384:72,1,70,0|2
424,80,50441,2,0,B|504:112|520:192|504:272|408:304,1,280,0|2
368,304,52316,5,0
312,304,52691,1,2
256,304,53066,1,0
200,304,53441,2,0,B|40:304|200:240|40:240|296:176|40:176,1,280,2|2
56,120,55316,5,0
56,64,55691,1,2
112,64,56066,1,0
168,64,56441,1,2
296,168,57566,5,0
328,120,57941,1,8
344,96,58128,1,0
360,72,58316,1,0
376,48,58503,2,0,B|408:8|440:8,2,70,0|8|0
384,88,59441,2,0,B|384:168,1,70,0|12
384,214,60191,5,0
384,272,60566,1,8
344,312,60941,1,0
304,288,61316,1,8
248,288,61691,2,0,B|176:296,1,70,0|8
136,272,62441,1,0
96,232,62816,1,8
80,176,63191,1,0
96,120,63566,1,8
128,80,63941,1,0
184,72,64316,6,0,B|248:96|312:144,1,140,8|8
312,192,65441,2,0,B|256:249,1,70,0|8
264,296,66191,2,0,B|345:296,1,70,0|8
424,296,67316,5,8
392,248,67691,1,0
360,296,68066,1,8
304,296,68441,2,0,B|152:296,1,140,0|2
120,264,69566,5,8
104,208,69941,2,0,B|104:151|160:160,1,70,0|8
184,112,70691,2,0,B|240:112|232:56,1,70,0|8
288,72,71441,1,0
344,88,71816,1,8
384,128,72191,1,0
400,184,72566,1,8
408,240,72941,2,0,B|456:232|464:272,4,70,0|8|0|8|4
88,304,76316,5,0
144,288,76691,1,0
168,240,77066,1,0
184,184,77441,2,0,B|168:104|224:32|312:56,1,210,0|0
328,56,78753,2,0,B|400:64|440:144|424:192,1,175,0|2
416,232,80066,1,0
392,280,80441,2,0,B|351:321|306:344|256:312,1,140,2|2
216,304,81566,5,0
168,280,81941,2,0,B|136:280|112:224,1,70,0|0
104,216,82503,2,0,B|64:128|168:64,1,175,0|0
336,40,84566,6,0,B|320:112,1,70
376,88,85316,1,0
416,128,85691,2,0,B|416:208,1,70
416,256,86441,1,0
344,296,87003,1,0
256,280,87566,2,2,B|192:280,1,35,0|2
48,120,89066,5,0
88,80,89441,1,0
200,56,90191,1,0
312,56,90941,1,0
416,104,91691,1,0
448,152,92066,5,0
416,200,92441,1,0
344,288,93191,1,0
232,312,93941,1,0
136,256,94691,1,2
40,152,95441,5,0
56,96,95816,1,8
112,96,96191,1,0
128,152,96566,1,8
144,208,96941,1,0
200,208,97316,1,8
216,152,97691,1,0
232,96,98066,1,8
272,136,98441,6,8,B|432:136,1,140,0|8
416,248,99941,2,8,B|256:248,1,140,0|8
376,144,101441,5,8
296,64,102191,1,8
376,144,102941,1,8
376,256,103691,1,8
360,312,104066,1,0
304,312,104441,5,8
192,288,105191,1,8
112,216,105941,1,8
136,104,106691,1,8
176,64,107066,1,4
224,32,107441,6,0,B|288:96,1,70,2|8
224,112,108191,2,0,B|288:176,1,70,0|8
224,192,108941,2,0,B|288:256,1,70,0|8
224,272,109691,2,8,B|288:336,1,70,0|8
344,320,110441,2,0,B|344:176,1,140,0|8
280,176,111566,5,8
280,240,111941,1,10
280,304,112316,2,0,B|280:376,2,70,0|0|8
224,328,113441,6,0,B|288:264,1,70,0|8
224,248,114191,2,0,B|288:184,1,70,0|8
224,168,114941,2,0,B|288:104,1,70,0|8
224,88,115691,2,0,B|288:24,1,70,0|8
336,40,116441,6,0,B|384:40,2,35,0|0|8
336,96,117191,2,0,B|416:96,1,70,0|8
423,149,117941,2,0,B|423:228,1,70,0|8
383,258,118691,2,8,B|383:309,2,35,0|8|8
328,256,119441,5,0
376,216,119816,1,8
328,256,120191,1,0
272,240,120566,1,8
328,256,120941,1,0
344,312,121316,1,8
328,256,121691,1,10
328,256,122441,1,8
280,96,123566,6,8,B|280:48,7,35,8|0|8|8|8|0|0|8
184,80,125441,5,0
96,120,126003,1,0
144,200,126566,1,2
368,64,128066,6,0,B|328:64,2,35,0|0|0
272,144,129191,1,0
368,224,129941,1,0
152,280,130691,6,0,B|192:280,7,35,0|0|0|0|0|0|0|0
256,192,131441,12,0,135941
