osu file format v9

[General]
AudioFilename: supercell - Perfect Day.mp3
AudioLeadIn: 0
PreviewTime: 69004
Countdown: 0
SampleSet: Soft
StackLeniency: 0.7
Mode: 0
LetterboxInBreaks: 1

[Editor]
Bookmarks: 14437,26821,39205,70165,82549,94933,107317,119701,122797,132085,163045,175429,187813,194005
DistanceSpacing: 0.8
BeatDivisor: 4
GridSize: 4

[Metadata]
Title:Perfect Day
Artist:supercell
Creator:L i a
Version:KRZY
Source:Today Is A Beautiful Day
Tags:KRZY

[Difficulty]
HPDrainRate:5
CircleSize:4
OverallDifficulty:5
ApproachRate:7
SliderMultiplier:1.6
SliderTickRate:1

[Events]
//Background and Video events
0,0,"Back Ground.jpg"
//Break Periods
//Storyboard Layer 0 (Background)
//Storyboard Layer 1 (Fail)
//Storyboard Layer 2 (Pass)
//Storyboard Layer 3 (Foreground)
//Storyboard Sound Samples
//Background Colour Transformations
3,100,163,162,255

[TimingPoints]
12889,387.001896309292,4,2,1,25,1,0
37270,-200,4,2,1,25,0,0
38818,-100,4,2,1,25,0,0
39205,-100,4,2,1,40,0,0
41914,-200,4,2,1,40,0,0
42688,-100,4,2,1,40,0,0
49654,-200,4,2,1,40,0,0
50428,-100,4,2,1,40,0,0
51202,-200,4,2,1,40,0,0
51589,-100,4,2,1,40,0,0
55846,-200,4,2,1,40,0,0
56620,-100,4,2,1,40,0,0
58942,-200,4,2,1,40,0,0
59716,-100,4,2,1,40,0,0
62425,-200,4,2,1,40,0,0
62812,-100,4,2,1,40,0,0
65327,-200,4,2,1,40,0,0
65908,-100,4,2,1,40,0,0
67069,-100,4,2,1,50,0,0
67456,-100,4,2,1,60,0,0
67843,-100,4,2,1,70,0,0
68230,-100,4,2,1,80,0,0
68617,-100,4,2,1,90,0,0
69391,-200,4,2,1,40,0,0
69778,-100,4,2,1,40,0,0
70165,-100,4,2,1,100,0,1
82355,-100,4,2,1,100,0,0
82549,-100,4,2,1,100,0,1
94933,-100,4,2,1,100,0,0
97642,-200,4,2,1,100,0,0
100351,-100,4,2,1,60,0,0
112735,-200,4,2,1,60,0,0
113122,-100,4,2,1,60,0,0
118927,-200,4,2,1,60,0,0
119121,-100,4,2,1,60,0,0
133246,-200,4,2,1,60,0,0
134020,-100,4,2,1,60,0,0
137890,-200,4,2,1,60,0,0
139051,-100,4,2,1,60,0,0
143695,-200,4,2,1,60,0,0
144276,-100,4,2,1,60,0,0
145050,-200,4,2,1,60,0,0
145824,-100,4,2,1,60,0,0
147565,-200,4,2,1,60,0,0
148339,-100,4,2,1,60,0,0
151822,-200,4,2,1,60,0,0
152596,-100,4,2,1,60,0,0
162271,-200,4,2,1,60,0,0
162658,-100,4,2,1,100,0,1
175236,-100,4,2,1,100,0,0
175429,-100,4,2,1,100,0,1
187813,-100,4,2,1,100,0,0
188974,-200,4,2,1,100,0,0
192844,-100,4,2,1,100,0,0
195166,-200,4,2,1,100,0,0
203293,-100,4,2,1,100,0,0
210453,-100,4,2,1,5,0,0

[Colours]
Combo1 : 0,255,255
Combo2 : 128,128,192

[HitObjects]
182,296,14437,2,0,B|214:332|256:310|298:332|330:296,1,160,2|0
393,296,15017,2,0,B|494:293|482:193,1,160
436,147,15598,2,0,B|256:-66|208:182|300:-118|530:95|364:-95|316:179,1,480,2|0
188,192,17146,5,0
172,252,17339,1,0
156,312,17533,2,0,B|316:312,1,160,2|0
316,375,18113,2,0,B|454:295,1,160
499,249,18694,2,0,B|561:48|277:95|305:261|452:180|315:-72|195:100,1,480,2|0
256,212,20242,5,0
256,212,20435,1,0
255,212,20629,2,0,B|187:286|119:211,1,160,2|0
74,166,21209,2,0,B|0:97|74:29,1,160
137,29,21790,2,0,B|189:140|229:18|229:18|281:145|333:18|333:18|373:140|425:29,1,480,2|0
492,140,23338,5,0
456,192,23531,1,0
492,244,23725,1,2
401,334,24112,1,0
355,288,24305,2,0,B|323:252|281:274|239:252|207:288,1,160
161,333,24886,2,0,B|94:275|27:333|27:333|94:249|27:165|27:165|94:225|161:165,1,480,2|0
406,170,26627,5,0
406,170,26821,2,0,B|406:82,2,80,2|0|0
360,214,27401,2,0,B|360:302,2,80
313,170,27982,1,2
256,140,28175,1,0
199,170,28369,1,0
152,214,28562,2,0,B|152:294,1,80
152,294,29143,1,0
32,248,29530,5,0
4,192,29723,1,0
32,136,29917,2,0,B|200:136,1,160,2|0
192,72,30497,2,0,B|191:239,1,160
127,231,31078,2,0,B|368:231|368:231|391:345|487:345|510:231,1,480,2|0
330,47,33013,6,0,B|298:12|256:34|214:12|182:47,1,160,2|0
137,92,33593,2,0,B|36:95|48:195,1,160
76,252,34174,2,0,B|345:252|357:144|155:144|167:252|436:252,1,480,2|0
482,133,35722,5,0
482,133,35915,1,0
482,133,36109,2,0,B|312:133,1,160,2|0
276,178,36689,2,0,B|128:93,1,160
169,41,37270,2,0,B|117:-27|48:0|13:26|7:70|18:143|104:153,1,320,2|0
256,272,39205,5,2
70,94,39979,1,2
256,48,40559,1,0
382,66,40946,1,0
382,66,41140,1,0
356,192,41527,1,2
478,227,41914,2,0,B|478:293,1,40
432,261,42301,6,0,B|432:311,2,40,2|0|0
341,351,43075,1,2
252,260,43462,1,0
192,280,43655,1,0
96,192,44042,1,0
156,172,44236,1,0
256,92,44623,2,0,B|285:-4|378:32,1,160,2|0
442,32,45203,1,0
506,32,45397,5,2
452,148,45784,1,0
505,264,46171,2,0,B|484:307|438:296|403:328|363:302,1,160,2|0
393,246,46751,2,0,B|313:246,1,80,0|2
343,189,47138,2,0,B|263:143,1,80
256,20,47719,1,2
128,40,48106,1,0
80,80,48299,1,0
40,128,48493,6,0,B|-46:192|40:256,1,160,2|0
40,256,49267,1,2
168,268,49654,2,0,B|168:328|168:324,4,40,0|0|2|0|0
256,176,50815,1,2
344,80,51202,2,0,B|344:20|344:24,2,40,0|0|2
432,176,51976,5,0
432,176,52363,2,0,B|492:215|424:283|357:351|316:290,1,240,2|0
256,180,53330,1,0
256,244,53524,1,0
136,288,53911,1,2
16,244,54298,2,0,B|16:164,1,80
61,118,54685,6,0,B|130:44|198:119,1,160,2|0
256,144,55265,2,0,B|256:232|256:228,2,80,0|2|0
314,118,55846,2,0,B|382:44|450:117,1,160
493,238,57007,1,2
451,359,57394,1,0
389,342,57587,1,0
326,325,57781,5,2
320,197,58168,1,0
192,197,58555,1,2
186,59,58942,2,0,B|115:59,4,40,0|0|2|0|0
81,133,60103,1,2
192,197,60490,1,0
192,197,60683,1,0
192,197,60877,5,2
320,197,61264,1,0
326,325,61651,2,0,B|299:397|299:397|213:397|213:397|185:324,1,240,2|0
186,325,62425,2,0,B|174:280,2,40,2|0|0
256,220,63199,1,2
256,92,63586,1,0
256,92,63779,1,0
256,92,63973,6,0,B|344:139|384:47,1,160,2|0
475,137,64747,2,0,B|382:176|430:265,1,160,2|0
452,324,65327,2,0,B|468:368,3,40,0|2|0|0
336,364,66295,1,2
238,281,66682,1,0
183,359,66972,1,0
183,359,67069,5,2
28,328,67456,5,2
8,136,67843,5,2
200,20,68230,5,2
456,48,68617,5,2
328,192,69197,5,0
328,192,69262,1,0
328,192,69326,1,0
328,192,69391,2,0,B|256:192,2,40
256,300,70165,6,0,B|237:165|121:281|103:147,1,240,4|0
103,147,70939,1,8
193,57,71326,2,0,B|277:57,1,80,0|8
273,121,71713,2,0,B|357:121,2,80,0|0|0
380,192,72487,1,8
273,263,72874,1,0
273,263,73067,1,8
273,263,73261,6,0,B|189:263,2,80,0|0|0
318,308,73841,2,0,B|403:308,1,80,0|8
456,192,74422,2,0,B|456:96,1,80,0|8
410,157,74809,2,0,B|410:61,1,80,0|8
364,122,75196,2,0,B|364:26,2,80,0|0|8
256,192,75970,1,0
208,152,76163,1,8
144,140,76357,5,0
80,152,76550,1,0
28,192,76744,2,0,B|-50:247,2,80,0|0|8
28,319,77518,1,0
80,360,77711,2,0,B|172:335,1,80,8|0
216,360,78098,2,0,B|308:335,1,80,8|0
352,360,78485,2,0,B|444:335,1,80,0|8
484,192,79066,2,0,B|562:247,2,80
432,152,79646,5,8
368,140,79840,1,0
304,152,80033,1,0
256,192,80227,2,0,B|177:247,2,80,8|0|0
244,128,80807,1,8
217,109,80904,1,8
191,91,81001,5,0
132,64,81194,1,0
74,91,81388,1,0
22,128,81581,2,8,B|60:163|14:193,1,80,0|8
24,256,81968,1,0
74,293,82162,1,0
132,320,82355,1,8
196,320,82549,6,0,B|235:189|332:322|371:192,1,240,4|0
370,193,83323,1,8
436,84,83710,2,0,B|332:84,1,80,0|8
303,47,84097,2,0,B|199:47,1,80
177,1,84484,1,0
57,47,84871,1,8
11,166,85258,1,0
11,166,85451,1,0
11,166,85645,6,0,B|51:250,1,80,0|8
76,182,86032,2,0,B|116:266,1,80
140,197,86419,1,8
140,197,86612,2,0,B|180:281,1,80
174,269,86999,1,8
224,308,87193,2,0,B|254:349|289:307,3,80,0|8|0|0
337,269,87967,1,8
337,269,88160,2,0,B|372:197,1,80
372,197,88547,1,8
399,138,88741,6,0,B|433:65,4,80,0|0|0|0|8
256,116,89902,2,0,B|256:20,2,80,0|8|0
113,138,90676,2,0,B|78:65,2,80,0|0|8
68,256,91450,1,0
192,228,91837,5,0
320,228,92224,1,0
382,242,92417,1,0
444,256,92611,1,8
444,128,92998,1,0
382,142,93191,1,8
320,156,93385,1,0
256,160,93578,2,0,B|256:76,2,80,8|8|0
256,224,94159,1,8
256,224,94352,2,0,B|256:328,2,80,0|8|8
200,192,94933,6,0,B|232:112|175:66|134:49|93:66|36:112|70:191,1,320,0|8
312,192,96094,5,0
312,192,96287,1,8
312,192,96481,2,0,B|279:271|336:317|377:334|418:317|475:271|441:192,1,320,0|8
256,136,97642,6,0,B|256:88,1,40,0|8
320,112,98029,2,0,B|320:64,1,40,0|8
384,88,98416,2,0,B|384:40,2,40,0|0|8
256,248,99190,6,0,B|256:296,1,40,0|8
192,272,99577,2,0,B|192:320,1,40,0|8
128,296,99964,2,0,B|128:344,2,40,0|0|8
256,192,100738,1,0
256,192,101125,12,2,104221
82,192,107317,6,0,B|92:289|147:280|166:332|256:292,1,240
256,292,108091,1,8
380,320,108478,1,0
440,304,108671,1,8
468,180,109058,2,0,B|390:199,1,80,0|0
400,72,109639,1,8
280,28,110026,1,0
256,88,110219,1,0
232,147,110413,6,0,B|246:247|145:253,1,160
128,192,110993,1,0
110,130,111187,2,0,B|9:135|23:235,1,160,8|0
8,296,111767,2,0,B|91:344,1,80,8|0
132,368,112154,1,0
132,368,112348,1,0
256,344,112735,2,0,B|256:264,1,80,8|0
136,192,113509,6,0,B|376:192,1,240
376,192,114283,1,8
460,96,114670,1,0
480,156,114863,1,8
460,288,115251,1,0
480,228,115444,1,0
376,192,115831,1,8
256,152,116218,1,0
196,132,116412,1,0
136,112,116605,5,0
76,92,116799,2,0,B|2:160|76:228,1,160
28,272,117379,1,8
148,320,117766,1,0
200,280,117960,1,8
248,320,118153,1,0
312,320,118347,1,0
376,320,118540,1,0
496,280,118927,2,0,B|496:336,1,40,8|0
480,192,119508,1,0
480,192,119701,5,0
388,104,120088,2,0,B|388:8,2,80,0|0|8
296,192,120862,1,0
256,140,121056,1,8
140,192,121443,1,0
140,192,121636,1,0
24,140,122023,1,8
36,268,122410,2,0,B|28:318|82:313,1,80
147,313,122797,6,0,B|243:291|243:291|243:335|243:335|339:313,1,240
338,313,123571,1,8
464,280,123958,1,0
509,234,124152,1,8
388,192,124539,1,0
388,192,124732,1,0
296,104,125119,1,8
251,150,125313,1,0
256,276,125700,1,0
256,276,125893,6,0,B|166:316|147:264|92:273|82:175,1,240
68,112,126667,1,8
184,60,127054,1,0
236,24,127248,1,8
356,64,127635,1,0
420,64,127828,1,0
436,192,128215,1,8
420,320,128602,1,0
356,320,128796,1,0
291,320,128989,6,0,B|233:399|190:363|147:399|90:319,1,240
90,319,129763,1,12
32,208,130150,2,0,B|32:296,1,80
116,192,130731,1,0
240,168,131118,1,0
272,160,131214,1,0
304,152,131311,1,8
368,164,131505,1,0
420,200,131698,1,0
456,252,131892,1,0
468,316,132085,5,4
256,352,132472,2,0,B|176:352,1,80
176,352,132859,1,8
56,304,133246,2,0,B|56:260,1,40,0|8
164,192,133827,2,0,B|164:140,1,40
56,79,134407,2,0,B|88:44|130:66|172:44|203:79,1,160,8|0
256,116,134988,1,0
308,80,135181,6,0,B|339:44|381:66|423:44|455:79,1,160
507,116,135762,1,0
456,152,135955,2,0,B|424:187|382:165|340:187|308:151,1,160,8|0
256,188,136536,1,8
256,316,136923,1,0
256,316,137116,1,0
132,344,137503,1,8
8,316,137890,2,0,B|8:268,2,40
8,188,138664,6,0,B|8:136,1,40
8,84,139051,1,8
136,84,139438,1,0
181,38,139632,1,8
300,84,140019,1,0
364,84,140212,1,0
483,38,140599,1,8
460,164,140986,1,0
472,226,141180,1,0
483,289,141373,6,0,B|319:332,1,160
265,347,141954,1,0
203,363,142147,1,8
75,363,142534,1,0
12,347,142728,2,0,B|-23:315|-1:273|-23:231|12:199,1,160,8|0
75,188,143308,1,0
137,177,143502,1,0
199,166,143695,2,0,B|199:114,3,40,8|0|0|0
178,65,144469,6,0,B|256:25|331:63,1,160,4|0
313,126,145050,2,0,B|313:166,1,40,0|8
440,166,145630,2,0,B|440:206,1,40,0|8
344,291,146211,1,0
356,354,146404,1,0
256,276,146791,1,8
156,354,147178,1,0
168,291,147372,1,0
180,228,147565,6,0,B|127:198,1,40,0|8
192,165,147952,1,0
204,102,148146,2,0,B|151:72,1,40,0|8
420,36,148726,1,4
308,192,149307,1,0
372,192,149500,1,0
499,191,149887,2,0,B|528:288|429:309,1,160,8|0
367,326,150468,1,0
305,343,150661,5,0
177,343,151048,1,0
115,326,151242,1,0
52,309,151435,1,8
104,192,151822,2,0,B|52:192,1,40,0|8
154,101,152403,2,0,B|102:101,1,40
204,10,152983,2,0,B|354:59|158:59|308:10,1,160,8|0
398,101,153757,5,0
488,192,154144,1,0
443,237,154338,1,0
398,283,154531,1,8
308,192,154918,1,0
308,192,155112,1,8
180,192,155499,1,8
135,237,155692,1,0
90,283,155886,1,0
45,237,156079,2,0,B|9:205|31:163|9:121|45:89,2,160,8|0|8
135,327,157240,5,0
199,331,157434,1,0
256,302,157627,1,8
313,331,157821,1,0
377,327,158014,1,0
375,199,158401,1,8
320,232,158595,1,0
256,234,158788,1,0
192,232,158982,1,0
137,199,159175,1,8
256,148,159562,1,0
256,20,159949,5,8
380,48,160336,5,8
480,172,160723,5,8
388,340,161110,5,8
164,360,161497,5,8
256,192,162078,5,0
256,192,162143,1,0
256,192,162207,1,0
256,192,162271,2,0,B|184:192,2,40,8|0|0
301,146,162852,1,0
346,100,163045,6,0,B|481:119|365:235|499:253,1,240,4|0
498,252,163819,1,8
404,340,164206,2,0,B|324:340,1,80,0|8
364,290,164593,2,0,B|284:290,1,80
324,240,164980,2,0,B|240:240,2,80,0|0|8
320,112,165754,2,0,B|320:24,2,80,0|0|0
192,112,166528,6,0,B|192:24,2,80,0|0|8
256,220,167302,1,0
256,220,167496,2,0,B|256:304,1,80,8|0
136,340,168076,1,0
76,312,168270,1,0
36,260,168463,2,0,B|18:161,1,80,8|0
128,108,169044,2,0,B|145:9,1,80
196,144,169624,5,0
256,168,169818,1,0
316,144,170011,1,8
370,29,170398,2,0,B|384:108,1,80,0|8
429,153,170785,2,0,B|442:231,1,80
488,277,171172,2,0,B|501:355,2,80,0|0|8
370,326,171946,1,0
306,336,172140,1,0
242,346,172333,5,0
178,356,172527,2,0,B|169:255,2,80
114,346,173107,1,8
50,336,173301,2,0,B|57:247,1,80
44,192,173688,1,8
44,192,173785,1,0
44,192,173881,5,0
56,127,174075,2,0,B|50:48,2,80
118,143,174655,1,8
171,107,174849,2,0,B|178:28,2,80
223,143,175429,5,4
340,192,175816,2,0,B|428:192,1,80
466,238,176203,1,8
412,352,176590,1,0
366,306,176784,2,0,B|262:306,1,80,8|0
168,352,177364,1,0
136,295,177558,1,0
79,325,177751,1,8
48,268,177945,1,0
48,116,178332,1,0
79,59,178525,6,0,B|160:40,1,80
131,99,178912,2,0,B|212:80,1,80
184,139,179299,1,8
184,139,179493,2,0,B|206:222,1,80
256,252,179880,1,8
256,252,180073,1,0
307,216,180267,2,0,B|328:139,1,80,8|0
303,80,180654,1,0
303,80,180847,2,0,B|381:99,1,80,8|0
355,40,181234,2,0,B|433:59,1,80,0|8
458,118,181621,6,0,B|493:150|471:192|493:234|458:266,1,160
458,266,182202,1,0
412,311,182395,2,0,B|489:366|489:365,2,80,8|0|0
356,344,182976,1,8
292,356,183169,1,0
292,356,183363,1,0
292,356,183556,1,0
256,192,183943,1,8
220,28,184330,1,0
156,40,184524,1,0
96,70,184717,5,0
96,70,184911,1,0
96,70,185104,2,0,B|23:18|34:26,2,80,0|0|8
60,192,185878,2,0,B|152:192,1,80,0|8
185,237,186265,5,0
230,282,186459,2,0,B|310:282,1,80,8|0
355,327,186846,1,8
384,340,186943,1,8
413,327,187039,1,8
459,282,187233,1,0
486,224,187426,1,0
486,160,187620,1,0
459,102,187813,6,0,B|330:142|386:-12|256:28,1,240,4|0
256,28,188587,1,8
192,140,188974,2,0,B|192:184,1,40,0|8
137,214,189361,2,0,B|137:258,2,40,0|8|0
256,264,190135,1,8
375,214,190522,6,0,B|375:254,1,40,0|8
430,288,190909,2,0,B|430:332,2,40,0|8|0
512,192,191683,1,8
430,96,192070,2,0,B|430:56,1,40,0|8
375,22,192457,2,0,B|375:-18,2,40,0|8|0
256,72,193231,1,8
256,72,193618,1,0
137,22,194005,1,4
28,92,194392,5,0
108,192,194779,1,8
28,292,195166,2,0,B|54:337,1,40,0|8
93,281,195553,2,0,B|119:326,1,40
158,270,195940,2,0,B|184:315,2,40,0|0|8
256,188,196714,1,0
229,130,196908,1,0
256,72,197101,5,4
375,22,197488,1,0
484,92,197875,1,8
404,192,198262,2,0,B|376:239,1,40,0|8
338,272,198649,2,0,B|310:319,1,40
194,306,199230,2,0,B|174:272,1,40,0|8
128,226,199617,2,0,B|108:192,1,40,0|0
140,68,200197,5,4
256,16,200584,1,0
314,42,200778,1,0
372,68,200971,2,0,B|372:124,1,40,8|0
476,180,201552,1,0
444,236,201745,5,0
380,236,201939,1,0
348,292,202132,2,0,B|300:282,1,40
316,348,202519,1,8
188,348,202906,1,0
124,340,203100,1,0
84,292,203293,6,0,B|-6:246|46:161,1,160,0|0
80,108,203874,2,0,B|112:64,1,40
128,56,204067,2,0,B|180:56,7,40,8|0|0|0|0|0|0|0
190,78,204841,2,0,B|233:78,7,40,8|0|0|0|0|0|0|0
252,100,205615,2,0,B|295:100,8,40,8|0|0|0|8|8|8|8|8
256,192,206486,12,2,210453
