osu file format v9

[General]
AudioFilename: 02 Oshiete Ageru.mp3
AudioLeadIn: 0
PreviewTime: 52046
Countdown: 0
SampleSet: Normal
StackLeniency: 0.7
Mode: 0
LetterboxInBreaks: 1

[Editor]
Bookmarks: 40948,52046,74243,96439,118636,129734,151931,163029,196324,207422,229619,251815
DistanceSpacing: 1.1
BeatDivisor: 4
GridSize: 4

[Metadata]
Title:Oshiete Ageru
Artist:supercell
Creator:y u c a
Version:Normal
Source:
Tags:lalarun yuca nagi ryo sayonara memories

[Difficulty]
HPDrainRate:4
CircleSize:4
OverallDifficulty:3
ApproachRate:3
SliderMultiplier:0.699999999999999
SliderTickRate:1

[Events]
//Background and Video events
0,0,"BG.jpg"
//Break Periods
2,74443,84421
2,152131,161589
2,185425,194190
//Storyboard Layer 0 (Background)
//Storyboard Layer 1 (Fail)
//Storyboard Layer 2 (Pass)
//Storyboard Layer 3 (Foreground)
//Storyboard Sound Samples
//Background Colour Transformations
3,100,163,162,255

[TimingPoints]
18752,346.820809248555,4,1,0,81,1,0
47798,-100,4,2,0,50,0,0
49185,-100,4,1,0,80,0,0
50225,-100,4,1,0,60,0,0
50919,-100,4,1,0,70,0,0
51960,-100,4,1,0,80,0,0
101035,-100,4,1,0,10,0,0
101555,-100,4,1,0,81,0,0
107798,-100,4,2,0,10,0,0
109532,-100,4,1,0,80,0,0
125486,-100,4,2,0,61,0,0
126873,-100,4,1,0,80,0,0
127913,-100,4,1,0,60,0,0
128607,-100,4,1,0,70,0,0
129647,-100,4,1,0,80,0,0
139705,-100,4,2,0,80,0,0
140746,-100,4,1,0,80,0,0
162942,-100,4,1,0,70,0,0
168491,-100,4,2,0,70,0,0
171266,-100,4,1,0,80,0,0
174041,-100,4,1,0,70,0,0
195543,-100,4,2,0,81,0,0
196237,-100,4,1,0,81,0,0
202827,-100,4,2,0,70,0,0
204561,-100,4,1,0,80,0,0
229532,-100,4,1,0,70,0,0
230919,-100,4,1,0,80,0,0

[Colours]
Combo1 : 255,128,255
Combo2 : 255,255,128
Combo3 : 128,255,255

[HitObjects]
48,136,19098,2,0,B|108:107|188:116,1,140,0|8
261,127,20139,2,0,B|277:95|281:51,2,69.9999999999999,0|0|0
214,188,21179,2,0,B|202:224|198:260,1,69.9999999999999,8|0
275,264,21873,2,0,B|324:216|336:140,1,140,0|8
380,76,22913,2,0,B|412:64|452:64,2,69.9999999999999
312,112,23954,1,8
244,148,24301,6,0,B|208:160|168:160,1,69.9999999999999,0|8
132,96,24994,2,0,B|168:84|208:84,1,69.9999999999999,0|8
276,100,25688,1,0
304,172,26035,1,8
276,244,26382,2,0,B|304:264,2,35,0|0|8
256,192,27075,12,4,29330
104,96,30197,6,0,B|176:84|244:96,1,140,0|8
311,132,31237,2,0,B|343:108|356:76,2,69.9999999999999
245,172,32278,2,0,B|232:205|228:245,1,69.9999999999999,8|0
302,262,32971,2,0,B|366:230|438:238,2,140,0|8|0
228,284,34705,2,0,B|208:256|204:216,1,69.9999999999999,0|8
224,144,35399,5,0
284,96,35746,1,8
360,108,36093,1,0
408,168,36439,1,8
396,244,36786,2,0,B|440:264,2,35,0|0|8
328,208,37480,2,0,B|308:244,2,35,0|0|8
256,192,38173,12,4,40948
332,184,41988,6,0,B|312:100|200:100|180:184,1,210,0|8
256,212,43376,1,0
220,280,43723,2,0,B|196:312,2,35,0|0|0
296,280,44416,1,8
372,292,44763,2,0,B|400:260,1,35,0|0
340,212,45283,2,0,B|348:172,1,35
422,195,45804,2,0,B|444:124|440:56,2,140,8|0|8
292,112,47884,5,2
140,136,48578,1,2
92,280,49272,2,0,B|56:272,4,35,4|0|8|0|8
167,262,50312,6,0,B|175:226|175:194,1,69.9999999999999,0|12
204,121,51006,2,0,B|232:98|267:87,1,69.9999999999999,0|8
340,104,51699,1,0
368,176,52046,6,0,B|316:232|240:248,1,140,4|8
184,204,53087,1,0
108,216,53434,2,0,B|64:276|56:348,2,140,0|8|0
184,204,55168,1,0
256,232,55515,1,8
332,220,55861,1,0
392,172,56208,2,0,B|404:136|404:96,2,69.9999999999999,0|0|8
320,144,57249,1,0
308,68,57595,6,0,B|356:12|432:8,2,140,0|8|8
280,140,59330,1,0
220,188,59676,1,8
144,200,60023,2,0,B|118:167,2,35,0|0|12
256,192,60543,12,4,62278
280,256,63145,6,0,B|336:220|416:224,2,140,0|8|0
212,292,64879,1,0
136,280,65225,1,8
88,220,65572,2,0,B|84:180|88:140,2,69.9999999999999,0|0|0
160,192,66613,2,0,B|176:124|172:52,2,140,8|0|8
84,180,68347,1,0
56,108,68694,5,0
104,48,69041,1,0
180,36,69387,2,0,B|220:36|264:52,2,69.9999999999999,8|0|8
192,112,70428,1,0
268,124,70775,1,8
325,72,71121,2,0,B|356:90,2,35,0|0|12
256,192,71642,12,4,74243
204,80,85861,6,0,B|256:72|308:80,3,105
308,304,88636,6,0,B|256:312|204:304,3,105
216,104,91410,6,0,B|208:156|216:208,1,105
304,284,92451,2,0,B|312:232|304:180,1,105
352,312,94705,6,0,B|320:296|280:288,1,69.9999999999999
212,312,95399,2,0,B|208:352,2,35
228,236,96093,1,0
80,192,96786,5,0
200,96,97480,1,8
352,116,98173,1,0
428,104,98520,2,0,B|444:72,2,35,0|0|8
403,177,99214,6,0,B|391:217|391:249,1,69.9999999999999
324,284,99908,2,0,B|300:308|268:324,1,69.9999999999999,0|8
204,280,100601,1,0
128,292,100948,1,0
60,256,101295,2,0,B|68:180|104:124,1,140,0|4
180,112,102335,5,8
240,160,102682,2,0,B|236:196,2,35,0|0|8
255,84,103376,2,0,B|287:64|327:60,2,69.9999999999999,0|8|0
312,136,104416,1,8
384,108,104763,2,0,B|400:68|396:32,2,69.9999999999999,0|8|0
348,176,105804,1,8
332,252,106150,6,2,B|340:292,1,35
264,304,106671,2,0,B|228:292|180:292,1,69.9999999999999,2|2
120,308,107364,2,0,B|96:344,1,35,0|4
40,289,107884,6,0,B|28:221|40:149,2,140
116,276,109619,2,0,B|144:304,2,35,4|0|0
128,200,110312,1,0
200,172,110659,5,8
272,200,111006,2,0,B|284:236|284:276,2,69.9999999999999
308,132,112046,2,0,B|360:88|440:80,2,140,8|0|8
296,208,113780,1,0
248,268,114127,1,8
172,256,114474,2,0,B|156:220,2,35,0|0|8
100,284,115168,2,0,B|84:316,2,35,0|0|8
256,192,115861,12,4,118636
180,200,119676,6,0,B|200:284|312:284|332:200,1,210,0|8
256,172,121064,1,0
220,104,121411,2,0,B|196:72,2,35
296,104,122104,1,8
372,92,122451,2,0,B|400:124,1,35
340,172,122971,2,0,B|348:212,1,35
422,189,123492,2,0,B|444:260|440:328,2,140,8|0|8
292,272,125572,5,2
140,248,126266,1,2
92,104,126960,2,0,B|56:112,4,35,0|0|8|0|8
168,116,128000,6,0,B|192:92|208:56,1,69.9999999999999,0|12
284,54,128694,2,0,B|294:89|296:132,1,69.9999999999999,0|8
254,188,129387,1,0
268,264,129734,1,4
340,292,130081,6,0,B|372:276|392:248,2,69.9999999999999,0|8|0
315,219,131121,2,0,B|247:195|176:204,1,140,0|8
100,212,132162,2,0,B|76:184|72:148,2,69.9999999999999
160,164,133202,5,8
236,152,133549,1,0
304,188,133896,1,0
316,264,134243,1,0
280,332,134590,2,0,B|248:320,2,35,8|0|0
356,344,135283,5,0
428,316,135630,1,0
456,244,135977,1,8
444,168,136324,1,0
432,92,136671,2,0,B|428:52|432:16,2,69.9999999999999,8|0|8
372,140,137711,1,0
324,80,138058,2,0,B|256:68|184:80,2,140,8|8|8
336,156,139792,5,2
300,224,140139,1,2
224,236,140486,1,2
148,224,140832,6,0,B|136:152|148:84,2,140,0|8|0
216,260,142567,1,0
276,308,142913,2,0,B|268:344|256:376,2,69.9999999999999,8|0|0
248,236,143954,1,0
276,164,144301,2,0,B|296:136|332:116,2,69.9999999999999,8|0|0
344,200,145341,2,0,B|336:236,2,35,0|0|8
416,172,146035,1,0
388,100,146382,6,8,B|328:68|252:68,2,140,0|8|8
376,176,148116,1,0
300,188,148462,1,8
232,152,148809,2,0,B|204:184,2,35,0|0|8
256,192,149330,12,4,151931
260,272,163029,6,0,B|244:308,2,35,4|0|0
336,284,163723,2,0,B|340:240,1,35
416,240,164243,2,0,B|411:198,1,35
343,170,164763,2,0,B|275:138|207:142,1,140,0|0
156,200,165804,2,0,B|144:240|120:276,2,69.9999999999999,0|0|0
84,172,166844,1,0
96,96,167191,2,0,B|152:60|232:60,1,140
280,120,168231,1,0
356,108,168578,5,2
452,172,169098,1,2
412,280,169619,1,2
300,252,170139,1,2
188,280,170659,2,2,B|176:316,2,35,6|2|2
120,244,171353,1,4
124,220,174127,6,0,B|132:180|152:144,2,69.9999999999999,4|0|0
192,256,175168,1,0
240,196,175515,2,0,B|280:216,2,35
212,124,176208,2,0,B|168:140,2,35
288,136,176902,2,0,B|360:152|428:136,2,140
252,68,178636,1,0
328,56,178983,2,0,B|352:32,2,35
300,128,179676,6,0,B|276:192|280:268,1,140
356,252,180717,2,0,B|380:188|376:112,1,140
300,128,181757,2,2,B|268:144|228:144,1,69.9999999999999
164,108,182451,5,4
56,148,182971,1,4
84,260,183491,1,4
196,232,184012,1,4
304,272,184532,2,0,B|296:308,2,35,4|0|4
376,244,185225,1,4
56,104,195630,6,0,B|120:80|196:104,1,140,0|4
456,280,198405,6,0,B|392:304|316:280,1,140,0|4
172,328,199792,6,0,B|160:292|164:248,1,69.9999999999999
104,212,200486,2,0,B|72:236,2,35,8|0|0
176,184,201179,1,0
236,232,201526,2,0,B|252:268,2,35,0|0|8
468,240,202913,5,0
456,164,203260,1,8
408,104,203607,1,0
336,76,203954,1,0
260,64,204301,2,0,B|244:100,2,35,0|0|12
64,184,205688,6,0,B|68:224|80:264,1,69.9999999999999,0|8
152,236,206382,2,0,B|196:252,2,35,0|0|8
164,160,207075,1,0
240,172,207422,2,0,B|276:188|304:228,1,69.9999999999999,12|0
368,192,208116,6,0,B|416:144|432:68,2,140,0|8|0
300,156,209850,1,0
224,168,210197,1,8
156,132,210543,1,0
84,156,210890,2,0,B|68:188|60:228,2,69.9999999999999,0|0|8
152,192,211931,2,0,B|180:164,2,35
124,264,212624,1,0
200,276,212971,6,0,B|260:236|288:164,2,140,8|0|8
140,228,214705,1,0
68,256,215052,1,8
116,316,215399,2,0,B|96:352,2,35,0|0|8
256,192,215919,12,4,217653
160,212,218520,6,0,B|164:136|200:72,2,140,4|8|0
220,260,220254,2,0,B|232:292,2,35,0|0|8
288,224,220948,1,0
360,252,221295,1,0
428,216,221642,2,0,B|436:180|436:136,2,69.9999999999999,0|8|0
360,180,222682,1,0
284,188,223029,2,0,B|256:216,2,35,0|0|8
312,116,223723,1,0
236,104,224069,6,0,B|156:96|96:128,2,140,0|8|8
264,176,225804,1,0
324,224,226150,1,8
400,212,226497,2,0,B|416:176,2,35,0|0|8
256,192,227017,12,4,228925
92,192,229619,5,4
216,100,230312,1,8
364,144,231006,2,0,B|376:180|376:220,2,69.9999999999999,4|0|8
296,180,232046,2,0,B|284:216|280:252,1,69.9999999999999
204,260,232740,2,0,B|184:224,2,35,0|0|8
250,322,233434,1,0
326,311,233780,2,0,B|368:304,2,35
296,240,234474,2,0,B|320:208|344:188,1,69.9999999999999,8|0
332,112,235168,5,0
272,64,235515,1,0
196,52,235861,1,8
120,64,236208,2,0,B|96:36,2,35,0|0|8
156,132,236902,1,0
228,160,237249,2,0,B|228:200|220:236,2,69.9999999999999,8|0|8
156,188,238289,6,0,B|108:236|88:312,2,140
232,200,240023,1,8
260,272,240370,1,0
336,284,240717,6,0,B|376:224|384:152,2,140,4|8|4
268,248,242451,1,0
256,172,242798,1,8
316,124,243145,2,0,B|344:148,2,35
304,48,243838,1,0
236,80,244185,2,0,B|224:116,2,35,8|0|0
164,52,244879,2,0,B|124:52|92:72,2,69.9999999999999,0|0|8
152,128,245919,1,0
80,156,246266,6,0,B|48:220|44:296,2,140,0|8|8
156,144,248000,1,0
224,180,248347,1,8
296,152,248694,2,0,B|308:112,2,35,0|0|8
256,192,249214,12,4,251815
