osu file format v9

[General]
AudioFilename: My Dearest.mp3
AudioLeadIn: 750
PreviewTime: 69380
Countdown: 1
SampleSet: Soft
StackLeniency: 0.7
Mode: 0
LetterboxInBreaks: 1

[Editor]
DistanceSpacing: 1.5
BeatDivisor: 4
GridSize: 8

[Metadata]
Title:My Dearest (TV Size)
Artist:supercell
Creator:Mucha
Version:Mucha
Source:GUILTY CROWN
Tags:Koeda

[Difficulty]
HPDrainRate:7
CircleSize:4
OverallDifficulty:8
ApproachRate:8
SliderMultiplier:2
SliderTickRate:2

[Events]
//Background and Video events
0,0,"bg.PNG"
Video,0,"GuiltyCrown- OP.flv"
//Break Periods
//Storyboard Layer 0 (Background)
//Storyboard Layer 1 (Fail)
//Storyboard Layer 2 (Pass)
//Storyboard Layer 3 (Foreground)
//Storyboard Sound Samples
//Background Colour Transformations
3,100,163,162,255

[TimingPoints]
690,355.029585798817,4,2,1,50,1,0
5254,-153.846153846153,4,2,1,50,0,0
6053,-100,4,2,1,50,0,0
12435,357.462019660411,4,2,1,50,1,0
23873,-142.857142857143,4,2,1,50,0,0
46036,-200,4,2,1,50,0,0
46572,-100,4,2,1,50,0,0
46751,-100,4,2,1,75,0,0
58190,-100,4,1,1,50,0,0
63909,-100,4,1,1,65,0,0
66769,-100,4,2,1,65,0,0
68914,-100,4,1,1,65,0,0
69629,-100,4,1,1,80,0,1
69629,-100,4,1,1,80,0,1
75258,-100,4,1,1,80,0,0
75348,-100,4,1,1,80,0,1
80620,-100,4,1,1,80,0,0
80710,-100,4,1,1,80,0,1
81067,-100,4,1,1,65,0,1
83748,-100,4,1,1,50,0,1
85714,-100,4,1,1,40,0,1
86787,-100,4,2,1,5,0,0

[Colours]
Combo1 : 255,119,255
Combo2 : 128,255,255
Combo3 : 170,255,170

[HitObjects]
80,232,690,1,0
80,232,867,1,0
80,128,1045,2,0,B|112:80|160:56,1,100
224,128,1400,1,0
320,168,1577,2,0,B|296:208|224:248,1,100
184,312,1932,1,0
384,280,2287,6,0,B|424:312|496:320,2,100
112,64,2997,2,0,B|160:48|216:40,1,100
472,232,3530,1,0
464,328,3707,1,0
464,328,3796,1,0
464,328,3885,2,0,B|424:352|336:368,1,100
320,272,4240,1,0
256,192,4417,6,0,B|200:192|152:224,2,100
320,112,4950,1,0
320,112,5127,1,0
256,40,5305,2,0,B|88:16|40:176,1,259.999995350838,0|0
216,248,6192,2,0,B|256:280|328:296,2,100
256,192,6725,12,0,9565
144,104,11340,6,0,B|88:64,2,50
256,280,11695,2,0,B|256:328,2,50
368,104,12050,2,0,B|416:72,2,50
296,48,12435,6,0,B|240:56|184:120,1,100
160,184,12792,1,0
160,184,12971,1,0
256,216,13149,2,0,B|312:232|360:280,1,100
400,344,13507,1,0
400,344,13686,1,0
304,352,13864,6,0,B|176:376|96:248,1,200
208,232,14401,1,0
168,144,14579,2,0,B|280:136|352:40,1,200
168,40,15115,1,0
168,40,15205,1,0
168,40,15294,2,0,B|120:56|88:104,1,100
128,184,15652,1,0
128,184,15830,1,0
168,272,16009,6,0,B|280:272|360:200,1,200
416,128,16545,1,0
392,32,16724,2,0,B|352:64|296:80,1,100
208,96,17082,1,0
208,96,17260,1,0
208,200,17439,2,0,B|310:200|400:304,1,200
440,200,17975,5,0
360,144,18154,2,0,B|328:232|208:296,1,200
88,48,18869,2,0,B|192:56|304:120,1,200
424,336,19584,2,0,B|320:328|208:264,1,200
240,40,20299,2,0,B|224:128|136:216,1,200
208,280,20835,1,0
304,296,21014,6,0,B|360:272|400:232,1,100
368,144,21371,1,0
368,144,21460,1,0
368,144,21550,1,0
280,96,21729,2,0,B|264:152|208:192,1,100
72,104,22086,2,0,B|88:48|128:16,1,100
256,192,22443,12,0,23516
256,328,23873,6,0,B|416:256|416:104,1,279.99999332428
64,96,25303,2,0,B|208:112|328:216,1,279.99999332428
104,248,26376,1,0
104,248,26554,1,0
120,336,26733,2,0,B|192:304|240:240,1,139.99999666214
328,80,27448,6,0,B|408:80|472:144,2,139.99999666214
104,112,28520,1,0
344,320,28878,1,0
400,280,29056,1,0
448,224,29235,1,0
368,48,29593,2,0,B|216:112|144:224,1,279.99999332428
304,304,30665,5,0
376,168,31023,2,0,B|320:128|280:56,1,139.99999666214
96,80,31737,1,0
264,304,32095,1,0
328,272,32274,1,0
384,216,32452,2,0,B|448:160|472:96,1,139.99999666214
176,104,33167,2,0,B|96:80|48:24,2,139.99999666214
176,344,34240,6,0,B|224:296|312:256,1,139.99999666214
456,152,34955,1,0
208,112,35312,2,0,B|280:80|328:32,2,139.99999666214
96,272,36384,1,0
296,304,36742,2,0,B|248:336|168:368,2,139.99999666214
416,96,37814,1,0
360,56,37993,1,0
288,40,38172,2,0,B|224:80|152:104,1,139.99999666214
224,352,38887,2,0,B|280:304|360:280,1,139.99999666214
120,128,39602,6,0,B|192:144|248:184,1,139.99999666214
400,272,40317,1,0
80,232,40674,1,0
128,288,40853,1,0
192,328,41031,2,0,B|272:336|352:360,1,139.99999666214
472,160,41746,2,0,B|400:152|336:96,1,139.99999666214
176,224,42461,6,0,B|248:232|312:304,1,139.99999666214
64,208,43176,2,0,B|104:152|184:120,1,139.99999666214
256,192,43712,1,0
272,288,43891,2,0,B|432:240|488:104,1,279.99999332428
288,40,44964,1,0
120,128,45321,2,0,B|88:192|72:264,1,139.99999666214
320,320,46036,6,0,B|352:320,4,25
256,192,46572,1,0
208,72,46751,1,0
208,72,46840,1,0
208,72,46930,2,0,B|160:96|128:160,1,100
136,240,47287,1,0
208,312,47466,1,0
304,288,47645,1,0
304,288,47823,2,0,B|360:272|416:240,1,100
288,96,48181,6,0,B|240:112|152:112,1,100
88,280,48538,1,0
152,328,48717,2,0,B|200:352|264:352,1,100
416,144,49074,1,0
344,72,49253,2,0,B|304:88|264:136,1,100
80,240,49611,1,0
80,240,49700,1,0
80,240,49789,6,0,B|136:240|216:272,1,100
272,224,50147,1,0
376,224,50325,2,0,B|424:240|472:304,1,100
456,176,50683,1,0
456,176,50862,1,0
360,88,51040,2,0,B|304:80|264:56,2,100
456,176,51577,2,0,B|336:208|208:344,1,300
112,256,52292,5,0
112,256,52381,1,0
112,256,52470,2,0,B|160:232|208:192,1,100,0|0
136,120,52828,1,0
216,56,53006,2,0,B|304:96|424:112,1,200
376,304,53543,1,0
376,304,53721,2,0,B|288:288|176:320,1,200
32,176,54436,1,0
216,56,54794,1,0
216,56,55151,6,0,B|272:64|320:80,1,100
272,168,55509,1,0
240,264,55687,2,0,B|296:280|360:288,1,100
464,96,56224,1,0
216,56,56581,2,0,B|184:96|128:128,2,100
120,240,57296,1,0
120,240,57385,1,0
120,240,57475,2,0,B|200:288|296:376,1,200
376,272,58011,5,0
376,272,58100,1,0
376,272,58190,2,0,B|424:240|464:176,1,100
368,96,58547,1,0
368,96,58726,1,0
248,56,58905,2,0,B|200:80|112:96,1,100
120,216,59262,1,0
240,272,59441,5,0
240,272,59530,1,0
240,272,59619,2,0,B|288:269|360:304,1,100
352,168,59977,1,0
352,168,60156,1,0
408,48,60334,2,0,B|360:64|296:72,1,100
256,192,60692,1,0
136,64,60871,1,0
136,64,60960,1,0
136,64,61049,2,0,B|120:104|104:176,1,100
112,296,61407,1,0
264,320,61586,5,0
264,320,61675,1,0
264,320,61764,2,0,B|304:280|360:248|360:248,1,100
424,160,62122,1,0
336,40,62300,1,0
336,40,62390,1,0
336,40,62479,2,0,B|296:64|208:104,2,100
320,168,63015,1,0
384,280,63194,2,0,B|440:296|512:344,2,100
256,200,63730,5,0
256,200,63820,1,0
256,200,63909,2,0,B|232:248|192:288,1,100
16,280,64266,2,0,B|40:224|80:184,1,100
224,40,64624,1,0
336,88,64803,1,0
336,88,64892,1,0
336,88,64981,2,0,B|376:120|424:136,1,100
416,264,65339,5,0
272,216,65518,1,0
272,216,65607,1,0
272,216,65696,2,0,B|240:248|176:288,1,100
48,88,66054,2,0,B|96:56|144:32,1,100
392,160,66411,1,0
216,344,66769,2,0,B|136:320|48:208,1,200
272,176,67305,2,0,B|376:160|496:112,1,200
232,72,67841,2,0,B|192:48|136:40,2,100
144,176,68377,5,0
144,176,68556,1,0
280,352,68913,1,0
320,344,69003,1,0
360,328,69092,1,0
392,304,69182,1,0
416,272,69271,1,0
432,232,69360,1,0
440,192,69450,1,0
432,152,69539,1,0
416,112,69628,2,0,B|400:72|336:16,1,100
264,128,69986,1,0
136,104,70165,6,0,B|96:144|72:192,1,100
224,280,70522,2,0,B|264:232|296:176,1,100
376,80,70880,1,0
376,80,70969,1,0
376,80,71058,2,0,B|416:112|456:160,1,100
424,280,71416,1,0
296,264,71594,5,0
296,264,71684,1,0
296,264,71773,2,0,B|240:272|184:312,2,100
240,120,72309,1,0
160,64,72488,6,0,B|128:112|112:160,1,100
200,304,72846,2,0,B|256:304|336:336,1,100
416,280,73203,1,0
368,120,73382,1,0
368,120,73471,1,0
368,120,73561,2,0,B|424:104|464:48,2,100
288,272,74097,2,0,B|328:336|392:368,2,100
160,304,74633,5,0
128,272,74722,1,0
112,240,74812,1,0
104,200,74901,1,0
104,160,74990,1,0
120,120,75080,1,0
144,88,75169,1,0
176,56,75258,1,0
208,32,75348,2,0,B|256:16|312:16,1,100
408,104,75705,5,0
464,264,75884,2,0,B|416:280|384:328,1,100
224,264,76241,2,0,B|272:232|304:192,1,100
240,40,76599,1,0
240,40,76688,1,0
240,40,76778,2,0,B|200:56|144:112,1,100
72,200,77135,1,0
208,272,77314,1,0
208,272,77403,1,0
208,272,77493,2,0,B|240:304|296:328,2,100
352,168,78029,1,0
384,72,78208,6,0,B|336:56|288:24,1,100
160,128,78565,2,0,B|176:168|240:232,1,100
320,224,78922,1,0
200,312,79101,1,0
200,312,79191,1,0
200,312,79280,2,0,B|160:336|64:360,2,100
328,312,79816,1,0
328,312,79995,1,0
416,72,80352,1,0
384,88,80442,1,0
352,112,80531,1,0
328,144,80620,1,0
304,176,80710,6,0,B|288:216|288:280,1,100
208,328,81067,1,0
72,264,81246,1,0
72,264,81335,1,0
72,264,81425,2,0,B|112:224|144:168,1,100
208,56,81782,1,0
328,40,81961,2,0,B|360:88|424:136,1,100
400,264,82318,1,0
400,264,82408,1,0
400,264,82497,2,0,B|368:304|272:336,1,100
160,248,82855,1,0
88,176,83033,6,0,B|128:128|144:88,2,100
216,296,83569,1,0
296,240,83748,2,0,B|336:192|392:144,1,100
192,56,84284,1,0
192,56,84463,2,0,B|144:40|72:32,2,100
296,240,84999,1,0
320,328,85178,2,0,B|368:344|440:352,2,100
96,136,85714,2,0,B|200:128|304:80,1,200
432,176,86250,2,0,B|344:224|288:312,1,200
256,192,86787,12,0,90004
