osu file format v9

[General]
AudioFilename: My Dearest.mp3
AudioLeadIn: 750
PreviewTime: 69380
Countdown: 1
SampleSet: Soft
StackLeniency: 0.7
Mode: 0
LetterboxInBreaks: 1

[Editor]
Bookmarks: -20,12435
DistanceSpacing: 0.9
BeatDivisor: 4
GridSize: 8

[Metadata]
Title:My Dearest (TV Size)
Artist:supercell
Creator:Mucha
Version:Micia
Source:GUILTY CROWN
Tags:Koeda

[Difficulty]
HPDrainRate:7
CircleSize:4
OverallDifficulty:8
ApproachRate:8
SliderMultiplier:1.8
SliderTickRate:1

[Events]
//Background and Video events
Video,0,"GuiltyCrown- OP.flv"
0,0,"bg.PNG"
//Break Periods
//Storyboard Layer 0 (Background)
//Storyboard Layer 1 (Fail)
//Storyboard Layer 2 (Pass)
//Storyboard Layer 3 (Foreground)
//Storyboard Sound Samples
//Background Colour Transformations
3,100,163,162,255

[TimingPoints]
690,355.029585798817,4,2,1,50,1,0
12435,357.462019660411,4,2,1,50,1,0

[Colours]
Combo1 : 255,208,232
Combo2 : 206,255,255
Combo3 : 208,255,208

[HitObjects]
400,72,639,6,0,B|352:152,1,90
272,128,994,1,0
192,112,1171,1,0
112,136,1349,1,0
72,208,1526,2,0,B|48:264|72:304,1,90
208,296,1881,2,0,B|248:224|184:192,1,90
168,56,2236,2,0,B|232:32|272:72,1,90
312,120,2591,1,0
312,200,2769,1,0
312,280,2946,2,0,B|208:352|48:280,1,270
112,168,3834,5,0
160,104,4011,1,0
240,128,4189,1,0
232,208,4366,1,0
160,240,4544,1,0
208,176,4721,1,0
288,200,4899,1,0
288,280,5076,1,0
208,320,5254,2,0,B|144:288|168:224,1,90
168,64,5609,6,0,B|216:80|224:144,1,90
104,160,5964,1,0
168,264,6141,1,0
280,208,6319,1,0
216,104,6496,1,0
376,72,6674,6,0,B|400:128|376:168,1,90
304,128,7029,1,0
224,128,7207,1,0
144,128,7385,2,0,B|168:168|136:224,1,90
48,296,7740,1,0
136,216,7917,1,0
224,128,8095,6,0,B|264:96|320:136,1,90
224,272,8450,2,0,B|272:304|320:264,1,90
308,272,8805,1,0
308,272,8982,1,0
308,272,9160,1,0
308,272,9337,1,0
308,272,9515,1,0
256,192,9869,12,0,11112
120,104,12435,6,0,B|152:64|208:80,1,90
192,160,12792,1,0
288,232,12971,1,0
376,144,13149,2,0,B|400:184|376:240,1,90
216,232,13507,2,0,B|176:160|248:120,1,90
312,72,13864,5,0
392,168,14043,1,0
320,264,14222,1,0
264,160,14401,1,0
360,232,14579,1,0
280,328,14758,1,0
160,296,14937,6,0,B|112:216,1,90
232,232,15294,2,0,B|208:136,1,90
320,192,15652,2,0,B|320:96,1,90
200,72,16009,1,0
128,216,16188,1,0
264,128,16367,1,0
104,144,16545,1,0
264,128,16724,6,0,B|288:176|256:232,1,90
168,288,17082,2,0,B|144:248|176:184,1,90
216,136,17439,1,0
288,104,17618,1,0
368,104,17796,1,0
368,104,17886,1,0
368,104,17975,1,0
288,192,18153,5,0
288,192,18243,1,0
288,192,18332,1,0
176,72,18511,6,0,B|224:48|272:80,1,90
200,176,18869,1,0
312,224,19048,1,0
296,104,19226,1,0
176,80,19405,1,0
80,160,19584,6,0,B|40:208|88:256,1,90
184,304,19941,2,0,B|160:256|192:208,1,90
272,80,20299,2,0,B|240:120|272:168,1,90
376,288,20656,2,0,B|416:256|416:192,1,90
208,80,21014,2,0,B|160:96|168:160,1,90
272,280,21371,2,0,B|320:248|296:200,1,90
144,160,21729,6,0,B|112:128,2,45
160,280,22086,6,0,B|128:312,2,45
344,112,23873,5,0
