osu file format v9

[General]
AudioFilename: My Dearest(TV Size).mp3
AudioLeadIn: 1996
PreviewTime: 69761
Countdown: 0
SampleSet: Soft
StackLeniency: 0.7
Mode: 0
LetterboxInBreaks: 0

[Editor]
DistanceSpacing: 0.8
BeatDivisor: 4
GridSize: 4

[Metadata]
Title:My Dearest (TV Size)
Artist:supercell
Creator:Melt
Version:Hard
Source:Guilty Crown
Tags:ryo koeda opening

[Difficulty]
HPDrainRate:6
CircleSize:4
OverallDifficulty:5
ApproachRate:7
SliderMultiplier:1.2
SliderTickRate:1

[Events]
//Background and Video events
0,0,"bg.jpg"
//Break Periods
//Storyboard Layer 0 (Background)
//Storyboard Layer 1 (Fail)
//Storyboard Layer 2 (Pass)
//Storyboard Layer 3 (Foreground)
//Storyboard Sound Samples
//Background Colour Transformations
3,100,163,162,255

[TimingPoints]
1180,355.6609365738,4,2,1,60,1,0
6337,-100,4,2,1,30,0,0
6870,-100,4,2,1,60,0,0
9715,-100,4,2,1,30,0,0
11557,355.029585798817,4,2,1,60,1,0
12586,356.083086053412,4,2,1,60,1,0
14722,-100,4,2,1,40,0,0
15078,-100,4,2,1,60,0,0
15434,-100,4,2,1,80,0,0
15790,-100,4,2,1,60,0,0
17571,-100,4,2,1,40,0,0
17927,-100,4,2,1,60,0,0
18283,-100,4,2,1,80,0,0
18639,-100,4,2,1,60,0,0
19707,-100,4,2,1,40,0,0
20063,-100,4,2,1,60,0,0
21179,356.083086053412,4,2,1,60,1,0
21535,-100,4,2,1,20,0,0
21891,-100,4,2,1,60,0,0
22247,-100,4,2,1,20,0,0
22603,-100,4,2,1,60,0,0
22959,-100,4,2,1,20,0,0
23315,-100,4,2,1,60,0,0
23671,-100,4,2,1,20,0,0
24021,356.083086053412,4,2,1,60,1,0
24021,-200,4,2,1,60,0,0
25816,356.083086053412,4,2,1,60,1,0
26528,-200,4,2,1,60,0,0
31516,357.355568790947,4,2,1,60,1,0
31694,-200,4,2,1,60,0,0
39006,357.568533969011,4,2,1,60,1,0
39363,-200,4,2,1,60,0,0
44011,-200,4,2,1,5,0,0
44190,-200,4,2,1,60,0,0
46187,357.568533969011,4,2,0,60,1,0
46723,-100,4,2,0,70,0,0
47080,-100,4,2,0,60,0,0
51550,-100,4,2,0,5,0,0
51729,-100,4,2,0,60,0,0
52444,-100,4,2,0,70,0,0
52802,-100,4,2,0,60,0,0
58306,357.568533969011,4,1,0,60,1,0
58306,-100,4,1,0,50,0,0
59736,-100,4,1,0,60,0,0
61166,-100,4,1,0,70,0,0
62596,-100,4,1,0,80,0,0
63669,-100,4,1,0,90,0,0
68675,-100,4,1,0,5,0,0
68854,-100,4,1,0,60,0,0
69048,355.029585798817,4,1,0,60,1,0
69793,357.355568790947,4,1,0,70,1,1
86588,-100,4,1,0,5,0,0
86946,-100,4,2,1,60,0,0
89804,-100,4,2,1,5,0,0

[Colours]
Combo1 : 244,77,34
Combo2 : 60,60,60
Combo3 : 117,117,117
Combo4 : 192,192,192
Combo5 : 255,0,0
Combo6 : 255,100,255

[HitObjects]
356,92,824,1,0
280,32,1180,2,0,B|248:92|288:156,1,120
283,147,1713,1,2
352,212,2069,1,0
352,212,2424,2,0,B|316:272|228:256,2,120,0|0|2
168,152,3669,5,0
100,84,4025,1,0
96,180,4380,2,0,B|96:240,1,60,0|2
164,308,4914,1,0
236,244,5270,2,0,B|272:188|356:196,1,120
339,195,5803,1,0
208,136,6337,1,0
256,192,6870,12,2,9715
244,288,11557,6,0,B|292:228,1,60
216,212,11912,2,0,B|168:152,1,60
240,128,12267,2,0,B|292:60,1,60
396,92,12586,37,4
420,248,14010,6,2,B|384:296|312:308,1,120,0|0
176,264,14722,1,2
76,160,15078,1,2
216,124,15434,1,2
92,136,16858,6,0,B|128:88|200:76,1,120
336,120,17571,1,2
436,224,17926,1,2
296,260,18282,1,2
224,228,18995,69,2
152,192,19707,21,2
96,112,20063,1,0
216,40,20419,1,0
248,168,20775,1,0
128,244,21179,54,0,B|128:320|212:320,1,120,8|0
308,320,21891,2,0,B|384:320|384:236,1,120,8|0
384,140,22603,22,0,B|384:64|300:64,1,120,8|0
204,64,23315,2,0,B|128:64|128:148,1,120,8|0
84,248,24021,70,0,B|112:308|192:296,2,120,0|0|0
120,160,25801,1,0
120,160,26172,1,0
192,96,26528,1,0
192,96,26706,1,0
192,96,26884,70,0,B|264:84|344:136,1,150,0|0
335,130,27952,2,0,B|384:164|404:236,1,120
416,272,29020,1,0
324,316,29376,1,0
216,328,29732,22,0,B|176:328,2,30
164,208,30445,2,0,B|200:208,2,30
80,164,31157,1,0
140,88,31513,1,0
228,124,31873,1,0
320,92,32230,2,0,B|320:56,2,30
428,248,33302,54,0,B|408:292|356:304,1,90
316,316,34017,1,0
220,320,34374,2,0,B|148:332|100:288,1,120
48,216,35446,1,0
48,216,35625,1,0
48,216,35804,1,0
120,128,36161,1,0
120,128,36340,1,0
120,128,36518,1,0
188,60,36876,6,0,B|216:36|252:36,2,60
188,156,37948,1,0
176,204,38127,1,0
192,244,38305,1,0
316,312,39006,1,0
440,244,39721,1,0
440,116,40436,1,0
376,44,40793,6,0,B|396:16,2,30
332,112,41508,1,0
332,112,41687,2,0,B|240:48|128:76|56:180|108:292,1,390
112,80,46723,53,2
112,80,46902,2,0,B|112:204,1,120,4|0
112,200,47438,1,0
144,340,47796,1,0
180,200,48153,1,0
292,112,48511,1,0
420,176,48868,1,0
400,320,49226,1,0
400,320,49583,5,2
400,320,49762,2,0,B|400:200,2,120,2|0|0
400,320,50656,1,0
256,320,51014,2,0,B|256:280|256:280|240:248|240:248|272:248|272:248|256:220|256:220|256:160,1,180
160,112,52444,5,2
160,112,52623,2,0,B|192:48|256:32,2,120,4|0|0
148,160,53517,1,0
148,208,53695,1,0
168,252,53874,2,0,B|192:316|256:332,3,120,2|0|0|0
348,328,55304,2,0,B|416:328,1,60,0|2
460,248,55841,2,0,B|460:184,1,60
460,92,56377,1,0
372,56,56735,1,0
372,56,56914,1,2
372,56,57092,2,0,B|292:112|196:68,1,180
64,48,58165,69,0
80,128,58306,2,0,B|80:212,3,60
144,172,59021,2,0,B|144:244,3,60
264,316,59736,54,0,B|264:252,3,60
328,216,60451,2,0,B|328:288,3,60
416,56,61166,38,0,B|400:120,1,60
320,92,61524,2,0,B|280:164,1,60
212,116,61881,2,0,B|156:180,1,60
96,328,62239,54,0,B|112:264,1,60
196,284,62597,2,0,B|236:212,1,60
304,260,62954,2,0,B|360:196,1,60
416,256,63311,2,0,B|480:208,1,60
464,220,63669,37,0
436,128,64027,2,0,B|312:72|192:136,1,240,4|0
124,180,65099,5,0
68,256,65457,2,0,B|192:312|312:248,1,240,4|0
376,312,66530,1,0
256,192,66887,12,0,68675
76,76,69048,70,0,B|76:48,7,30
76,76,69793,2,0,B|76:112|76:112|96:148,1,60,0|8
144,76,70150,2,0,B|144:40|144:40|124:4,1,60,0|0
212,76,70507,1,0
212,76,70686,2,0,B|276:76|276:76|328:132,1,120,8|0
314,117,71222,1,0
384,116,71401,2,0,B|448:52,1,60,0|8
316,184,71758,2,0,B|268:240,1,60,0|8
384,184,72115,1,0
144,320,72473,5,0
144,320,72651,2,0,B|88:284|88:284|88:200,1,120,4|0
88,160,73187,2,0,B|88:100|88:100|140:56,1,120
133,61,73723,1,8
212,64,73902,2,0,B|276:64,1,60,0|0
344,64,74259,2,0,B|428:64,1,60,0|8
464,140,74617,2,0,B|388:140,1,60,0|0
332,140,74974,2,0,B|252:140,1,60,0|8
440,284,75332,1,0
400,224,75510,6,0,B|368:224|368:224|340:256,1,60,4|0
440,284,75868,2,0,B|472:284|472:284|500:252,1,60,8|0
400,344,76225,1,0
400,344,76404,2,0,B|336:344|336:344|284:284,1,120,8|0
228,300,76940,1,8
228,300,77118,2,0,B|228:228,1,60,0|0
160,240,77476,2,0,B|88:240,1,60,0|8
160,172,77833,2,0,B|160:100,1,60,0|8
160,172,78190,1,0
232,172,78369,53,8
232,172,78726,1,0
300,172,78905,1,8
368,172,79262,1,0
436,172,79620,2,0,B|480:172,3,30
436,172,79977,2,0,B|436:88,1,60
436,44,80334,1,8
368,44,80513,2,8,B|296:44,1,60
244,44,80871,1,8
244,44,81228,6,0,B|244:132|244:132|160:188,1,180,0|0
52,192,82121,2,0,B|52:256,1,60,0|8
120,252,82479,2,0,B|184:252,1,60,0|0
184,320,82836,2,0,B|260:320,1,60,0|8
312,320,83193,1,0
436,60,83729,5,8
436,60,84087,2,0,B|352:60,1,60,4|0
308,60,84444,2,0,B|308:128,1,60,8|0
308,120,84980,1,0
184,124,85337,1,8
184,124,85695,2,0,B|184:196,1,60,0|8
184,288,86231,2,0,B|224:336|224:336|304:336,1,120,0|0
256,192,86946,12,0,89804
