osu file format v9

[General]
AudioFilename: 04 - Kokuhaku.mp3
AudioLeadIn: 2000
PreviewTime: 62914
Countdown: 0
SampleSet: Normal
StackLeniency: 0.5
Mode: 0
LetterboxInBreaks: 0

[Editor]
DistanceSpacing: 0.8
BeatDivisor: 2
GridSize: 8

[Metadata]
Title:Kokuhaku (TV Size)
Artist:supercell
Creator:Netsukawa
Version:Nich's Normal
Source:GUILTY CROWN
Tags:koeda ending ryo nich95 bestz2541 No_Gu NoGu climbb65588 hichman

[Difficulty]
HPDrainRate:3
CircleSize:3
OverallDifficulty:3
ApproachRate:4
SliderMultiplier:1.09
SliderTickRate:1

[Events]
//Background and Video events
0,0,"BG.jpg"
Video,0,"Kokuhaku.avi"
//Break Periods
//Storyboard Layer 0 (Background)
//Storyboard Layer 1 (Fail)
//Storyboard Layer 2 (Pass)
//Storyboard Layer 3 (Foreground)
//Storyboard Sound Samples
//Background Colour Transformations
3,100,163,162,255

[TimingPoints]
678,333.333333333333,4,1,1,50,1,0
8677,-100,4,1,1,20,0,0
11011,-100,4,1,1,5,0,0
11344,-100,4,2,1,80,0,0
14010,327.868852459016,4,2,1,80,1,0
15156,333.333333333333,4,2,1,80,1,0
16155,-100,4,2,1,20,0,0
17991,335.195530726257,4,2,2,80,1,0
23331,333.333333333333,4,2,2,80,1,0
49664,-100,4,2,1,80,0,0
49997,-100,4,2,2,80,0,0
57997,-100,4,2,0,65,0,0
58164,-100,4,1,0,65,0,0
60497,-100,4,2,2,80,0,0
60664,-200,4,1,1,80,0,0
63330,-100,4,2,1,80,0,1
84664,-100,4,2,1,80,0,0
87330,-100,4,2,2,5,0,0

[Colours]
Combo1 : 164,255,72
Combo2 : 0,128,64
Combo3 : 0,128,128
Combo4 : 0,128,192
Combo5 : 128,0,0
Combo6 : 247,183,77
Combo7 : 255,128,255
Combo8 : 255,128,128

[HitObjects]
168,80,678,1,2
344,80,1344,1,0
256,232,2011,2,0,B|256:344,2,109,2|0|2
344,80,3344,6,0,B|456:80,2,109,2|0|2
168,80,4677,1,2
112,248,5344,2,0,B|80:352,2,109,2|0|2
256,144,6677,5,2
400,248,7344,1,2
424,72,8011,1,2
256,192,8677,12,4,11344
288,80,12011,5,2
352,136,12344,2,0,B|352:192,1,54.5,8|0
272,161,12844,2,0,B|272:216,1,54.5,0|8
232,296,13344,2,0,B|184:328|128:312,1,109,2|8
96,228,14011,5,12
168,176,14337,2,0,B|216:144|272:160,1,109,8|8
352,192,14993,2,0,B|408:216,1,54.5,8|4
456,144,15489,2,0,B|400:120,2,54.5,0|8|0
256,192,16155,12,4,17991
224,296,18661,5,8
312,272,18996,2,0,B|368:256|408:224,1,109,8|8
416,136,19666,1,8
352,72,20002,2,0,B|304:40|248:48,1,109,8|8
208,128,20672,6,0,B|224:192|216:280|176:344,1,218,8|8
96,352,21678,1,8
68,268,22013,2,0,B|12:248|4:183,2,109,8|8|8
96,184,23018,1,8
136,104,23331,6,0,B|232:56|384:72,1,218,8|8
424,120,24331,1,8
456,200,24664,2,0,B|360:248|244:235,1,218,8|8
160,256,25664,6,0,B|168:320|120:352,1,109,8|8
72,280,26331,2,0,B|64:216|112:184,2,109,8|8|8
160,256,27331,1,8
336,256,27997,1,8
336,256,28331,6,0,B|408:256,2,54.5,8|0|4
272,200,28997,1,8
208,144,29331,2,0,B|96:144,1,109,8|8
72,224,29997,2,0,B|128:328|248:336,1,218,8|8
336,336,30997,6,0,B|392:336,2,54.5,8|0|8
288,256,31664,2,0,B|232:160,1,109,8|8
144,168,32331,2,0,B|200:264,2,109,8|8|8
144,80,33331,2,0,B|240:32|360:40,1,218,8|8
416,104,34331,5,8
400,192,34664,2,0,B|376:248|328:272,1,109,8|8
240,264,35331,2,0,B|264:208|312:184,1,109,8|8
248,120,35997,1,8
160,120,36331,1,8
96,176,36664,6,0,B|64:248|120:336|192:336,1,218,8|8
280,336,37664,1,8
368,336,37997,1,8
464,192,38664,1,8
376,192,38997,1,0
288,192,39330,6,0,B|120:192,2,163.5,4|0|8
336,120,40664,1,0
288,48,40997,2,0,B|176:48,1,109,8|0
104,96,41664,1,4
88,184,41997,6,0,B|80:272|136:336,2,163.5,0|0|8
168,152,43330,1,0
248,120,43664,2,0,B|360:120,1,109,8|0
408,192,44330,1,4
408,192,44664,6,0,B|408:280|472:336,2,163.5,0|0|8
368,112,45997,2,0,B|336:72|272:56,1,109,0|8
192,88,46664,2,0,B|224:128|288:144,1,109,0|4
320,224,47330,6,0,B|408:248|448:320,2,163.5,0|0|8
283,142,48664,2,0,B|328:104|344:48,2,109,0|8|0
208,184,49664,1,6
120,184,49997,6,0,B|8:184,1,109,4|8
56,264,50664,2,0,B|168:264,1,109,0|8
256,264,51330,2,0,B|312:256,2,54.5,0|0|8
232,352,51997,2,0,B|176:360,2,54.5,0|0|8
320,344,52664,6,0,B|384:336|408:280,1,109,0|8
488,264,53330,2,0,B|464:208|400:200,1,109,0|8
360,200,53830,2,0,B|306:184|282:128,2,109
408,128,54830,2,0,B|464:128,2,54.5,0|8|0
384,96,55330,6,0,B|336:56|288:40,1,109,0|8
248,120,55997,2,0,B|199:103|151:63,1,109,0|8
80,112,56664,2,0,B|120:152|128:208,1,109,0|8
216,224,57330,2,0,B|224:280|264:320,1,109,0|8
304,320,57830,1,2
344,320,57997,6,0,B|408:232,1,109,4|0
368,152,58664,2,0,B|432:64,1,109
344,48,59330,2,0,B|280:136,1,109
232,208,59997,2,0,B|176:184,2,54.5
272,224,60497,1,10
256,192,60664,12,4,63330
424,208,63997,5,0
336,208,64330,2,0,B|224:208,1,109,8|2
192,128,64997,2,0,B|304:128,1,109,8|2
392,128,65664,1,8
424,208,65997,5,2
384,288,66330,1,8
352,312,66497,2,0,B|312:352|240:352,2,109,2|2|0
336,272,67330,6,0,B|272:256|264:192,1,109,2|8
304,120,67997,1,2
368,176,68330,2,0,B|424:176,2,54.5,8|0|2
304,232,68997,6,0,B|192:232,1,109,8|2
240,312,69664,2,0,B|128:312,1,109,8|2
56,264,70330,1,8
32,184,70664,1,2
56,104,70997,6,0,B|80:56|136:32,2,109,8|2|8
88,128,71830,2,0,B|136:96|192:104,2,109,2|2|0
104,168,72664,5,2
152,240,72997,1,8
232,280,73330,1,2
320,288,73664,1,8
400,248,73997,6,0,B|448:208|464:152,1,109,6|8
424,136,74497,2,0,B|448:80|496:48,2,109,2|2|0
384,144,75330,5,2
320,208,75664,1,8
232,232,75997,1,2
144,216,76330,1,8
72,160,76664,6,0,B|72:96|112:64,1,109,6|8
152,80,77164,2,0,B|152:136|200:176,2,109,2|2|0
184,48,77997,5,2
272,48,78330,1,8
352,88,78664,1,2
408,160,78997,1,8
376,240,79330,6,0,B|400:288|456:312,2,109,2|8|2
320,176,80331,2,0,B|256:88,1,109,8|2
216,168,80997,2,0,B|152:80,1,109,8|2
72,48,81664,1,8
24,120,81997,5,6
80,192,82331,2,0,B|136:192,2,54.5,8|0|2
56,280,82997,2,0,B|0:280,2,54.5,8|0|2
136,320,83664,1,8
136,320,83831,1,0
136,320,83997,2,0,B|248:320,1,109,2|8
320,272,84664,6,0,B|400:240|448:160,1,163.5,6|4
376,112,85497,1,0
296,80,85831,1,4
168,80,86330,1,8
128,96,86497,2,0,B|80:120|56:176,2,109,0|0|2
256,192,87331,12,0,89331
