osu file format v9

[General]
AudioFilename: 04 - Kokuhaku.mp3
AudioLeadIn: 2000
PreviewTime: 62914
Countdown: 0
SampleSet: Soft
StackLeniency: 0.5
Mode: 0
LetterboxInBreaks: 0

[Editor]
DistanceSpacing: 0
BeatDivisor: 4
GridSize: 4

[Metadata]
Title:Kokuhaku (TV Size)
Artist:supercell
Creator:Netsukawa
Version:Hard
Source:GUILTY CROWN
Tags:koeda ending ryo nich95 bestz2541 No_Gu NoGu climbb65588 hichman

[Difficulty]
HPDrainRate:6
CircleSize:4
OverallDifficulty:6
ApproachRate:7
SliderMultiplier:1.48
SliderTickRate:1

[Events]
//Background and Video events
0,0,"BG.jpg"
Video,0,"Kokuhaku.avi"
//Break Periods
//Storyboard Layer 0 (Background)
//Storyboard Layer 1 (Fail)
//Storyboard Layer 2 (Pass)
//Storyboard Layer 3 (Foreground)
//Storyboard Sound Samples
//Background Colour Transformations
3,100,163,162,255

[TimingPoints]
678,333.333333333333,4,1,1,40,1,0
678,-133.333333333333,4,1,1,40,0,0
8761,-100,4,1,1,20,0,0
11011,-100,4,1,1,5,0,0
11344,-100,4,2,1,80,0,0
14010,327.868852459016,4,2,1,80,1,0
15156,333.333333333333,4,2,1,80,1,0
15822,-100,4,2,2,80,0,0
16239,-100,4,2,1,20,0,0
17655,-100,4,2,1,5,0,0
17991,335.195530726257,4,2,1,80,1,0
23331,333.333333333333,4,2,1,80,1,0
38830,-100,4,2,1,60,0,0
38997,-100,4,1,1,70,0,0
39164,-100,4,2,1,80,0,0
41664,-100,4,2,2,80,0,0
41830,-100,4,2,1,80,0,0
44330,-100,4,2,2,80,0,0
44497,-100,4,2,1,80,0,0
46997,-100,4,2,2,80,0,0
47164,-100,4,2,1,80,0,0
58330,-100,4,1,2,50,0,0
58414,-100,4,2,1,80,0,0
58664,-100,4,1,2,60,0,0
58747,-100,4,2,1,80,0,0
58997,-100,4,1,2,70,0,0
59164,-100,4,1,2,80,0,0
60497,-100,4,2,2,80,0,0
60664,-133.333333333333,4,1,1,80,0,0
62664,-100,4,1,1,80,0,0
63330,-100,4,2,1,80,0,1
84497,-100,4,1,1,70,0,1
84664,-100,4,2,1,80,0,0
85330,-100,4,2,2,80,0,0
85497,-100,4,2,1,80,0,0
86164,-100,4,1,0,40,0,0
86330,-100,4,1,0,45,0,0
86497,-100,4,1,0,50,0,0
86664,-100,4,1,0,55,0,0
86830,-100,4,1,0,60,0,0
86997,-100,4,1,0,65,0,0
87164,-100,4,2,2,70,0,0
87330,-100,4,1,1,65,0,0
87414,-100,4,2,2,5,0,0

[Colours]
Combo1 : 164,255,72
Combo2 : 0,128,64
Combo3 : 0,128,128
Combo4 : 0,128,192
Combo5 : 128,0,0
Combo6 : 247,183,77
Combo7 : 255,128,255
Combo8 : 255,128,128

[HitObjects]
200,172,678,2,0,B|144:168|104:216,1,110.999996691942,2|0
152,320,1344,2,0,B|216:320|248:276,1,110.999996691942,2|0
260,248,1844,1,0
260,248,2011,2,0,B|284:188|348:184,1,110.999996691942,2|0
372,192,2511,2,0,B|492:220,2,110.999996691942,2|0|0
380,116,3344,6,0,B|312:88|316:20,1,110.999996691942,2|0
304,56,3844,2,0,B|256:160,1,110.999996691942,2|0
200,252,4511,2,0,B|152:216|96:236,2,110.999996691942,2|0|0
224,240,5344,2,0,B|240:296|300:312,2,110.999996691942,2|0|2
192,132,6344,6,0,B|176:56,1,55.4999983459712
176,52,6677,2,0,B|128:16|68:44,1,110.999996691942,2|0
48,56,7177,1,0
48,56,7344,2,0,B|32:112|68:112|49:164,1,110.999996691942,2|0
36,188,7844,2,0,B|8:240,2,55.4999983459712,0|2|0
64,188,8344,2,0,B|120:188,2,55.4999983459712,0|0|2
256,192,8761,12,0,11011
188,260,11344,6,0,B|152:272|112:272,1,74,6|2
96,164,11678,2,0,B|136:148|176:152,1,74,8|2
236,196,12011,1,0
296,140,12178,1,2
376,136,12344,2,0,B|416:136|452:156,2,74,8|2|0
296,140,12844,1,0
240,84,13011,2,0,B|192:44|132:64|132:64|152:96,1,148,8|2
180,168,13511,1,2
192,248,13678,2,0,B|204:288|180:332,1,74,8|2
120,276,14010,6,0,B|44:276,1,74,12|0
192,248,14337,2,0,B|276:248,1,74,8|0
376,272,14665,2,0,B|396:304|396:348,2,74,10|2|8
336,200,15156,2,0,B|300:160|324:84|376:76,1,148,6|2
400,152,15656,2,0,B|440:232,1,74,2|2
433,218,16156,5,4
256,192,16239,12,0,17655
196,260,17991,6,0,B|160:184|212:116,1,148,6|2
276,76,18493,2,0,B|116:84,2,148,0|0|0
356,96,19331,2,0,B|376:132|416:140,1,74,2|0
356,200,19666,2,0,B|352:244|380:268,1,74,2|0
428,332,20002,2,0,B|352:352,1,74,2|0
300,292,20337,2,0,B|216:284,1,74,2|0
144,288,20672,6,0,B|92:308|40:236|76:188,1,148,2|2
132,140,21175,2,0,B|176:108|160:28|116:16,2,148
76,84,22013,2,0,B|232:68,1,148,2|2
284,124,22516,1,0
364,104,22683,2,0,B|448:96,2,74,2|0|2
284,124,23186,1,0
216,168,23331,6,0,B|168:208|184:280|184:280|164:264,1,148,0|2
112,204,23830,2,0,B|88:176|48:168,1,74,0|2
36,280,24164,2,0,B|64:312|104:312,1,74,0|2
176,344,24497,1,0
176,344,24664,2,0,B|252:316|320:360,1,148,2|2
400,364,25164,1,0
380,284,25330,2,0,B|348:204|276:188,1,148,2|2
440,192,25997,6,0,B|485:185|509:145,1,74,2|0
448,60,26330,2,0,B|408:64|384:100,1,74,2|0
332,192,26664,2,0,B|300:220|260:216,1,74,2|0
172,152,26997,2,0,B|136:132|92:144,1,74,2|0
84,252,27330,2,0,B|116:272|156:264,1,74,2|0
220,216,27664,2,0,B|228:256|256:280,1,74,2|0
328,312,27997,6,0,B|296:340|296:384,2,74,2|0|2
396,272,28497,1,0
444,208,28664,2,0,B|484:164|448:88|392:96,1,148,6|2
296,132,29164,2,0,B|244:136|208:52|248:12,2,148
320,52,29997,2,0,B|156:128,1,148,2|2
108,140,30497,1,0
76,216,30664,2,0,B|88:256|76:292,1,74,2|0
144,336,30997,6,0,B|220:332,1,74,2|0
300,320,31330,2,0,B|380:280|368:192,1,148,2|2
320,136,31830,2,0,B|472:216,2,148
244,108,32664,2,0,B|208:96|168:108,1,74,2|0
172,220,32997,2,0,B|208:236|248:216,2,74,2|0|2
96,192,33497,1,0
48,260,33664,6,0,B|44:300|52:340,1,74,2|0
160,360,33997,2,0,B|204:296|168:208,1,148,2|2
96,192,34497,2,0,B|248:184,1,148
356,176,34997,1,2
304,240,35164,2,0,B|292:284|312:332,1,74,0|2
416,308,35497,2,0,B|424:272|412:232,1,74,0|2
356,176,35830,2,0,B|312:160|308:72|352:52,2,148
404,112,36664,6,0,B|240:120,1,148,2|2
180,148,37164,1,0
100,140,37330,2,0,B|56:152|36:188,1,74,2|0
112,220,37664,2,0,B|88:252|92:292,1,74,2|0
172,276,37997,2,0,B|164:324|188:360,1,74,2|0
256,304,38331,2,0,B|256:228,1,74,2|0
180,148,38664,6,0,B|152:120|104:124,1,74,2|8
212,72,38997,2,0,B|256:64|280:24,1,74,8|2
264,144,39331,2,0,B|260:180|284:212,1,74,4|0
388,176,39664,1,2
388,176,39831,2,0,B|388:136|360:108,2,74,0|2|0
356,252,40331,2,0,B|356:296|388:328,1,74,2|0
276,284,40664,2,0,B|248:272|216:276|216:276|168:300|124:284,1,148,2|2
80,224,41164,1,0
160,216,41331,2,0,B|200:208|220:176,1,74,2|2
228,64,41664,6,0,B|240:104|284:116,1,74,2|0
380,100,41997,2,0,B|340:164,1,74,2|0
388,228,42331,2,0,B|428:164,2,74,2|0|2
324,276,42831,1,0
244,260,42997,2,0,B|208:244|168:264,1,74,2|0
212,332,43331,2,0,B|92:236,1,148,2|2
84,160,43831,2,0,B|76:116|32:104,2,74,2|2|2
156,120,44331,6,0,B|172:164|152:208,1,74,2|0
240,116,44664,2,0,B|272:92|312:96,2,74,2|0|2
296,172,45164,2,0,B|376:160|428:224,1,148
428,304,45664,2,0,B|428:384,1,74,2|0
504,344,45997,2,0,B|504:192,1,148,2|2
504,116,46497,2,0,B|500:76|460:52,1,74,0|2
372,120,46831,2,0,B|380:160|416:180,2,74,0|6|0
380,40,47331,6,0,B|288:176,1,148,2|2
248,228,47831,1,0
168,244,47997,1,2
88,228,48164,1,0
116,304,48331,2,0,B|136:344|112:384,1,74,2|0
44,340,48664,2,0,B|200:340,1,148,2|2
272,340,49164,2,0,B|304:312|352:320,1,74,0|2
420,340,49497,1,0
364,244,49664,6,0,B|324:168,1,74,12|0
420,184,49997,2,0,B|416:104,2,74,4|0|2
420,184,50497,2,0,B|448:212|444:252,2,74,0|2|0
364,244,50997,2,0,B|348:284|308:296,1,74,2|0
264,360,51331,2,0,B|236:344|232:308|232:308|200:260|152:260,1,148,2|2
152,340,51831,2,0,B|112:336|92:300,1,74,0|2
68,224,52164,1,0
68,224,52331,6,0,B|48:144,1,74,2|0
120,112,52664,2,0,B|144:204,1,74,2|0
200,92,52997,2,0,B|248:156,2,74,2|0|2
140,36,53497,2,0,B|112:4|68:8,1,74,0|2
120,112,53831,2,0,B|80:104|48:128,1,74,0|2
76,236,54164,2,0,B|120:244|148:216,1,74,0|2
196,156,54497,2,0,B|252:88|344:116,2,148
160,232,55331,6,0,B|128:312,1,74,2|0
200,344,55664,2,0,B|232:260,1,74,2|0
296,232,55997,1,2
376,228,56164,2,0,B|416:220|448:248,1,74,0|2
392,308,56497,2,0,B|328:164,1,148
272,116,56997,1,2
192,108,57164,2,0,B|140:104|104:176|140:216,1,148
216,184,57664,1,2
248,260,57831,6,0,B|244:316,2,37,8|10|6
296,192,58164,1,0
272,116,58331,2,0,B|264:68|296:40,1,74,0|0
352,100,58664,2,0,B|384:72|424:76,1,74
412,156,58997,2,0,B|452:160|472:192,1,74
416,288,59331,2,0,B|372:280|356:244,1,74
296,192,59664,2,0,B|260:180|224:192,1,74
132,252,59997,2,0,B|56:304,1,74
36,220,60331,2,0,B|104:176,1,74,0|2
98,179,60664,5,2
98,179,60831,1,2
172,112,61164,1,2
172,112,61331,1,2
240,188,61664,2,0,B|276:232,1,55.4999983459712,2|2
364,164,62164,2,0,B|324:116,1,55.4999983459712,2|2
240,188,62664,1,2
160,208,62831,6,0,B|120:208,2,37,2|0|0
216,268,63164,1,2
296,248,63331,2,0,B|376:224|436:276,1,148,6|8
472,348,63831,1,0
508,244,63997,2,0,B|524:208|512:160,1,74,2|0
432,96,64331,2,0,B|420:132|432:168,1,74,8|0
352,92,64664,2,0,B|324:44|264:32|220:68,1,148,2|8
160,116,65164,2,0,B|152:80,2,37,0|0|2
116,184,65497,1,0
124,264,65664,6,0,B|140:312|188:324|188:324|248:304,1,148,8|2
320,280,66164,2,0,B|392:256,1,74,0|8
396,176,66497,2,0,B|252:224,1,148
176,248,66997,1,8
124,184,67164,2,0,B|92:156|52:164,1,74,0|2
64,244,67497,2,0,B|32:272|36:320,1,74,0|8
116,304,67831,2,0,B|144:332|192:328,1,74,0|2
176,248,68164,1,0
200,172,68331,6,0,B|216:116|264:104|264:104|292:112,1,111,8|0
292,100,68664,2,0,B|324:128|364:128,1,74,2|0
356,48,68997,2,0,B|412:192,1,148,8|2
432,264,69497,1,0
396,336,69664,2,0,B|364:368|328:368|328:368|264:320,1,148,8|2
196,292,70164,1,0
116,276,70331,2,0,B|40:292,1,74,8|0
4,220,70664,2,0,B|80:204,1,74,2|0
156,208,70997,6,0,B|232:216|256:160|256:160|292:192,2,148,8|2|8
184,132,71831,2,0,B|336:128,1,148
404,164,72331,2,0,B|436:188|436:236,1,74,8|0
464,120,72664,2,0,B|440:88|452:44,1,74,2|0
376,88,72997,2,0,B|332:152|356:236,2,148,8|2|8
376,88,73831,6,0,B|304:60,1,74,0|6
200,28,74164,2,0,B|228:52|232:96,1,74,0|8
224,172,74497,2,0,B|156:128|76:156,1,148
20,208,74997,2,0,B|8:244|16:284,2,74,8|0|2
4,128,75497,2,0,B|16:88|4:52,2,74,0|8|0
20,208,75997,2,0,B|16:264|80:304|132:276,1,148,2|8
180,220,76497,1,0
228,156,76664,6,0,B|264:136|304:156,1,74,2|0
296,288,76997,2,0,B|256:304|212:284,2,74,8|0|2
368,252,77497,2,0,B|404:236|440:248,1,74,0|8
488,316,77831,1,0
408,320,77997,2,0,B|404:168,1,148,2|8
384,92,78497,1,0
312,52,78664,1,2
232,64,78831,1,0
188,132,78997,2,0,B|172:168|184:208,1,74,8|0
200,284,79331,6,0,B|184:236|124:216|76:248,1,148,6|8
44,324,79830,1,0
124,312,79997,2,0,B|100:148,1,148,2|8
48,108,80497,2,0,B|16:80|20:36,2,74,0|2|0
128,92,80997,2,0,B|156:132|224:136|260:100,1,148,8|2
328,56,81497,1,0
348,60,81580,1,0
368,64,81664,2,0,B|412:72|432:108,1,74,8|0
432,20,81997,6,0,B|492:72|464:156,1,148,6|8
404,212,82497,1,0
332,172,82664,2,0,B|268:152|216:192|216:192|212:248,1,148,2|8
132,204,83164,2,0,B|52:208,1,74,0|2
24,136,83497,2,0,B|104:132,1,74,0|8
180,128,83830,1,0
256,96,83997,2,0,B|316:84|324:24|324:24|372:32,1,148,2|8
384,112,84497,5,2
384,112,84664,2,0,B|452:76,2,74,4|0|8
352,188,85164,2,0,B|392:180|428:200,1,74,4|2
376,264,85497,2,0,B|448:300,2,74,0|8|4
296,244,85997,6,0,B|256:236|220:256,1,74,0|0
160,164,86330,2,0,B|184:132|180:92,1,74,0|0
292,88,86664,2,0,B|308:132|344:144,1,74
296,244,86997,2,0,B|264:212|228:216,1,74,0|2
156,248,87330,5,2
256,192,87414,12,0,89330
