osu file format v14

[General]
AudioFilename: Kimi no Shira nai Monogatari -TV Edit-.mp3
AudioLeadIn: 0
PreviewTime: 54463
Countdown: 0
SampleSet: Soft
StackLeniency: 0.7
Mode: 0
LetterboxInBreaks: 0
WidescreenStoryboard: 0

[Editor]
DistanceSpacing: 1.3
BeatDivisor: 4
GridSize: 8
TimelineZoom: 4.299998

[Metadata]
Title:Kimi no Shiranai Monogatari -TV Edit-
TitleUnicode:君の知らない物語 -TV Edit-
Artist:supercell
ArtistUnicode:supercell
Creator:walaowey
Version:Insane
Source:化物語
Tags:Bakemonogatari Ryo Nagi Yanagi The Story You Don't Know Today Is A Beautiful Day Baraatje123 Kyle Y [Sc4v4ng3r] DahplA
BeatmapID:757823
BeatmapSetID:342896

[Difficulty]
HPDrainRate:6
CircleSize:4
OverallDifficulty:8
ApproachRate:9
SliderMultiplier:1.8
SliderTickRate:2

[Events]
//Background and Video events
0,0,"bm.jpg",0,0
Video,-220,"Kimi no Shiranai Monogatari.flv"
//Break Periods
//Storyboard Layer 0 (Background)
//Storyboard Layer 1 (Fail)
//Storyboard Layer 2 (Pass)
//Storyboard Layer 3 (Foreground)
//Storyboard Sound Samples

[TimingPoints]
1100,363.636363636364,4,2,1,60,1,0
11827,-100,4,2,2,80,0,0
12281,-100,4,2,1,60,0,0
18554,-133.333333333333,4,2,4,40,0,0
30190,-100,4,2,1,60,0,0
41827,-100,4,2,1,65,0,0
42554,-100,4,2,1,70,0,0
43281,-100,4,2,1,75,0,0
44009,-100,4,2,1,80,0,0
44736,-100,4,2,1,55,0,0
50554,-100,4,2,1,60,0,0
52009,-100,4,2,1,65,0,0
52736,-100,4,2,1,70,0,0
53463,-100,4,2,1,75,0,0
56372,-100,4,2,1,80,0,1
73827,-100,4,2,1,65,0,1
79645,-100,4,2,1,70,0,1
81100,-100,4,2,1,75,0,1
82554,-100,4,2,1,80,0,1
84554,-100,4,2,2,80,0,1
85463,-100,4,2,1,80,0,0
86918,-100,4,2,1,70,0,0
87281,-100,4,2,1,60,0,0
87645,-100,4,2,1,50,0,0
88009,-100,4,2,1,40,0,0
88372,-100,4,2,1,30,0,0
88736,-100,4,2,1,10,0,0

[Colours]
Combo1 : 255,157,255
Combo2 : 255,113,113
Combo3 : 255,159,64

[HitObjects]
47,134,1100,6,0,L|139:113,1,90,4|0,0:0|0:0,0:0:0:0:
254,243,1463,2,0,L|162:264,1,90,8|0,0:0|0:0,0:0:0:0:
279,158,1827,1,0,0:0:0:0:
341,223,2009,1,0,0:0:0:0:
194,180,2190,1,8,0:0:0:0:
219,95,2372,1,0,0:0:0:0:
395,54,2554,6,0,P|430:78|451:138,1,90
279,158,2918,2,0,P|239:131|216:75,1,90,8|0,0:0|0:0,0:0:0:0:
366,136,3281,1,0,0:0:0:0:
341,223,3463,1,0,0:0:0:0:
306,73,3645,1,8,0:0:0:0:
395,54,3827,1,0,0:0:0:0:
430,202,4009,6,0,L|408:301,1,90
279,158,4372,2,0,L|310:59,1,90,8|0,0:0|0:0,0:0:0:0:
194,180,4736,1,0,0:0:0:0:
254,243,4918,1,0,0:0:0:0:
219,95,5100,1,8,0:0:0:0:
134,113,5281,1,0,0:0:0:0:
82,286,5463,6,0,P|99:326|169:357,1,90
180,342,5736,2,0,L|228:325,3,45,0|8|0|8,0:0|0:0|0:0|0:0,0:0:0:0:
341,223,6190,1,0,0:0:0:0:
194,180,6372,1,0,0:0:0:0:
177,202,6463,1,0,0:0:0:0:
168,227,6554,2,0,P|174:278|213:320,1,90,8|0,0:0|0:0,0:0:0:0:
279,158,6918,6,0,P|254:115|210:93,1,90,4|0,0:0|0:0,0:0:0:0:
254,243,7281,2,0,P|279:288|323:311,1,90,8|0,0:0|0:0,0:0:0:0:
430,202,7645,1,0,0:0:0:0:
366,136,7827,1,0,0:0:0:0:
254,243,8009,1,8,0:0:0:0:
341,223,8190,1,0,0:0:0:0:
305,72,8372,6,0,P|252:71|212:97,1,90
366,136,8736,2,0,P|391:91|386:38,1,90,8|0,0:0|0:0,0:0:0:0:
279,158,9100,1,8,0:0:0:0:
291,186,9190,1,0,0:0:0:0:
312,208,9281,1,8,0:0:0:0:
341,223,9372,1,0,0:0:0:0:
372,228,9463,1,8,0:0:0:0:
402,221,9554,1,0,0:0:0:0:
430,202,9645,1,8,0:0:0:0:
305,72,9827,6,0,L|207:72,1,90,4|0,0:0|0:0,0:0:0:0:
183,78,10100,1,8,0:0:0:0:
155,93,10190,1,8,0:0:0:0:
251,223,10372,2,0,L|349:223,1,90
205,150,10736,1,8,0:0:0:0:
205,303,10918,1,10,0:0:0:0:
297,148,11100,6,0,P|279:94|234:62,1,90,4|0,0:0|0:0,0:0:0:0:
162,225,11463,1,2,0:0:0:0:
162,225,11554,1,2,0:0:0:0:
162,225,11645,1,8,0:0:0:0:
341,223,11827,2,0,P|376:185|382:130,1,90,4|0,0:0|0:0,0:0:0:0:
160,72,12190,1,4,0:0:0:0:
205,303,12736,6,0,L|298:347,1,90,4|0,0:0|0:0,0:0:0:0:
275,160,13100,2,0,L|182:116,1,90,8|0,0:0|0:0,0:0:0:0:
280,247,13463,2,0,L|373:291,1,90
352,105,13827,2,0,L|259:61,1,90,8|0,0:0|0:0,0:0:0:0:
357,198,14190,6,0,B|481:180|481:180|421:141,1,180,0|8,0:0|0:0,0:0:0:0:
275,159,14736,2,0,P|266:203|280:246,2,90
361,285,15281,2,0,P|329:323|267:335,1,90,8|0,0:0|0:0,0:0:0:0:
275,159,15645,6,0,P|307:121|369:109,1,90
280,246,16009,1,8,0:0:0:0:
199,207,16190,1,0,0:0:0:0:
193,121,16372,2,0,L|270:69,1,90
280,246,16736,1,8,0:0:0:0:
118,172,16918,1,12,0:0:0:0:
118,172,17281,5,8,0:0:0:0:
183,33,17463,1,8,0:0:0:0:
199,207,17645,1,8,0:0:0:0:
44,222,17827,1,8,0:0:0:0:
107,84,18009,1,8,0:0:0:0:
275,159,18190,1,8,0:0:0:0:
125,259,18372,1,8,0:0:0:0:
193,121,18554,6,0,L|256:77,1,67.5000025749208,4|0,0:0|0:0,0:0:0:0:
275,159,18918,2,0,L|212:203,1,67.5000025749208
289,238,19281,1,0,0:0:0:0:
355,190,19463,1,0,0:0:0:0:
340,110,19645,1,0,0:0:0:0:
264,79,19827,1,0,0:0:0:0:
212,211,20009,6,0,P|219:280|288:320,1,135.000005149842
346,294,20554,2,0,B|386:245|353:191|353:191|363:178|366:162,1,135.000005149842
430,119,21100,1,0,0:0:0:0:
436,199,21281,1,0,0:0:0:0:
296,148,21463,6,0,L|228:148,1,67.5000025749208,4|0,0:0|0:0,0:0:0:0:
166,203,21827,2,0,L|118:250,1,67.5000025749208
194,281,22190,1,0,0:0:0:0:
248,220,22372,1,0,0:0:0:0:
225,142,22554,1,0,0:0:0:0:
146,123,22736,1,0,0:0:0:0:
86,178,22918,6,0,L|100:253,1,67.5000025749208
169,283,23281,1,0,0:0:0:0:
167,203,23463,2,0,L|154:133,1,67.5000025749208
111,67,23827,2,0,P|78:60|45:68,2,67.5000025749208
225,142,24372,6,0,P|285:174|351:150,1,135.000005149842,4|0,0:0|0:0,0:0:0:0:
292,92,24918,1,0,0:0:0:0:
150,110,25100,2,0,P|150:177|210:222,1,135.000005149842
270,254,25645,1,0,0:0:0:0:
345,283,25827,6,0,L|411:310,2,67.5000025749208
331,203,26372,1,0,0:0:0:0:
401,161,26554,2,0,L|490:197,2,67.5000025749208
324,122,27100,1,0,0:0:0:0:
192,144,27281,6,0,P|167:173|157:224,1,67.5000025749208,4|0,0:0|0:0,0:0:0:0:
239,214,27645,2,0,P|231:251|248:300,1,67.5000025749208
304,174,28009,1,0,0:0:0:0:
262,107,28190,1,0,0:0:0:0:
195,62,28372,1,0,0:0:0:0:
121,96,28554,1,0,0:0:0:0:
82,167,28736,6,0,L|104:252,1,67.5000025749208
181,202,29100,2,0,L|242:265,1,67.5000025749208
273,175,29463,2,0,L|358:198,1,67.5000025749208
334,104,29827,2,0,L|419:81,1,67.5000025749208
261,50,30190,5,4,0:0:0:0:
324,192,30372,1,0,0:0:0:0:
343,12,30554,1,2,0:0:0:0:
250,138,30736,1,0,0:0:0:0:
397,245,30918,1,2,0:0:0:0:
411,65,31100,1,0,0:0:0:0:
324,192,31281,1,2,0:0:0:0:
480,210,31463,1,0,0:0:0:0:
334,104,31645,6,0,L|250:138,1,90,2|0,0:0|0:0,0:0:0:0:
403,158,32009,1,2,0:0:0:0:
261,50,32190,2,0,P|214:55|178:86,2,90,0|2|0,0:0|0:0|0:0,0:0:0:0:
334,104,32736,1,2,0:0:0:0:
240,226,32918,1,0,0:0:0:0:
96,116,33100,5,2,0:0:0:0:
250,138,33281,1,0,0:0:0:0:
155,261,33463,1,2,0:0:0:0:
181,81,33645,1,0,0:0:0:0:
324,192,33827,1,2,0:0:0:0:
169,176,34009,1,0,0:0:0:0:
334,104,34190,1,2,0:0:0:0:
312,282,34372,1,0,0:0:0:0:
250,138,34554,6,0,P|246:82|271:37,1,90,2|0,0:0|0:0,0:0:0:0:
403,158,34918,1,2,0:0:0:0:
240,226,35100,2,0,P|188:203|166:166,2,90,0|2|0,0:0|0:0|0:0,0:0:0:0:
250,138,35645,1,2,0:0:0:0:
175,85,35827,1,0,0:0:0:0:
92,217,36009,6,0,L|126:307,1,90,2|0,0:0|0:0,0:0:0:0:
238,162,36372,2,0,L|204:72,1,90,2|0,0:0|0:0,0:0:0:0:
186,230,36736,2,0,P|226:245|290:229,1,90,2|0,0:0|0:0,0:0:0:0:
149,145,37100,2,0,P|105:126|46:140,1,90,2|0,0:0|0:0,0:0:0:0:
123,301,37463,6,0,P|165:322|226:311,1,90,2|0,0:0|0:0,0:0:0:0:
238,162,37827,2,0,P|234:110|190:62,1,90,2|0,0:0|0:0,0:0:0:0:
186,230,38190,1,2,0:0:0:0:
274,245,38372,1,0,0:0:0:0:
149,145,38554,1,2,0:0:0:0:
93,215,38736,1,0,0:0:0:0:
238,162,38918,6,0,L|206:70,1,90,2|0,0:0|0:0,0:0:0:0:
186,230,39281,1,2,0:0:0:0:
274,245,39463,1,0,0:0:0:0:
387,105,39645,2,0,L|352:22,1,90,2|0,0:0|0:0,0:0:0:0:
332,174,40009,1,2,0:0:0:0:
420,189,40190,1,0,0:0:0:0:
298,94,40372,6,0,P|249:71|206:78,1,90,2|0,0:0|0:0,0:0:0:0:
274,245,40736,2,0,P|323:268|366:261,1,90,2|0,0:0|0:0,0:0:0:0:
238,162,41100,2,0,L|175:245,1,90,2|0,0:0|0:0,0:0:0:0:
332,174,41463,2,0,L|400:86,1,90,2|0,0:0|0:0,0:0:0:0:
238,162,41827,5,6,0:0:0:0:
360,253,42009,1,0,0:0:0:0:
298,94,42190,1,2,0:0:0:0:
274,245,42372,1,0,0:0:0:0:
387,102,42554,5,2,0:0:0:0:
207,84,42736,1,0,0:0:0:0:
332,174,42918,1,10,0:0:0:0:
263,7,43100,1,0,0:0:0:0:
183,233,43281,5,8,0:0:0:0:
298,94,43463,1,8,0:0:0:0:
61,142,43645,1,8,0:0:0:0:
130,307,43827,1,8,0:0:0:0:
207,84,44009,5,8,0:0:0:0:
93,224,44190,1,8,0:0:0:0:
332,174,44372,1,8,0:0:0:0:
151,152,44554,1,8,0:0:0:0:
274,245,44736,6,0,P|365:258|422:182,1,180,4|0,0:0|0:0,0:0:0:0:
332,174,45281,1,0,0:0:0:0:
183,233,45463,2,0,B|72:279|72:279|99:207,1,180,8|0,0:0|0:0,0:0:0:0:
151,152,46009,1,0,0:0:0:0:
274,245,46190,5,0,0:0:0:0:
130,307,46372,1,8,0:0:0:0:
61,142,46554,2,0,L|117:66,1,90
183,233,46918,2,0,L|127:309,1,90,8|0,0:0|0:0,0:0:0:0:
151,152,47281,1,0,0:0:0:0:
238,162,47463,1,0,0:0:0:0:
94,225,47645,6,0,L|57:132,1,90
238,162,48009,1,0,0:0:0:0:
130,307,48190,1,0,0:0:0:0:
151,152,48372,2,0,P|175:101|216:76,1,90,8|0,0:0|0:0,0:0:0:0:
274,245,48736,2,0,P|250:296|209:321,1,90
196,320,49009,1,8,0:0:0:0:
169,322,49100,6,0,L|72:322,1,90,0|8,0:0|0:0,0:0:0:0:
23,179,49463,2,0,P|47:128|88:103,1,90
101,104,49736,1,8,0:0:0:0:
128,102,49827,2,0,L|225:102,1,90,0|8,0:0|0:3,0:0:0:0:
386,167,50190,1,8,0:3:0:0:
386,167,50372,1,0,0:0:0:0:
278,283,50554,6,0,L|190:318,1,90,4|0,0:0|0:0,0:0:0:0:
212,138,50918,2,0,L|299:106,1,90,8|0,0:0|0:0,0:0:0:0:
446,213,51281,2,0,L|356:250,1,90,8|0,0:0|0:0,0:0:0:0:
194,316,51645,2,0,P|147:296|117:260,1,90,8|0,0:0|0:0,0:0:0:0:
144,84,52009,5,8,0:0:0:0:
297,108,52190,1,0,0:0:0:0:
278,283,52372,1,8,0:0:0:0:
212,138,52554,1,0,0:0:0:0:
382,79,52736,1,8,0:0:0:0:
286,196,52918,1,0,0:0:0:0:
224,55,53100,1,8,0:0:0:0:
367,162,53281,1,0,0:0:0:0:
131,177,53463,5,8,0:0:0:0:
307,22,53645,1,8,0:0:0:0:
286,196,53827,2,0,P|248:226|177:225,1,90
181,226,54100,1,8,0:0:0:0:
156,213,54190,1,8,0:0:0:0:
297,108,54372,1,8,0:3:0:0:
357,247,54554,2,0,P|320:277|267:282,1,90,8|0,0:3|0:0,0:0:0:0:
382,79,54918,5,12,0:0:0:0:
382,79,56372,6,0,L|281:114,1,90,6|0,0:0|0:0,0:0:0:0:
349,263,56736,2,0,L|374:151,1,90,10|0,0:0|0:0,0:0:0:0:
197,221,57100,1,2,0:0:0:0:
326,345,57281,1,0,0:0:0:0:
281,199,57463,2,0,P|255:155|205:133,1,90,10|0,0:0|0:0,0:0:0:0:
262,286,57827,6,0,P|345:260|365:173,1,180,2|10,0:0|0:0,0:0:0:0:
239,49,58372,2,0,B|146:73,1,90,0|2,0:0|0:0,0:0:0:0:
281,199,58736,2,0,P|301:147|290:98,1,90,0|10,0:0|0:0,0:0:0:0:
218,142,59100,1,0,0:0:0:0:
262,286,59281,6,0,B|355:262,1,90,2|0,0:0|0:0,0:0:0:0:
197,221,59645,1,10,0:0:0:0:
241,367,59827,1,0,0:0:0:0:
281,199,60009,1,2,0:0:0:0:
107,247,60190,1,0,0:0:0:0:
262,286,60372,2,0,P|311:283|360:239,1,90,10|0,0:0|0:0,0:0:0:0:
218,142,60736,6,0,B|116:96|116:96|130:164,1,180,2|10,0:0|0:0,0:0:0:0:
281,199,61281,1,0,0:0:0:0:
302,112,61463,1,2,0:0:0:0:
197,221,61645,1,4,0:0:0:0:
344,261,61827,2,0,L|446:235,1,90,14|0,0:0|0:0,0:0:0:0:
302,112,62190,5,6,0:0:0:0:
262,286,62372,1,0,0:0:0:0:
366,178,62554,1,10,0:0:0:0:
281,199,62736,1,0,0:0:0:0:
427,238,62918,1,2,0:0:0:0:
387,91,63100,1,0,0:0:0:0:
344,261,63281,1,10,0:0:0:0:
454,154,63463,1,0,0:0:0:0:
302,112,63645,6,0,P|254:113|202:158,1,90,2|0,0:0|0:0,0:0:0:0:
344,261,64009,2,0,P|392:260|444:215,1,90,10|0,0:0|0:0,0:0:0:0:
281,199,64372,1,6,0:0:0:0:
262,286,64554,1,0,0:0:0:0:
366,178,64736,1,14,0:0:0:0:
218,141,64918,1,0,0:0:0:0:
344,261,65100,6,0,B|448:304|448:304|425:229,1,180,6|10,0:0|0:0,0:0:0:0:
302,112,65645,1,0,0:0:0:0:
197,221,65827,2,0,P|174:264|178:322,1,90,6|0,0:0|0:0,0:0:0:0:
344,261,66190,1,10,0:0:0:0:
218,141,66372,1,0,0:0:0:0:
262,286,66554,6,0,P|290:328|356:345,2,90,6|0|10,0:0|0:0|0:0,0:0:0:0:
218,141,67100,1,0,0:0:0:0:
366,178,67281,1,14,0:0:0:0:
390,189,67372,1,8,0:0:0:0:
410,207,67463,1,8,0:0:0:0:
423,230,67554,1,8,0:0:0:0:
430,255,67645,1,10,0:0:0:0:
427,281,67736,1,8,0:0:0:0:
417,306,67827,1,8,0:0:0:0:
400,327,67918,1,8,0:0:0:0:
376,341,68009,6,0,P|326:346|279:318,1,90,6|0,0:0|0:0,0:0:0:0:
218,141,68372,1,10,0:0:0:0:
366,178,68554,1,0,0:0:0:0:
197,221,68736,2,0,L|130:160,1,90,2|0,0:0|0:0,0:0:0:0:
299,117,69100,2,0,L|366:178,1,90,10|0,0:0|0:0,0:0:0:0:
262,286,69463,6,0,P|180:312|112:258,1,180,2|10,0:0|0:0,0:0:0:0:
218,141,70009,1,0,0:0:0:0:
344,261,70190,1,2,0:0:0:0:
197,221,70372,1,0,0:0:0:0:
299,117,70554,2,0,P|336:92|390:91,1,90,10|0,0:0|0:0,0:0:0:0:
344,261,70918,6,0,P|307:286|253:287,1,90,2|0,0:0|0:0,0:0:0:0:
218,141,71281,1,10,0:0:0:0:
279,207,71463,1,0,0:0:0:0:
134,159,71645,2,0,L|165:67,1,90,2|0,0:0|0:0,0:0:0:0:
197,221,72009,1,10,0:0:0:0:
50,180,72190,1,0,0:0:0:0:
218,141,72372,6,0,B|331:174|331:174|265:216,1,180,2|10,0:0|0:0,0:0:0:0:
107,241,72918,1,0,0:0:0:0:
162,73,73100,1,2,0:0:0:0:
197,221,73281,1,4,0:0:0:0:
50,180,73463,2,0,L|-18:118,1,90,14|0,0:0|0:0,0:0:0:0:
162,73,73827,6,0,P|240:56|304:138,1,180,6|2,0:0|0:0,0:0:0:0:
218,141,74372,1,0,0:0:0:0:
69,94,74554,2,0,L|-9:24,1,90,10|0,0:0|0:0,0:0:0:0:
50,180,74918,2,0,L|128:250,1,90,2|0,0:0|0:0,0:0:0:0:
263,280,75281,6,0,B|389:293|389:293|330:241,1,180,2|2,0:0|0:0,0:0:0:0:
282,199,75827,1,0,0:0:0:0:
172,306,76009,2,0,P|197:348|244:373,1,90,10|0,0:0|0:0,0:0:0:0:
348,257,76372,2,0,P|369:212|355:150,1,90,2|0,0:0|0:0,0:0:0:0:
216,137,76736,6,0,P|134:163|120:258,1,180,6|2,0:0|0:0,0:0:0:0:
197,221,77281,1,0,0:0:0:0:
302,111,77463,2,0,P|276:70|218:47,1,90,10|0,0:0|0:0,0:0:0:0:
216,137,77827,1,2,0:0:0:0:
282,199,78009,1,0,0:0:0:0:
450,149,78190,5,2,0:0:0:0:
302,111,78372,2,0,L|203:140,1,90,0|2,0:0|0:0,0:0:0:0:
365,172,78736,1,0,0:0:0:0:
233,48,78918,2,0,L|134:77,1,90,10|0,0:0|0:0,0:0:0:0:
282,199,79281,1,10,0:0:0:0:
380,89,79463,1,8,0:0:0:0:
380,89,79554,1,8,0:0:0:0:
380,89,79645,6,0,P|346:42|291:29,1,90,14|0,0:0|0:0,0:0:0:0:
282,199,80009,1,2,0:0:0:0:
365,172,80190,1,0,0:0:0:0:
215,136,80372,1,2,0:0:0:0:
263,280,80554,1,0,0:0:0:0:
302,111,80736,1,2,0:0:0:0:
129,161,80918,1,0,0:0:0:0:
348,257,81100,5,8,0:0:0:0:
233,48,81281,1,10,0:0:0:0:
107,248,81463,1,8,0:0:0:0:
302,111,81645,1,10,0:0:0:0:
41,183,81827,1,8,0:0:0:0:
263,280,82009,1,10,0:0:0:0:
61,100,82190,1,8,0:0:0:0:
79,331,82372,1,10,0:0:0:0:
282,199,82554,6,0,L|303:105,1,90,4|0,0:0|0:0,0:0:0:0:
196,223,82918,1,2,0:0:0:0:
365,172,83100,2,0,L|387:72,1,90,4|0,0:0|0:0,0:0:0:0:
263,280,83463,1,2,0:0:0:0:
448,149,83645,2,0,L|470:49,1,90,4|0,0:0|0:0,0:0:0:0:
233,48,84009,5,12,0:0:0:0:
348,257,84190,1,8,0:0:0:0:
321,24,84372,1,8,0:0:0:0:
196,223,84554,2,0,P|176:272|190:327,1,90,4|0,0:0|0:0,0:0:0:0:
348,257,84918,2,0,P|355:151|295:111,1,180,4|0,0:0|0:0,0:0:0:0:
263,280,85463,5,6,0:0:0:0:
256,192,85554,12,0,88736,0:0:0:0:
