osu file format v9

[General]
AudioFilename: ED.mp3
AudioLeadIn: 1000
PreviewTime: 57598
Countdown: 0
SampleSet: Soft
StackLeniency: 0.7
Mode: 0
LetterboxInBreaks: 0

[Editor]
Bookmarks: 56692
DistanceSpacing: 0.8
BeatDivisor: 2
GridSize: 4

[Metadata]
Title:Kimi no Shiranai Monogatari (TV Size)
Artist:supercell
Creator:TTTTTTTTTTTT
Version:Normal
Source:Bakemonogatari
Tags:lks pokie senjougahara hitagi h-boy

[Difficulty]
HPDrainRate:3
CircleSize:4
OverallDifficulty:4
ApproachRate:4
SliderMultiplier:1.3
SliderTickRate:1

[Events]
//Background and Video events
0,0,"bg.png"
//Break Periods
//Storyboard Layer 0 (Background)
//Storyboard Layer 1 (Fail)
//Storyboard Layer 2 (Pass)
//Storyboard Layer 3 (Foreground)
//Storyboard Sound Samples
//Background Colour Transformations
3,100,163,162,255

[TimingPoints]
1450,363.636363636364,4,2,0,59,1,0
17339,-100,4,1,0,36,0,0
18066,-100,4,1,0,57,0,0
18611,-100,4,2,0,59,0,0
20248,-100,4,2,0,37,0,0
20429,-100,4,2,0,59,0,0
23157,-100,4,2,0,37,0,0
23339,-100,4,2,0,59,0,0
42431,-100,4,2,0,34,0,0
42794,-100,4,2,0,44,0,0
43158,-100,4,2,0,54,0,0
43521,-100,4,2,0,60,0,0
43885,-100,4,2,0,65,0,0
44249,-100,4,2,0,74,0,0
44431,-100,4,2,0,59,0,0
44531,-100,4,2,0,61,0,0
56722,-100,4,2,0,61,0,1
80249,-100,4,2,0,59,0,1
80431,-100,4,2,0,50,0,1
80976,-100,4,2,0,60,0,1
81158,-100,4,2,0,70,0,1
81521,-100,4,2,0,78,0,1
81885,-100,4,2,0,84,0,1
82249,-100,4,2,0,90,0,1
82612,-100,4,2,0,74,0,1
85813,-100,4,2,0,53,0,0

[Colours]
Combo1 : 128,0,255
Combo2 : 253,172,247
Combo3 : 128,0,128
SliderBorder : 255,255,255

[HitObjects]
256,48,1450,2,0,B|416:64|472:208,2,260,0|2|0
256,256,3631,1,2
56,192,4359,6,0,B|216:176|272:32,2,260,0|2|0
256,256,6540,1,2
392,96,7268,6,0,B|320:208|400:360,1,260,4|2
208,240,8722,1,0
64,88,9450,1,2
272,56,10177,6,4,B|336:112|480:96,1,195
384,176,11086,2,2,B|432:296,1,130
328,280,11813,2,0,B|264:256|184:296,2,130,2|2|4
456,192,13086,5,2
352,192,13450,1,0
408,104,13813,1,0
304,104,14177,1,0
200,104,14540,5,2
96,104,14904,1,0
24,176,15268,1,0
96,248,15631,1,0
200,248,15995,6,0,B|336:248,1,130,2|0
392,160,16722,2,0,B|256:160,1,130
160,160,17450,5,0
228,240,17813,1,0
328,260,18177,1,0
256,332,18540,1,0
152,328,18904,6,0,B|0:328,2,130,0|0|2
200,240,19995,1,0
264,160,20359,2,0,B|424:176|464:336,2,260,4|0|0
160,160,22177,5,0
204,64,22540,2,0,B|52:64,2,130,2|0|4
312,64,23631,2,0,B|416:88|416:160|424:216|368:264,1,260,0|0
276,216,24722,6,0,B|204:168|108:272|76:224|28:168,3,260
200,48,27631,6,0,B|352:24|424:152|384:280|280:304,2,390
120,240,30540,6,0,B|104:160|176:128,1,130,4|0
272,120,31268,2,0,B|416:120,1,130,2|0
480,48,31995,1,2
402,120,32359,1,0
468,200,32722,2,0,B|492:304|500:336,1,130,2|0
392,312,33450,6,0,B|312:328|280:256,1,130,2|0
320,168,34177,2,0,B|176:168,1,130,2|0
184,64,34904,1,2
96,124,35268,1,0
190,168,35631,2,0,B|214:272|222:304,1,130,2|0
272,204,36359,6,0,B|344:156|440:260|472:212|520:156,3,260
312,104,39268,6,0,B|240:56|144:160|112:112|64:56,3,260
24,272,42177,5,4
120,236,42540,2,0,B|264:252,3,130,0|0|0|0
192,164,43995,2,0,B|40:148,1,130,0|0
248,60,45086,5,4
328,128,45450,1,0
360,224,45813,2,0,B|416:160|496:184,2,130,2|0|0
288,304,46904,6,0,B|224:240|104:320|40:224,1,260
80,136,47995,1,2
184,116,48359,1,0
280,160,48722,1,0
384,136,49086,6,0,B|440:80|520:64,2,130,2|0|0
464,200,50177,2,0,B|464:328|304:320|368:208|280:240|264:216,1,260
168,232,51268,6,0,B|40:296,2,130
272,232,52359,2,0,B|392:288,2,130
224,136,53450,1,2
224,136,53813,1,4
256,192,53995,12,4,55268
256,184,56722,5,4
160,136,57086,1,0
248,80,57450,1,0
344,120,57813,1,2
344,120,58177,2,0,B|480:88,2,130,0|0|0
248,80,59268,1,0
148,116,59631,2,0,B|100:172|4:156,2,130,2|0|0
248,128,60722,5,0
336,192,61086,2,0,B|472:192,2,130,2|0|0
232,192,62177,2,0,B|136:184|128:240|128:264,2,130,0|2|0
320,256,63268,1,0
408,192,63631,1,2
408,192,63995,2,0,B|496:168|488:88,1,130
384,80,64722,6,0,B|256:56,1,130,0|4
152,80,65450,1,0
152,80,65813,1,2
168,184,66177,2,0,B|232:224|240:312,1,130
280,192,66904,6,0,B|400:136,1,130,2|0
304,96,67631,2,0,B|176:48,2,130,0|0|4
408,80,68722,1,0
376,176,69086,1,2
480,160,69450,6,0,B|416:296,1,130
336,224,70177,2,0,B|288:176|224:200|216:232,2,130,2|0|0
432,176,71268,2,0,B|480:48,1,130,2|0
376,44,71995,2,0,B|320:168,1,130,2|0
256,84,72722,5,0
256,84,73086,1,2
160,48,73450,2,0,B|72:40|56:104,1,130
148,152,74177,2,0,B|164:208|233:251|233:251|240:244|220:256|308:216|308:136,1,260
404,120,75268,5,0
308,80,75631,2,0,B|204:40|140:56|52:32,1,260,2|0
84,132,76722,1,0
180,176,77086,2,0,B|324:176|356:280|348:352,1,260,2|0
408,248,78177,5,0
364,152,78540,2,0,B|284:88|244:200|132:208|108:128,1,260,2|0
192,80,79631,1,0
192,80,79995,2,0,B|304:0|440:72,1,260,2|0
360,144,81086,6,0,B|384:208|472:232,3,130
328,248,82540,2,0,B|304:312|216:336,3,130,0|4|0|0
192,208,83995,6,0,B|72:136,2,130
236,236,84904,1,2
332,184,85268,1,2
420,120,85631,2,0,B|420:44,1,65,0|4
