osu file format v9

[General]
AudioFilename: ED.mp3
AudioLeadIn: 1000
PreviewTime: 57598
Countdown: 0
SampleSet: Soft
StackLeniency: 0.7
Mode: 0
LetterboxInBreaks: 0

[Editor]
Bookmarks: 56692
DistanceSpacing: 1.4
BeatDivisor: 4
GridSize: 4

[Metadata]
Title:Kimi no Shiranai Monogatari (TV Size)
Artist:supercell
Creator:TTTTTTTTTTTT
Version:Hard
Source:Bakemonogatari
Tags:lks pokie senjougahara hitagi h-boy

[Difficulty]
HPDrainRate:5
CircleSize:4
OverallDifficulty:6
ApproachRate:7
SliderMultiplier:1.2
SliderTickRate:1

[Events]
//Background and Video events
0,0,"bg.png"
//Break Periods
//Storyboard Layer 0 (Background)
//Storyboard Layer 1 (Fail)
//Storyboard Layer 2 (Pass)
//Storyboard Layer 3 (Foreground)
//Storyboard Sound Samples
//Background Colour Transformations
3,100,163,162,255

[TimingPoints]
1450,363.636363636364,4,2,1,61,1,0
2783,-100,4,2,0,61,0,0
2965,-100,4,2,1,61,0,0
4238,-100,4,2,0,61,0,0
4420,-100,4,2,1,61,0,0
5692,-100,4,2,0,61,0,0
7147,-100,4,2,1,61,0,0
14420,-100,4,2,0,61,0,0
16238,-100,4,2,1,61,0,0
17521,-100,4,2,1,40,0,0
17703,-100,4,2,1,46,0,0
17885,-100,4,2,1,53,0,0
18067,-100,4,2,1,60,0,0
18249,-100,4,2,1,65,0,0
18431,-100,4,2,1,72,0,0
18612,-100,4,2,1,79,0,0
18783,-100,4,2,0,49,0,0
30420,-100,4,1,0,44,0,0
30601,-100,4,1,0,35,0,0
31147,-100,4,2,0,49,0,0
31329,-100,4,1,0,35,0,0
34056,-100,4,2,0,50,0,0
34238,-100,4,1,0,35,0,0
36238,-100,4,2,0,56,0,0
42420,-100,4,1,0,29,0,0
42783,-100,4,1,0,37,0,0
43147,-100,4,1,0,45,0,0
43510,-100,4,1,0,55,0,0
44965,-100,4,1,0,66,0,0
45147,-100,4,1,0,50,0,0
46056,-100,4,2,0,50,0,0
46238,-100,4,1,0,50,0,0
47874,-100,4,2,0,50,0,0
48056,-100,4,1,0,50,0,0
50783,-100,4,2,0,50,0,0
55510,-100,4,2,0,31,0,0
55794,-133.333333333333,4,2,0,31,0,0
56722,-100,4,1,1,40,0,1
61874,-100,4,2,0,53,0,1
62056,-100,4,1,1,40,0,1
80783,-100,4,1,1,25,0,1
80976,-100,4,1,1,32,0,1
81340,-100,4,1,1,38,0,1
81703,-100,4,1,1,44,0,1
82067,-100,4,1,1,50,0,1
82431,-100,4,1,1,56,0,1
82794,-100,4,1,1,64,0,1
82976,-100,4,1,1,30,0,1
83076,-100,4,1,1,40,0,1
83176,-100,4,1,1,30,0,1
84631,-100,4,1,1,40,0,1
85540,-100,4,1,1,30,0,1
85813,-100,4,1,1,30,0,0

[Colours]
Combo1 : 128,0,255
Combo2 : 253,172,247
Combo3 : 128,0,128
SliderBorder : 255,255,255

[HitObjects]
256,192,1450,1,4
176,104,1813,1,0
288,72,2177,2,0,B|416:72,1,120,2|0
432,192,2904,5,2
328,256,3268,1,0
328,256,3631,2,0,B|200:256,1,120,2|2
128,168,4359,5,2
200,72,4722,1,0
200,72,5086,2,0,B|72:72,1,120,2|0
264,72,5813,5,2
432,144,6177,1,2
304,48,6540,1,2
289,217,6904,1,2
288,344,7268,6,0,B|200:344|200:264,1,120,4|0
280,184,7995,2,0,B|368:184,2,60,2|0|0
160,184,8722,6,0,B|88:184|80:256,1,120
192,296,9450,2,2,B|272:296,1,60
252,296,9813,1,2
360,248,10177,5,4
400,208,10359,1,0
344,200,10540,1,2
344,200,10722,1,4
224,200,11086,5,0
168,184,11268,1,2
216,152,11450,1,4
336,128,11813,5,2
384,92,11995,1,2
328,76,12177,1,4
328,76,12540,1,4
256,192,13086,12,2,14540
248,272,15086,5,2
328,112,15631,1,2
208,128,15995,1,2
304,200,16359,5,0
208,128,16722,2,0,B|128:128,1,60
116,180,17086,2,0,B|144:248,1,60,0|4
256,264,17631,5,0
312,240,17813,1,0
336,184,17995,1,0
336,128,18177,1,0
296,88,18359,1,0
240,72,18540,1,0
184,88,18722,1,0
136,128,18904,6,0,B|176:168|120:208|168:256,1,120,0|0
216,264,19450,1,0
272,280,19631,1,0
328,264,19813,1,0
328,264,19995,2,0,B|456:264,2,120,0|2|0
372,188,20904,2,0,B|236:188,1,120
112,80,21631,5,0
96,136,21813,1,0
80,192,21995,1,0
64,248,22177,2,0,B|96:208|144:272|184:232,1,120,2|0
240,240,22722,1,0
240,240,22904,2,0,B|216:216|256:184|224:168,2,60,0|0|2
296,264,23450,1,0
344,304,23631,1,0
288,328,23813,2,0,B|248:304|224:344|160:320,2,120
344,304,24722,6,0,B|480:304|480:200,1,180
512,160,25450,2,0,B|304:160,1,180
272,144,26177,2,0,B|328:208|224:256|296:320,1,180
287,311,26904,1,2
64,200,27450,5,0
64,200,27631,2,0,B|136:160|176:232|248:200,1,180
176,96,28540,1,0
232,72,28722,1,0
292,84,28904,2,0,B|372:60|404:140|476:108,2,180
260,136,30177,1,0
256,280,30540,5,4
232,224,30722,1,0
208,168,30904,2,0,B|168:168|144:168|128:168,1,60,0|0
96,136,31268,1,4
96,136,31450,1,0
72,192,31631,2,0,B|72:264,1,60,0|0
128,272,31995,2,0,B|168:240|168:280|184:264,2,60,0|0|0
152,328,32540,2,2,B|24:328,1,120
32,328,33086,1,0
48,272,33268,5,0
72,216,33450,2,0,B|152:216,1,60,4|0
176,176,33813,2,0,B|232:152|264:200|304:160,1,120,0|4
336,120,34359,1,0
396,128,34540,2,0,B|428:68,3,60,0|0|0|0
384,32,35268,1,0
384,32,35450,2,2,B|456:16|472:64|520:16,1,120
501,30,35995,1,0
376,144,36359,6,0,B|296:144|296:64,1,120,2|0
416,56,37086,2,0,B|504:56|504:128,1,120,0|0
408,184,37813,2,0,B|280:184,1,120,2|0
200,264,38540,2,0,B|328:264,1,120,0|0
240,176,39268,1,2
120,176,39631,1,0
184,72,39995,1,0
184,192,40359,1,0
256,192,40722,12,0,42177
248,280,42540,6,0,B|328:280,1,60
368,224,42904,1,0
368,224,43086,1,0
400,144,43268,2,0,B|488:144,1,60
488,64,43631,1,0
488,64,43813,1,0
404,72,43995,6,0,B|324:72,1,60
263,98,44359,2,0,B|215:154,1,60
168,208,44722,5,0
168,208,45086,1,4
120,320,45449,2,0,B|-8:320,1,120,0|0
80,232,46177,1,4
140,232,46359,1,0
200,232,46540,2,0,B|248:200|264:248|336:216,1,120
416,152,47268,5,0
320,80,47631,1,0
256,80,47813,1,0
192,80,47995,2,0,B|152:112|176:160|112:184,1,120,4|0
192,280,48722,1,0
192,280,49086,6,0,B|272:264|296:312|328:288,1,120
352,184,49813,2,0,B|448:272,1,120
480,312,50359,1,0
480,312,50540,1,0
360,336,50904,6,0,B|296:360|280:304|248:312,1,120,4|0
152,248,51631,1,0
152,248,51995,1,0
256,192,52359,6,0,B|320:216|336:160|368:168,1,120,2|0
456,88,53086,1,0
456,88,53449,1,0
336,96,53813,5,2
336,96,53995,1,0
336,96,54177,1,0
248,176,54540,1,0
187,155,54722,1,0
128,144,54904,2,0,B|88:112|160:80|112:32,1,120
128,144,55631,5,0
184,112,55813,2,0,B|232:72|336:156|392:72,1,224.999993294478,0|4
392,72,56904,5,0
436,144,57086,2,0,B|516:144,2,60,2|0|0
360,176,57631,1,0
360,176,57722,1,0
360,176,57813,6,0,B|240:176,1,120,8|0
152,176,58359,1,0
80,136,58540,2,0,B|96:112|64:80|96:64,2,60,2|0|0
80,224,59086,1,0
160,256,59268,2,0,B|304:256,1,120,8|0
344,200,59813,5,0
344,200,59904,1,0
344,200,59995,1,0
288,136,60177,1,4
288,136,60359,2,0,B|200:136|208:208,1,120
128,168,60904,1,0
168,96,61086,5,4
232,152,61268,1,0
296,208,61449,2,0,B|352:192|368:224|416:216,1,120
296,208,61995,21,4
216,200,62177,2,0,B|168:168|144:216|80:192,1,120,2|0
72,120,62722,2,0,B|176:32,1,120
192,120,63268,2,0,B|312:120,1,120
392,120,63813,1,0
456,176,63995,1,8
392,232,64177,1,0
392,232,64268,1,0
392,232,64359,1,0
392,232,64540,1,0
304,232,64722,6,0,B|216:232|216:160,1,120,0|4
384,144,65449,2,0,B|472:144,2,60,0|0|2
384,144,65995,1,0
320,88,66177,2,0,B|288:56|248:120|184:72,1,120,4|0
128,128,66722,5,0
88,200,66904,2,0,B|136:216|96:288|176:304,1,120
232,296,67449,1,0
232,296,67631,1,2
232,296,67813,2,8,B|232:240,2,30
312,328,68177,2,0,B|336:304|352:344|392:312,1,60,0|4
440,280,68540,6,0,B|488:224,1,60,0|8
400,208,68904,2,0,B|320:208,1,60,0|2
256,208,69268,1,0
212,208,69359,1,0
168,208,69449,2,0,B|120:232|80:184|40:216,1,120,8|0
16,136,69995,5,0
80,80,70177,1,8
80,80,70359,2,0,B|120:40|168:104|216:64,1,120
280,80,70904,1,2
280,80,71086,2,0,B|368:80,2,60,0|8|0
216,136,71631,2,0,B|144:136,2,60,8|0|0
304,136,72177,1,0
304,136,72268,1,0
304,136,72359,6,0,B|432:136,2,120,2|0|8
248,200,73268,1,0
248,200,73449,1,2
248,200,73631,2,0,B|160:200|160:264,1,120,4|0
232,304,74177,2,0,B|368:304,1,120
344,224,74722,2,0,B|424:224,2,60
256,224,75268,6,0,B|168:224|168:144|176:152,2,120,0|8|0
344,224,76177,1,0
344,224,76359,1,2
416,176,76540,1,0
416,176,76722,2,0,B|440:128|384:112|416:48,2,120,4|0|4
264,248,77813,1,8
168,112,78177,5,0
320,48,78540,2,0,B|408:32|440:112|400:160|376:184|304:160,1,240
240,168,79449,1,0
240,168,79631,2,0,B|160:168,1,60
96,168,79995,2,0,B|8:152|-24:232|16:280|40:304|112:280,1,240,4|0
168,312,80904,6,0,B|248:312,1,60
304,272,81268,1,0
304,272,81449,1,0
376,224,81631,2,0,B|376:144,1,60
304,120,81995,1,0
304,120,82177,6,0,B|224:120,3,60
160,120,82904,1,4
96,176,83086,2,0,B|128:216|64:256|120:304,1,120,0|4
176,336,83631,2,0,B|312:336,1,120,0|4
376,192,84359,5,0
376,192,84722,1,0
376,192,84904,1,0
256,72,85268,1,0
140,192,85631,1,0
140,192,85813,1,4
